osu file format v9

[General]
AudioFilename: Digimon Xros Wars - Never Give Up.mp3
AudioLeadIn: 1500
PreviewTime: 57969
Countdown: 0
SampleSet: Soft
StackLeniency: 0.7
Mode: 0
LetterboxInBreaks: 0

[Editor]
Bookmarks: 1455,16561,34519,48251,57547,87124,91349,119237,128532,158110,189800,203744,239342
DistanceSpacing: 1
BeatDivisor: 4
GridSize: 8

[Metadata]
Title:Never Give Up!
Artist:Sonar Pocket
Creator:hillaryzx
Version:Xros Heart
Source:Digimon Xros Wars
Tags:cross heart blue flare bagura army twilight loader j4yj4ys3z

[Difficulty]
HPDrainRate:6
CircleSize:4
OverallDifficulty:6
ApproachRate:6
SliderMultiplier:1.4
SliderTickRate:1

[Events]
//Background and Video events
0,0,"digimon-6-cross-wars-confirmado.jpg"
//Break Periods
2,8310,16567
2,86690,90933
2,157676,162130
2,189155,203116
//Storyboard Layer 0 (Background)
//Storyboard Layer 1 (Fail)
//Storyboard Layer 2 (Pass)
//Storyboard Layer 3 (Foreground)
//Storyboard Sound Samples
//Background Colour Transformations
3,100,163,162,255

[TimingPoints]
1350,422.535211267606,4,2,0,100,1,0
4519,-100,4,1,0,100,0,0
57547,-100,4,1,0,100,0,0
57969,-100,4,1,0,100,0,1
86596,-100,4,1,0,100,0,0
128532,-100,4,1,0,100,0,1
157899,-100,4,1,0,100,0,0
204166,-100,4,1,0,100,0,1
239237,-100,4,1,0,100,0,0

[Colours]
Combo1 : 128,0,255
Combo2 : 255,0,0
Combo3 : 5,5,240
Combo4 : 255,255,0

[HitObjects]
96,88,1350,1,0
24,208,1772,1,2
64,344,2195,1,2
160,248,2617,2,2,B|240:304,1,70
280,328,3040,1,2
368,216,3462,2,2,B|536:216|536:216,1,140
400,104,4307,5,2
264,144,4730,2,0,B|176:144,1,70
128,136,5152,1,0
128,168,5258,2,0,B|80:168,10,35
256,192,6420,12,4,8110
200,72,17617,5,2
272,72,17828,1,2
344,72,18040,1,2
416,72,18251,2,0,B|416:160,1,70,0|4
488,152,18673,2,2,B|488:304,1,140,0|4
416,304,19307,1,0
344,304,19519,1,0
272,304,19730,1,0
200,304,19941,2,2,B|32:304,1,140
32,96,20997,5,0
104,96,21209,1,0
80,32,21420,2,0,B|160:32,1,70
256,32,21948,1,0
240,112,22265,2,0,B|320:112,1,70
392,112,22793,1,0
400,8,23110,1,0
472,24,23321,1,0
496,88,23533,1,0
496,120,23638,1,0
504,160,23744,5,2
504,232,23955,1,2
368,184,24378,5,0
312,136,24589,1,0
240,136,24800,2,2,B|168:136,1,70
32,168,25434,1,8
24,240,25645,1,8
96,240,25857,2,0,B|120:320|120:320|184:344,1,140
312,344,26702,1,0
448,344,27124,1,0
504,304,27335,2,0,B|504:192|504:192|408:192,1,210,0|0
288,264,28392,6,2,B|208:264,1,70
152,248,28814,1,8
152,320,29026,1,0
24,272,29448,2,2,B|24:192,1,70
96,200,29871,2,2,B|96:128,1,70
32,96,30293,5,0
32,24,30504,1,0
104,24,30716,1,0
176,24,30927,1,0
312,32,31349,2,2,B|384:32,1,70
328,80,31772,2,2,B|400:80,1,70
368,144,32195,2,8,B|474:144|474:144|474:200,1,140
416,216,32828,5,8
280,232,33251,2,2,B|280:344|280:344|104:344,1,280
112,312,34202,1,0
256,192,34519,12,0,35575
64,216,35997,6,8,B|144:216,1,70
208,216,36420,1,4
336,160,36842,1,2
464,216,37265,1,0
400,248,37476,2,8,B|328:296,1,70
280,312,37899,1,0
208,312,38110,1,0
136,312,38321,1,0
80,272,38533,1,2
40,136,38955,6,0,B|136:80|136:80|304:80,1,280
352,24,40011,1,0
424,24,40223,1,0
472,72,40434,1,0
432,128,40645,2,2,B|432:272,1,140
296,280,41490,6,0,B|208:280,1,70
168,320,41913,1,8
160,184,42335,2,0,B|160:104,1,70
88,120,42758,1,8
48,256,43180,6,0,B|48:184,1,70
16,120,43603,1,8
120,24,44026,1,0
192,24,44237,1,8
160,88,44448,1,0
232,88,44659,2,8,B|384:88,1,140
376,160,45293,1,0
256,192,46350,12,0,48251
456,320,48673,6,4,B|288:320,1,140
240,320,49307,1,0
168,320,49519,1,8
96,320,49730,1,0
24,320,49941,1,8
24,240,50152,6,2,B|24:96,1,140
56,32,50786,1,0
128,32,50997,1,0
152,168,51420,1,0
208,288,51842,6,0,B|280:288,1,70
280,216,52265,1,8
280,144,52476,2,0,B|280:56,1,70
352,56,52899,1,8
400,104,53110,2,0,B|464:184,1,70
448,232,53533,1,8
424,296,53744,1,0
352,296,53955,1,8
256,192,54800,12,0,56702
256,192,57124,5,2
464,56,57969,2,0,B|464:144|464:144|408:160,1,140
392,224,58603,1,4
464,224,58814,1,0
480,360,59237,2,8,B|328:360,1,140
240,264,60082,5,8
112,328,60504,2,2,B|32:328,1,70
96,280,60927,1,8
144,232,61138,1,8
8,208,61561,1,0
32,144,61772,2,2,B|32:88|32:88|96:24,1,140
160,32,62406,1,8
232,32,62617,1,8
272,88,62828,5,4
312,32,63040,2,2,B|400:32,1,70
440,64,63462,2,8,B|440:152,1,70
488,184,63885,1,8
488,256,64096,2,4,B|488:328|488:328|280:328,1,280
192,136,65575,6,2,B|192:280|192:280|104:280,1,210,2|4
0,216,66631,2,0,B|0:120,1,70
16,72,67054,1,8
88,72,67265,1,8
136,120,67476,1,8
256,192,67899,1,4
184,272,68321,2,8,B|264:336,1,70
312,312,68744,1,4
392,80,69589,5,8
464,80,69800,1,0
464,152,70011,1,0
392,152,70223,1,12
392,224,70434,1,2
256,192,71702,6,2,B|192:144,1,70
256,192,72124,2,2,B|312:136,1,70
256,192,72547,2,2,B|320:248,1,70
256,192,72969,2,2,B|184:264,1,70
152,288,73392,1,8
96,240,73603,2,0,B|96:88,1,140
136,40,74237,1,8
272,40,74659,1,8
416,40,75082,6,0,B|416:200,1,140
376,232,75716,1,8
448,232,75927,1,8
448,304,76138,2,2,B|288:304,1,140
264,248,76772,1,8
216,304,76983,2,0,B|56:304,1,140
8,304,77617,1,0
8,232,77828,1,0
8,232,78040,1,0
56,72,78673,6,0,B|136:8|136:8|192:48,1,140
184,168,79519,1,0
224,112,79730,1,0
264,56,79941,2,2,B|360:56,1,70
408,56,80364,1,8
496,168,80786,2,0,B|424:152|360:192|352:296,1,210
424,304,81631,1,0
368,344,81842,1,0
296,344,82054,1,0
224,344,82265,1,0
0,344,83321,6,0,B|0:136,1,210
208,216,85011,2,2,B|368:216,2,140
208,56,86490,1,4
408,72,91983,6,0,B|320:72,1,70
288,24,92406,2,0,B|200:24,1,70
152,24,92828,1,8
152,96,93040,1,8
152,96,93251,2,2,B|368:152,1,210
472,72,94307,5,0
472,144,94519,2,2,B|472:296,1,140
336,328,95364,2,8,B|240:328,1,70
160,232,95997,1,0
160,304,96209,1,0
96,328,96420,1,0
80,264,96631,2,0,B|112:168|112:168|224:168,1,210
280,208,97476,6,2,B|280:128,1,70
144,96,98110,1,8
352,48,98744,2,0,B|352:208,1,140
424,184,99378,1,8
440,256,99589,1,8
408,320,99800,1,8
336,328,100011,2,0,B|240:328,1,70
128,344,100645,5,0
56,344,100857,2,0,B|0:280,1,70
72,256,101279,1,0
64,184,101490,1,0
64,184,101702,2,4,B|136:96,1,105
304,64,102547,6,8,B|376:64|392:64,1,70
432,24,102969,1,8
488,64,103180,2,2,B|488:160,1,70
416,136,103603,2,2,B|456:208,1,70
424,336,104237,6,0,B|352:336|336:336,1,70
320,272,104659,1,8
248,288,104871,2,2,B|248:192,1,70
184,184,105293,2,2,B|112:112,1,70
88,88,105716,1,8
384,40,106349,6,0,B|384:128,1,70
456,112,106772,1,8
416,168,106983,2,8,B|416:240,2,70
360,120,107617,2,4,B|272:120,1,70
312,256,108251,6,0,B|224:256,1,70
312,256,108673,1,8
312,328,108885,2,8,B|240:328,2,70
384,328,109519,1,4
456,208,109941,2,0,B|512:168|480:96,1,105
424,32,110575,1,0
352,32,110786,1,0
280,32,110997,5,2
240,104,111209,1,8
320,104,111420,2,2,B|408:104,1,70
248,216,112054,1,0
424,216,112476,2,0,B|328:344,1,140
208,280,113321,5,8
136,280,113533,1,8
72,312,113744,1,4
40,248,113955,2,0,B|40:96,1,140
88,56,114589,1,8
160,176,115011,1,8
160,104,115223,2,2,B|304:104,1,140
368,80,115857,5,0
400,144,116068,2,2,B|400:280|400:280|328:336|328:336|248:336,1,280
208,336,117124,1,0
136,336,117335,1,0
104,272,117547,1,0
240,248,117969,2,2,B|168:144|168:144|64:144,1,210
256,64,119659,6,4,B|424:64,1,140
456,32,120293,1,8
456,104,120504,1,8
392,136,120716,1,8
392,64,120927,1,8
312,168,121349,6,4,B|312:312,1,140
384,312,121983,1,0
456,192,122406,1,8
344,104,122828,2,0,B|272:104,1,70
232,160,123251,1,8
152,280,123673,2,0,B|152:208,1,70
80,200,124096,6,8,B|16:120,1,70
96,104,124519,1,8
64,40,124730,2,0,B|144:40,1,70,0|4
256,192,125575,12,0,127688
256,192,128110,5,4
464,56,128955,6,0,B|464:144|464:144|408:160,1,140
400,224,129589,1,4
472,224,129800,1,0
472,368,130223,2,8,B|320:368,1,140
248,256,131068,1,8
128,328,131490,6,2,B|48:328,1,70
56,256,131913,1,4
128,256,132124,1,4
104,120,132547,1,0
32,144,132758,2,2,B|32:88|32:88|96:24,1,140
160,32,133392,1,8
232,32,133603,1,8
304,32,133814,1,4
272,96,134026,6,2,B|360:96,1,70
408,64,134448,2,2,B|408:152,1,70
472,96,134871,1,8
472,168,135082,2,4,B|472:240|472:240|376:240,1,140
160,336,136561,2,2,B|16:336|16:336|16:248,1,210
16,160,137617,6,0,B|16:64,1,70
56,32,138040,1,8
104,80,138251,1,8
152,128,138462,1,8
256,192,138885,1,4
184,272,139307,2,8,B|264:336,1,70
312,312,139730,1,8
400,96,140575,5,8
472,96,140786,1,0
472,168,140997,1,0
400,168,141209,1,4
400,240,141420,1,2
224,176,142688,6,2,B|160:128,1,70
288,176,143110,2,2,B|344:120,1,70
280,232,143533,2,2,B|344:288,1,70
224,232,143955,2,2,B|152:304,1,70
112,304,144378,5,8
88,240,144589,2,0,B|88:88,1,140
128,40,145223,1,8
264,40,145645,1,8
400,48,146068,2,0,B|512:168,1,140
432,176,146702,1,8
432,248,146913,1,8
432,320,147124,2,2,B|272:320,1,140
256,264,147758,1,0
216,320,147969,2,0,B|56:320,1,140
112,256,148603,5,0
40,256,148814,1,0
40,256,149026,1,0
40,72,149659,2,0,B|120:8|120:8|176:48,1,140
256,120,150504,1,0
328,120,150716,1,0
296,56,150927,2,2,B|384:56,1,70
440,56,151350,1,8
496,144,151772,2,2,B|496:352,1,210
440,312,152617,5,0
376,344,152828,1,0
312,312,153040,1,0
248,344,153251,1,0
24,352,154307,2,0,B|24:144,1,210
240,192,155997,2,2,B|392:192,2,140
384,304,157476,1,4
416,72,163180,5,0
416,72,163392,2,0,B|320:72,1,70
288,32,163814,1,0
232,80,164026,2,0,B|144:48,1,70
104,32,164448,1,0
48,72,164659,1,0
24,136,164871,2,0,B|24:232,1,70
88,240,165293,5,0
40,296,165504,2,0,B|256:296,1,210
392,320,166561,2,0,B|472:120,1,210
448,56,167406,1,0
376,40,167617,2,0,B|280:40,1,70
168,40,168251,2,0,B|168:264,1,210
200,312,169096,5,0
240,256,169307,2,0,B|320:304,1,70
440,304,169941,1,0
440,160,170364,1,0
392,32,170786,1,0
256,24,171209,1,0
120,32,171631,1,0
24,136,172054,1,0
152,192,172476,1,0
32,264,172899,6,2,B|112:296,1,70
232,320,173533,2,2,B|312:320,1,70
440,296,174166,2,4,B|512:264,1,70
456,216,174589,1,8
472,80,175011,1,8
328,80,175434,1,8
120,72,177124,6,0,B|32:192,1,140
160,248,177969,2,4,B|216:176,1,70
248,144,178392,1,8
384,144,178814,2,4,B|328:224,1,70
312,264,179237,1,8
336,328,179448,5,8
264,320,179659,1,0
192,320,179871,2,4,B|96:320,1,70
48,320,180504,2,2,B|48:168,1,140
48,112,181138,1,8
96,56,181350,1,8
168,56,181561,1,8
304,64,181983,6,0,B|392:64,1,70
504,112,182617,2,0,B|504:272,1,140
400,160,183462,1,0
360,296,183885,2,8,B|272:296,1,70
224,296,184307,2,8,B|152:248,1,70
96,256,184730,2,8,B|24:304,1,70
40,296,185152,1,4
48,160,185575,6,8,B|120:120,1,70
176,128,185997,2,8,B|248:176,1,70
304,168,186420,2,8,B|376:112,1,70
360,128,186842,1,4
472,216,187265,1,8
384,328,187688,1,8
256,272,188110,2,0,B|176:280|112:200|168:88|272:104,1,280
464,56,204166,6,0,B|464:144|464:144|408:160,1,140
392,224,204800,1,4
464,224,205011,1,0
472,360,205434,2,8,B|320:360,1,140
232,256,206279,1,8
112,328,206702,6,2,B|32:328,1,70
80,272,207124,1,4
8,272,207335,1,4
104,168,207758,1,8
32,144,207969,2,2,B|32:88|32:88|96:24,1,140
160,32,208603,1,8
232,32,208814,1,8
232,104,209026,1,4
288,64,209237,6,2,B|376:64,1,70
424,32,209659,2,0,B|424:120,1,70
496,112,210082,1,0
496,184,210293,2,4,B|496:256|496:256|400:256,1,140
232,336,211350,2,2,B|88:336|88:336|88:248,1,210
16,160,212406,6,0,B|16:64,1,70
56,40,212828,1,8
120,80,213040,1,8
176,128,213251,1,8
312,168,213673,1,4
176,264,214096,2,8,B|256:328,1,70
304,304,214519,1,8
504,104,215364,5,8
432,104,215575,1,0
464,168,215786,1,0
496,232,215997,1,4
424,232,216209,1,2
224,168,217476,6,2,B|160:120,1,70
288,168,217899,2,2,B|344:112,1,70
288,224,218321,2,2,B|352:280,1,70
224,224,218744,2,2,B|152:296,1,70
112,304,219166,1,8
88,240,219378,2,0,B|88:88,1,140
120,40,220011,1,8
264,40,220434,1,8
400,48,220857,6,0,B|504:176,1,140
424,176,221490,1,8
424,248,221702,1,8
472,296,221913,2,2,B|312:296,1,140
264,296,222547,1,0
200,336,222758,2,0,B|40:336,1,140
96,272,223392,1,0
24,272,223603,1,0
56,208,223814,1,0
64,88,224448,6,0,B|144:24|144:24|200:64,1,140
248,168,225293,1,0
320,168,225504,1,0
296,104,225716,2,2,B|392:104,1,70
416,48,226138,1,8
496,160,226561,2,0,B|504:248|464:304|352:296,1,210
336,240,227406,1,0
304,304,227617,1,0
240,280,227828,1,0
272,216,228040,1,0
48,320,229096,6,0,B|48:104,1,210
136,192,230786,2,2,B|296:192,2,140
104,104,232265,1,4
384,104,234166,6,2,B|240:104,2,140
384,200,235645,1,4
256,120,237547,6,2,B|256:288,2,140
352,120,239026,1,4
