osu file format v9

[General]
AudioFilename: Digimon Xros Wars - Never Give Up.mp3
AudioLeadIn: 1500
PreviewTime: 57969
Countdown: 0
SampleSet: Normal
StackLeniency: 0.7
Mode: 0
LetterboxInBreaks: 0

[Editor]
Bookmarks: 1455,16561,34519,48251,57547,87124,91350,165927,203321
DistanceSpacing: 0.6
BeatDivisor: 4
GridSize: 8

[Metadata]
Title:Never Give Up!
Artist:Sonar Pocket
Creator:hillaryzx
Version:Blue Flare
Source:Digimon Xros Wars
Tags:cross heart blue flare bagura army twilight loader j4yj4ys3z

[Difficulty]
HPDrainRate:3
CircleSize:4
OverallDifficulty:5
ApproachRate:3
SliderMultiplier:1.2
SliderTickRate:1

[Events]
//Background and Video events
0,0,"digimon-6-cross-wars-confirmado.jpg"
//Break Periods
2,8310,15543
2,86690,90543
2,157676,161740
2,189788,202726
//Storyboard Layer 0 (Background)
//Storyboard Layer 1 (Fail)
//Storyboard Layer 2 (Pass)
//Storyboard Layer 3 (Foreground)
//Storyboard Sound Samples
//Background Colour Transformations
3,100,163,162,255

[TimingPoints]
1350,422.535211267606,4,2,0,100,1,0
4519,-100,4,1,0,100,0,0
57547,-100,4,1,0,100,0,0
57969,-100,4,1,0,100,0,1
86596,-100,4,1,0,100,0,0
128532,-100,4,1,0,100,0,1
157688,-100,4,1,0,100,0,0
204166,-100,4,1,0,100,0,1
239237,-100,4,1,0,100,0,0

[Colours]
Combo1 : 128,0,255
Combo2 : 255,0,0
Combo3 : 5,5,240
Combo4 : 255,255,0

[HitObjects]
448,232,1350,1,0
448,304,1772,2,2,B|344:304|344:304|280:304|256:288|248:248|248:248|248:112,1,360
392,120,3885,1,2
256,192,4307,12,0,5575
104,160,5997,6,0,B|160:80|256:32|360:88|408:184,1,360
400,240,7688,1,0
328,240,8110,1,4
160,112,16983,6,0,B|256:192|256:192|352:96,1,240
352,208,18251,2,0,B|312:280|256:296|192:272|160:208,1,240
152,104,19519,1,0
232,104,19941,1,0
312,104,20364,1,0
392,104,20786,1,0
400,272,21631,6,0,B|280:344,1,120
224,336,22476,1,0
56,248,23321,1,8
56,208,23533,2,0,B|56:136,2,60
184,200,24589,2,0,B|184:128|184:128|184:80|208:40|256:40|256:40|296:40,1,240
368,48,25857,2,0,B|416:80|416:80|416:144,1,120
472,184,26702,5,8
472,256,27124,1,4
328,256,27969,1,8
256,256,28392,2,2,B|256:160|256:160|256:104|240:72|184:72|184:72|152:72,1,240
168,144,29659,2,8,B|88:144|88:144|48:144|24:168|24:216|24:216|24:288,1,240
96,264,30927,1,0
168,264,31349,5,0
208,264,31561,2,2,B|288:264,5,60
144,192,33462,2,0,B|144:40|144:40|248:40,1,240
384,64,35152,2,0,B|312:128|312:128|408:176|408:176|368:216,1,240
384,344,36842,1,2
256,280,37688,2,0,B|192:208|192:208|144:304|144:304|104:264,1,240,0|2
48,152,39378,5,0
48,80,39800,1,0
112,40,40223,1,0
256,40,41068,1,0
384,104,41913,5,0
384,248,42758,1,0
384,320,43180,2,2,B|240:320,1,120
192,312,44026,1,0
120,312,44448,1,0
48,312,44871,2,0,B|48:176,1,120
200,40,46561,2,0,B|280:40|280:40|320:40|344:56|344:112|344:112|344:304,1,360
200,304,48673,1,4
128,304,49096,6,2,B|40:224,1,120
40,184,49730,1,4
40,112,50152,2,4,B|96:56|96:56|160:56,1,120
176,56,50786,1,8
248,48,51209,2,0,B|376:48|376:48|440:144,1,240
464,208,52476,1,4
424,272,52899,1,0
256,192,53110,12,4,56702
256,184,57124,5,0
352,72,57969,6,0,B|432:104|424:184,1,120
424,192,58603,1,0
456,256,59026,2,0,B|408:320,1,60
352,304,59659,2,2,B|208:304,1,120
160,296,60504,2,8,B|64:224,1,120
64,184,61138,1,4
64,112,61561,6,2,B|200:64,1,120
216,72,62195,1,8
248,72,62406,1,0
280,72,62617,1,12
312,72,62828,2,0,B|432:72|432:72|432:200,1,240
432,264,64096,6,8,B|424:312|424:312|352:312,1,120
176,312,65575,2,0,B|64:240,1,120
56,176,66420,1,0
56,104,66842,1,0
128,104,67265,2,2,B|248:104,1,120
264,176,68110,5,8
296,176,68321,1,4
328,176,68533,1,8
360,176,68744,1,0
344,320,69589,2,0,B|264:320,4,60,0|4|0|4|0
408,152,71702,6,0,B|408:80|408:80|352:56,1,120
288,56,72547,1,8
256,56,72758,2,2,B|112:56,1,120
104,64,73392,1,8
56,120,73814,1,8
56,192,74237,1,8
56,264,74659,1,8
144,328,75293,6,0,B|288:328|288:328|376:248,1,240
424,232,76561,1,0
472,176,76983,1,4
432,112,77406,2,8,B|352:64|352:64|304:64,1,120
136,144,79096,6,0,B|144:256|256:296|352:256|368:136,1,360
440,112,80786,2,0,B|440:248,1,120
432,304,81631,1,0
360,304,82054,5,0
144,304,83321,2,0,B|40:208|40:208|112:128,1,240
240,192,85011,2,2,B|368:192,2,120
240,88,86490,1,4
64,96,91983,6,0,B|192:96,1,120
208,72,92617,1,0
232,40,92828,2,8,B|312:40,1,60
336,96,93462,1,0
456,176,94307,2,8,B|496:240|464:288,1,120
432,296,94941,1,0
320,320,95575,2,0,B|256:352|184:304,1,120
136,312,96420,6,0,B|56:208|56:208|144:112,1,240
192,88,97688,2,0,B|328:88,1,120
416,192,98955,1,0
320,296,99800,1,2
176,304,100645,2,0,B|112:336|48:296,2,120,2|0|2
176,232,101913,1,0
120,96,102758,6,2,B|192:96,4,60
328,96,104237,2,2,B|248:96,3,60
296,160,105293,1,0
424,232,106138,2,0,B|400:320|328:304,1,120
280,280,106983,2,0,B|144:280,1,120
88,304,107828,1,2
96,160,108673,6,0,B|112:112|136:80|192:80,1,120
176,152,109519,1,2
312,104,110364,2,0,B|344:64|376:56|432:104,3,120
368,152,112054,1,0
248,224,112899,1,0
288,288,113321,1,0
328,224,113744,1,0
256,192,114166,12,4,117969
256,304,118603,1,0
328,168,119659,2,0,B|296:128|240:128|216:184,1,120,4|0
240,200,120293,1,0
256,232,120504,2,0,B|216:256|184:256|152:208,1,120
88,184,121349,1,4
96,80,121772,2,0,B|280:80,2,180
56,80,123251,2,0,B|24:104|32:144,1,60
256,192,123885,12,0,126842
256,64,128110,5,0
384,136,128955,2,0,B|440:160|432:240,1,120
400,272,129589,2,0,B|344:312|280:280,1,120
286,283,130223,2,0,B|224:312|160:280,1,120
120,336,131068,1,0
56,296,131490,2,0,B|16:256|24:224|72:192,1,120
144,56,132758,2,0,B|328:56,2,180
152,128,134448,2,0,B|152:176|208:192|256:160,1,120
312,176,135293,1,0
128,296,136561,6,0,B|312:296,2,180
120,224,138251,2,0,B|120:40,2,180
328,176,140575,2,0,B|328:104,4,60
120,256,142899,2,0,B|216:216|112:168|112:112|152:80,2,180
104,328,144589,1,0
176,328,145011,2,0,B|240:328,1,60
304,352,145645,1,0
376,264,146279,6,0,B|352:224|296:208|256:240,1,120
232,168,147124,2,0,B|184:144|144:152|112:192,1,120
80,120,147969,1,0
128,72,148392,1,0
128,72,148603,2,0,B|200:72,2,60
256,192,150082,12,4,153462
72,176,154307,5,0
136,88,154941,1,0
256,200,155997,2,2,B|216:224|232:288|296:312,2,120
312,112,157476,1,4
136,152,163180,6,0,B|144:112|200:80|256:96,1,120
229,91,163814,2,0,B|264:72|304:88|336:144,1,120
344,200,164659,2,0,B|344:272,1,60
280,296,165293,2,0,B|208:296,1,60
144,232,166138,1,0
56,120,166983,5,0
192,72,167828,1,0
264,72,168251,2,0,B|264:128|304:160|360:152,3,120
408,160,169941,2,0,B|424:216,4,60
256,192,170997,12,4,173744
272,96,174589,6,0,B|320:104|368:136|384:176|376:232|328:280,1,240
48,288,177124,2,2,B|80:352|176:336,1,120
224,328,177969,1,0
368,336,178814,2,0,B|448:344|456:256,1,120
384,264,179659,1,0
328,136,180504,2,2,B|144:136,1,180
160,208,181561,2,2,B|360:208,1,180
304,272,182617,1,0
88,264,183885,6,0,B|128:320|200:312,2,120
408,312,185575,2,0,B|464:264|416:208,2,120
200,200,187265,1,0
184,128,187688,1,0
208,64,188110,1,0
344,112,188955,2,0,B|376:216,2,90
168,128,204166,6,0,B|192:88|232:72|288:112,1,120,4|0
328,144,205011,1,0
376,192,205434,2,0,B|336:264|272:224,2,120
448,200,206702,2,0,B|488:264|472:312|432:344|360:344|320:296,1,240,2|0
192,296,208392,2,0,B|72:232,1,120
88,168,209237,1,0
152,128,209659,1,0
208,88,210082,1,0
384,216,211350,6,0,B|312:312|312:240|336:176|224:256,1,180
184,280,212406,2,0,B|104:280|80:216|96:152,1,180
80,88,213462,1,0
216,120,214096,2,0,B|280:112|296:144|264:216,1,120
368,232,215364,2,0,B|448:232,4,60
168,304,217476,6,2,B|296:304,1,120
328,304,218110,1,0
336,232,218533,2,0,B|352:168|368:160|440:184,1,120
456,112,219378,1,0
392,72,219800,1,0
320,72,220223,1,0
192,136,221068,2,0,B|96:224|96:224|192:320,1,240
240,320,222335,1,0
312,320,222758,2,0,B|456:320|456:320|480:208,1,240
264,200,224871,6,0,B|160:144,1,120
96,176,225716,1,0
56,232,226138,2,0,B|168:304,1,120
304,304,227406,2,0,B|352:328|376:320|400:264,2,120
352,168,229096,2,2,B|272:176|208:208|200:280,1,180
104,104,230786,2,2,B|240:104,2,120
56,200,232265,1,4
368,208,234166,6,2,B|272:304,2,120
376,104,235645,1,4
72,216,237547,6,2,B|176:312,2,120
72,104,239026,1,4
