osu file format v9

[General]
AudioFilename: nymph.mp3
AudioLeadIn: 0
PreviewTime: 128046
Countdown: 0
SampleSet: Soft
StackLeniency: 0.7
Mode: 0
LetterboxInBreaks: 0

[Editor]
DistanceSpacing: 1
BeatDivisor: 4
GridSize: 8

[Metadata]
Title:Odoriko
Artist:Sona
Creator:Nymph_
Version:Normal
Source:Sora no Otoshimono: Forte
Tags:Ending Heaven's Lost Property Kouzou Murashita

[Difficulty]
HPDrainRate:5
CircleSize:4
OverallDifficulty:5
ApproachRate:5
SliderMultiplier:1.4
SliderTickRate:1

[Events]
//Background and Video events
0,0,"Nymph_.jpg"
//Break Periods
2,107820,121739
//Storyboard Layer 0 (Background)
//Storyboard Layer 1 (Fail)
//Storyboard Layer 2 (Pass)
//Storyboard Layer 3 (Foreground)
//Storyboard Sound Samples
//Background Colour Transformations
3,100,163,162,255

[TimingPoints]
2940,638.297872340426,4,2,1,50,1,0
66769,-100,4,2,1,70,0,1
107620,-100,4,2,1,50,0,0
168897,-100,4,2,1,80,0,1
189322,-100,4,2,1,100,0,1
209748,-100,4,2,1,50,0,0

[Colours]
Combo1 : 196,255,255
Combo2 : 255,200,255
Combo3 : 98,204,255
Combo4 : 181,255,181

[HitObjects]
256,192,25918,1,0
136,112,26557,1,0
256,40,27195,1,0
400,40,27833,1,0
448,96,28152,1,0
376,112,28471,1,0
456,232,29110,5,2
320,232,29748,1,0
272,296,30067,1,0
344,304,30386,1,0
192,296,31025,1,0
192,160,31663,6,0,B|112:152|112:256,2,140,2|0|0
192,232,33259,1,0
192,304,33578,2,0,B|272:312|272:208,2,140,0|2|0
136,248,35174,5,0
136,176,35493,1,0
224,56,36131,1,0
360,56,36769,1,2
464,152,37408,5,0
464,224,37727,2,0,B|464:304,1,70
392,256,38365,1,0
392,328,38684,2,0,B|312:336|296:232,1,140,0|2
296,104,39961,6,0,B|392:104,2,70
224,104,40918,1,0
152,104,41237,1,0
48,192,41876,1,2
152,272,42514,1,0
256,192,43152,1,0
256,192,43791,12,0,46344
256,72,46982,5,0
392,72,47620,1,0
440,128,47939,1,0
368,144,48259,1,0
440,280,48897,1,0
312,336,49535,1,2
176,336,50174,6,0,B|80:336,1,70
104,264,50812,1,0
104,128,51450,1,0
248,128,52088,1,2
176,32,52727,5,0
176,104,53046,2,0,B|176:184,1,70
176,312,54003,1,0
176,176,54642,1,2
296,120,55280,6,0,B|309:29|389:37,2,140,0|0|0
392,192,57195,1,2
488,264,57833,2,0,B|474:354|394:346,2,140,0|0|0
352,280,59748,1,2
224,344,60386,6,0,B|136:344,1,70
152,272,61025,2,0,B|80:272,2,70
152,136,62301,1,2
264,208,62939,1,0
264,72,63578,1,0
256,192,64216,12,0,66131
256,120,66769,5,0
368,40,67408,2,0,B|448:40,2,70,2|0|0
368,176,68684,2,0,B|448:176,1,70,2|0
438,176,69322,1,0
296,176,69961,2,0,B|200:176,1,70,2|0
440,248,70918,5,0
456,320,71237,1,2
384,344,71557,1,0
360,264,71876,2,0,B|344:176|256:152,1,140,0|2
136,160,73152,2,0,B|152:248|240:272,1,140,0|2
336,344,74429,1,0
200,344,75067,1,0
120,152,76025,5,0
128,64,76344,1,2
200,112,76663,1,0
200,32,76982,2,0,B|344:32,1,140,0|2
392,96,77939,1,0
344,164,78259,2,0,B|192:164,1,140,0|2
128,168,79216,1,0
72,112,79535,1,0
72,264,80174,1,0
296,264,81131,6,0,B|224:264,1,70,0|2
360,336,82088,2,0,B|431:369|494:335,1,140,0|2
392,216,83365,2,0,B|320:182|257:216,1,140,0|2
104,216,84642,1,0
264,216,85280,1,0
264,216,85599,1,0
320,32,86557,6,0,B|400:32,1,70,0|0
464,32,87195,1,2
408,168,87833,1,0
480,168,88152,1,0
264,168,89110,5,0
136,168,89748,1,2
264,168,90386,1,0
336,168,90705,1,0
136,240,91663,5,0
136,360,92301,2,0,B|224:344|224:256,1,140,0|2
128,192,93578,2,0,B|40:208|40:296,1,140,0|2
136,360,94854,1,0
272,360,95493,1,2
384,184,96450,5,0
384,112,96769,2,0,B|456:112,1,70,2|0
456,40,97408,2,0,B|376:40,1,70
312,40,98046,1,2
312,176,98684,6,0,B|312:256,2,70,0|0|2
240,176,99642,1,0
240,248,99961,1,0
96,248,100599,1,2
168,248,100918,1,0
176,112,101557,5,0
176,40,101876,2,0,B|256:40,1,70,2|0
248,112,102514,1,0
336,184,103152,1,2
264,272,103791,1,0
176,200,104429,1,0
256,192,105067,12,4,107620
256,96,122939,5,0
344,160,123578,1,0
304,256,124216,1,0
208,256,124854,1,0
168,160,125493,1,0
256,192,127088,5,0
256,192,127408,1,0
120,232,128046,5,0
120,112,128684,2,0,B|134:22|214:30,1,140,0|0
352,32,129961,1,0
424,32,130280,2,0,B|504:32,1,70
424,168,131237,1,2
424,304,131876,6,0,B|344:304,1,70
280,304,132514,1,0
144,304,133152,1,0
144,160,133791,2,0,B|64:152|64:256,2,140,2|0|0
144,232,135386,1,0
144,304,135705,2,0,B|224:312|224:208,2,140,0|2|0
144,232,137301,5,0
144,160,137620,1,0
240,72,138259,1,0
376,72,138897,1,2
480,168,139535,5,0
480,240,139854,2,0,B|480:320,1,70
408,312,140493,1,0
408,240,140812,2,0,B|336:224|304:320,1,140,0|2
176,312,142088,6,0,B|106:312,2,70
248,312,143046,1,0
248,240,143365,1,0
40,240,144322,1,0
40,168,144642,1,0
184,168,145280,1,0
256,192,145918,12,0,148471
256,72,149110,5,0
392,72,149748,1,0
392,216,150386,2,0,B|392:288,1,70
320,288,151025,1,0
256,168,151663,1,2
192,288,152301,6,0,B|96:288,1,70
120,216,152939,1,0
120,80,153578,1,0
264,80,154216,1,2
192,200,154854,5,0
192,272,155174,2,0,B|192:352,1,70
56,312,156131,1,0
56,176,156769,1,2
192,176,157408,6,0,B|205:85|288:88,2,140,0|0|0
283,176,159322,1,2
376,176,159961,2,0,B|362:266|282:258,2,140,0|0|0
376,320,161876,1,2
256,288,162514,6,0,B|168:288,1,70
184,360,163152,2,0,B|112:360,1,70
48,360,163791,1,0
120,240,164429,1,2
256,240,165067,1,0
192,128,165705,1,0
256,192,166344,12,0,168897
368,40,169535,2,0,B|440:40,1,70,0|0
512,40,170174,1,0
512,152,170812,1,2
440,152,171131,2,0,B|370:152,1,70
232,152,172088,2,0,B|136:152,1,70,2|0
72,248,173046,5,0
56,320,173365,1,2
128,344,173684,1,0
152,264,174003,2,0,B|168:176|256:152,1,140,0|2
376,160,175280,2,0,B|360:248|272:272,1,140,0|2
176,344,176557,1,0
312,344,177195,1,2
392,152,178152,5,0
384,64,178471,1,2
320,112,178791,1,0
312,32,179110,2,0,B|168:32,1,140,0|2
120,96,180067,1,0
168,164,180386,2,0,B|320:164,1,140,0|2
384,168,181344,1,0
424,96,181663,1,0
424,256,182301,1,2
184,256,183259,6,0,B|136:256|120:304,2,70
248,312,184216,2,0,B|320:352|392:312,1,140,0|2
480,216,185493,2,0,B|408:176|336:216,1,140,0|2
208,216,186769,1,0
64,216,187408,1,2
64,288,187727,1,0
208,136,188684,6,0,B|288:136,1,70
280,56,189322,1,2
432,56,189961,1,0
512,56,190280,1,0
360,216,191237,1,0
200,144,191876,5,2
56,144,192514,1,0
128,144,192833,1,0
128,352,193791,5,0
128,216,194429,2,0,B|216:232|240:320,1,140,0|2
128,352,195705,2,0,B|40:336|16:248,1,140,0|2
160,272,196982,1,0
296,352,197620,1,2
440,200,198578,5,0
440,128,198897,2,0,B|368:128,1,70,2|0
368,56,199535,2,0,B|288:56,1,70
296,128,200174,1,2
160,128,200812,2,0,B|80:128,2,70,0|0|2
160,200,201769,1,0
88,200,202088,1,0
88,336,202727,1,2
160,336,203046,1,0
160,200,203684,5,0
160,128,204003,2,0,B|80:128,1,70,2|0
160,128,204642,1,0
296,128,205280,1,2
296,264,205918,1,0
160,264,206557,1,2
256,192,207195,12,4,209748
