osu file format v9

[General]
AudioFilename: nymph.mp3
AudioLeadIn: 0
PreviewTime: 128046
Countdown: 0
SampleSet: Soft
StackLeniency: 0.7
Mode: 0
LetterboxInBreaks: 0

[Editor]
DistanceSpacing: 0.6
BeatDivisor: 4
GridSize: 8

[Metadata]
Title:Odoriko
Artist:Sona
Creator:Nymph_
Version:Beginner
Source:Sora no Otoshimono: Forte
Tags:Ending Heaven's Lost Property Kouzou Murashita

[Difficulty]
HPDrainRate:2
CircleSize:3
OverallDifficulty:2
ApproachRate:2
SliderMultiplier:1.4
SliderTickRate:1

[Events]
//Background and Video events
0,0,"Nymph_.jpg"
//Break Periods
2,107820,121380
2,123140,126486
//Storyboard Layer 0 (Background)
//Storyboard Layer 1 (Fail)
//Storyboard Layer 2 (Pass)
//Storyboard Layer 3 (Foreground)
//Storyboard Sound Samples
//Background Colour Transformations
3,100,163,162,255

[TimingPoints]
2940,638.297872340426,4,2,1,50,1,0
66769,-100,4,2,1,70,0,1
107620,-100,4,2,1,50,0,0
168897,-100,4,2,1,80,0,1
189322,-100,4,2,1,100,0,1
209748,-100,4,2,1,50,0,0

[Colours]
Combo1 : 196,255,255
Combo2 : 255,208,255
Combo3 : 96,203,255
Combo4 : 191,255,191

[HitObjects]
256,192,25918,1,0
376,72,27195,1,0
456,72,27833,1,2
416,144,28471,1,0
416,312,29748,5,0
456,240,30386,1,2
376,240,31025,1,0
208,216,32301,6,0,B|208:304|128:328,1,140,0|2
56,328,33578,1,0
136,144,34854,6,0,B|272:72|416:152,1,280
392,304,37408,6,0,B|256:376|120:296,1,280
128,128,39961,5,0
128,48,40599,1,2
56,88,41237,1,0
128,240,42514,5,0
184,304,43152,1,2
272,304,43791,2,0,B|344:304|360:200,1,140
120,88,46344,6,0,B|288:88,1,140
344,88,47620,1,0
240,216,48897,1,2
344,344,50174,6,0,B|176:344,1,140
120,344,51450,1,0
120,176,52727,5,0
256,272,54003,1,2
400,192,55280,6,0,B|376:24|208:32,1,280,0|2
112,168,57833,6,0,B|136:336|304:328,1,280,0|2
456,264,60386,5,0
400,200,61025,1,0
368,280,61663,1,0
256,160,62940,1,0
256,192,64216,12,0,66769
256,192,68046,5,2
144,72,69322,5,0
232,72,69961,2,0,B|392:72,1,140,0|0
376,240,71876,5,0
320,304,72514,1,2
264,240,73152,1,0
208,304,73791,1,0
152,240,74429,1,0
264,112,75705,1,0
264,280,76982,5,0
328,224,77620,1,2
328,136,78259,2,0,B|200:40|56:144,1,280
72,304,80812,1,0
240,304,82088,5,0
304,360,82727,1,2
368,304,83365,1,0
304,248,84003,1,0
304,160,84642,2,0,B|232:104|168:168,2,140,0|0|0
464,48,87195,6,0,B|304:48,1,140,0|2
323,131,88471,1,0
176,200,89748,6,0,B|24:200,1,140,0|2
104,296,91025,1,0
256,224,92301,5,0
192,168,92939,1,2
256,112,93578,1,0
320,168,94216,1,0
400,168,94854,2,0,B|400:312,1,140,0|0
256,64,96769,6,0,B|352:72|352:168,2,140,0|2|0
256,152,98684,1,2
256,240,99322,2,0,B|160:232|160:128,2,140,0|2|0
256,72,101876,5,0
328,120,102514,1,2
256,168,103152,1,0
192,224,103791,1,2
256,280,104429,1,0
256,192,105067,12,4,107620
256,192,122940,5,0
256,192,128046,5,0
376,312,129323,1,0
456,312,129961,1,2
416,240,130599,1,0
416,72,131876,5,0
456,144,132514,1,2
376,144,133153,1,0
208,168,134429,6,0,B|208:80|128:56,1,140,0|2
56,56,135706,1,0
224,88,136982,6,0,B|278:47|357:88,2,140
224,256,139535,6,0,B|278:296|357:255,2,140
224,88,142089,5,0
224,168,142727,1,2
152,128,143365,1,0
152,296,144642,5,0
232,296,145280,1,2
232,208,145919,2,0,B|320:208|320:304,1,140
120,296,148472,6,0,B|288:296,1,140
344,296,149748,1,0
240,168,151025,1,2
344,40,152302,6,0,B|176:40,1,140
120,40,153578,1,0
120,208,154855,5,0
256,112,156131,1,2
392,216,157408,6,0,B|352:296|264:296,2,140
168,176,159961,6,0,B|208:96|296:96,2,140
336,176,162514,5,0
416,176,163153,1,0
376,104,163791,1,0
256,224,165068,1,0
256,192,166344,12,0,168897
256,192,170174,5,2
144,312,171450,5,0
232,312,172089,2,0,B|392:312,1,140,0|0
376,144,174004,5,0
304,192,174642,1,2
304,104,175280,1,0
232,144,175919,1,0
152,144,176557,1,0
152,312,177833,1,0
256,184,179110,5,0
328,232,179748,1,2
256,272,180386,2,0,B|201:312|122:271,2,140,0|0|0
256,104,182940,1,0
400,192,184216,5,0
456,256,184855,1,2
400,320,185493,1,0
344,256,186131,1,0
264,256,186769,2,0,B|112:256,2,140
264,88,189323,6,0,B|104:88,1,140,0|2
40,88,190599,1,0
120,232,191876,6,0,B|272:232,1,140,0|2
344,232,193153,1,0
256,88,194429,5,0
296,160,195067,1,2
216,160,195706,1,0
256,232,196344,1,0
256,312,196982,1,0
256,312,197620,1,0
256,136,198897,6,0,B|160:144|160:240,2,140,0|2|0
256,224,200812,1,2
256,312,201450,2,0,B|352:304|352:200,2,140,0|2|0
256,312,204004,5,0
256,232,204642,1,2
312,168,205280,1,0
256,104,205919,1,2
200,168,206557,1,0
256,192,207195,12,4,209748
