osu file format v13

[General]
AudioFilename: Em Cua Ngy Hm Qua - S-n Tng M-TP.mp3
AudioLeadIn: 0
PreviewTime: 48085
Countdown: 1
SampleSet: Soft
StackLeniency: 0.7
Mode: 0
LetterboxInBreaks: 1
WidescreenStoryboard: 1

[Editor]
DistanceSpacing: 1
BeatDivisor: 4
GridSize: 8
TimelineZoom: 1.1

[Metadata]
Title:Em Cua Ngay Hom Qua
TitleUnicode:Em Cua Ngày Hôm Qua
Artist:Son Tung M-TP
ArtistUnicode:Sơn Tùng M-TP
Creator:Ent3rtainer
Version:Normal
Source:
Tags:Vietnamese
BeatmapID:443503
BeatmapSetID:185395

[Difficulty]
HPDrainRate:5
CircleSize:4
OverallDifficulty:6.5
ApproachRate:6.7
SliderMultiplier:1.3
SliderTickRate:1

[Events]
//Background and Video events
0,0,"420511_sajgon_xoshimin_vetnam_reka_mosty_nochnoj_1680x1050_www.GdeFon.ru_.jpg",0,0
//Break Periods
//Storyboard Layer 0 (Background)
//Storyboard Layer 1 (Fail)
//Storyboard Layer 2 (Pass)
//Storyboard Layer 3 (Foreground)
//Storyboard Sound Samples
//Background Colour Transformations
3,100,163,162,255

[TimingPoints]
20773.8113207547,566.037735849057,4,2,0,100,1,0
57000,-100,4,2,0,100,0,1
73981,-100,4,2,0,100,0,0
130019,-100,4,2,0,100,0,1
143037,-100,4,2,0,100,0,0

[HitObjects]
256,192,17943,12,0,20207,0:0:0:0:
360,112,20773,5,0,0:0:0:0:
272,56,21339,2,0,L|136:112,1,130
160,128,22047,2,0,L|192:152,2,32.5,0|0|0,0:0|0:0|0:0,0:0:0:0:
216,184,22754,5,0,0:0:0:0:
264,192,23037,2,0,P|352:192|384:152,1,130
344,128,23887,1,0,0:0:0:0:
312,88,24170,2,0,P|224:72|192:96,1,130
136,112,25019,2,0,L|77:148,2,65,0|0|0,0:0|0:0|0:0,0:0:0:0:
224,136,25868,5,0,0:0:0:0:
264,104,26151,2,0,L|344:128,1,65
368,152,26717,1,0,0:0:0:0:
344,200,27000,1,0,0:0:0:0:
312,240,27283,2,0,P|208:296|128:272,1,195
120,232,28415,5,0,0:0:0:0:
120,184,28698,2,0,L|144:120,1,65
160,72,29264,1,0,0:0:0:0:
248,128,29830,5,0,0:0:0:0:
296,152,30113,2,0,P|336:216|344:216,1,65
360,232,30679,1,0,0:0:0:0:
408,208,30962,2,0,L|440:152,1,65
408,112,31528,5,0,0:0:0:0:
376,72,31811,1,0,0:0:0:0:
328,72,32094,1,0,0:0:0:0:
280,64,32377,2,0,L|224:128,1,65
208,152,32943,6,0,L|264:104,1,65
296,144,33509,1,0,0:0:0:0:
296,192,33792,2,0,P|304:248|336:256,2,65,0|0|0,0:0|0:0|0:0,0:0:0:0:
280,144,34641,6,0,L|216:192,1,65
200,224,35207,2,0,L|112:192,1,65
136,152,35773,2,0,L|152:88,1,65
200,72,36339,2,0,L|280:80,1,65
312,88,36905,2,0,L|376:152,1,65
344,184,37471,2,0,L|296:232,1,65
248,248,38037,2,0,L|168:216,1,65
168,176,38603,5,0,0:0:0:0:
160,128,38887,2,0,P|216:88|304:96,1,130
312,120,39736,2,0,L|352:184,1,65
312,216,40302,5,0,0:0:0:0:
264,240,40585,1,0,0:0:0:0:
216,248,40868,1,0,0:0:0:0:
168,240,41151,2,0,L|96:216,1,65
88,168,41717,2,0,L|56:104,1,65
104,88,42283,1,0,0:0:0:0:
104,88,42849,5,0,0:0:0:0:
152,88,43132,2,0,L|224:144,1,65
256,136,43698,2,0,L|264:200,2,65,0|0|0,0:0|0:0|0:0,0:0:0:0:
256,88,44547,1,0,0:0:0:0:
304,80,44830,6,0,L|384:128,1,65
368,168,45396,2,0,L|320:240,1,65
288,248,45962,2,0,L|208:264,1,65
176,264,46528,5,0,0:0:0:0:
128,248,46811,1,0,0:0:0:0:
104,200,47094,1,0,0:0:0:0:
128,152,47377,1,0,0:0:0:0:
152,88,47660,2,0,L|232:80,2,65,0|0|0,0:0|0:0|0:0,0:0:0:0:
208,48,48509,2,0,L|296:48,1,65
272,152,49358,5,0,0:0:0:0:
304,192,49641,2,0,L|320:280,1,65
296,304,50207,2,0,L|208:312,1,65
176,304,50773,2,0,L|120:232,1,65
152,200,51339,5,0,0:0:0:0:
160,152,51622,2,0,L|224:104,1,65
256,96,52188,2,0,L|320:128,1,65
352,160,52754,2,0,L|384:240,1,65
368,272,53320,5,0,0:0:0:0:
320,288,53603,2,0,L|256:312,1,65
216,280,54170,1,0,0:0:0:0:
184,240,54453,1,0,0:0:0:0:
256,192,54736,12,0,57566,0:0:0:0:
192,184,58132,6,0,L|264:144,1,65
296,168,58698,2,0,L|352:224,1,65
328,264,59264,1,0,0:0:0:0:
312,312,59547,2,0,L|216:320,1,65
200,304,60113,2,0,L|128:256,1,65
176,224,60679,5,0,0:0:0:0:
208,184,60962,2,0,L|248:120,1,65
200,104,61528,2,0,L|120:144,1,65
96,160,62094,5,0,0:0:0:0:
80,208,62377,1,0,0:0:0:0:
80,256,62660,1,0,0:0:0:0:
104,304,62943,1,0,0:0:0:0:
152,320,63226,5,0,0:0:0:0:
200,312,63509,1,0,0:0:0:0:
232,272,63792,2,0,P|272:240|288:208,1,65
248,184,64358,2,0,L|168:144,1,65
184,104,64924,2,0,L|88:104,1,65
112,152,65490,5,0,0:0:0:0:
80,192,65773,2,0,L|96:264,1,65
144,264,66339,1,0,0:0:0:0:
184,296,66622,2,0,L|256:232,1,65
264,216,67188,5,0,0:0:0:0:
288,168,67471,2,0,L|208:120,1,65
200,88,68037,2,0,P|168:104|152:136,2,65,0|0|0,0:0|0:0|0:0,0:0:0:0:
248,80,68887,5,0,0:0:0:0:
296,80,69170,2,0,L|352:128,1,65
392,144,69736,1,0,0:0:0:0:
400,192,70019,6,0,L|352:264,1,65
312,264,70585,2,0,L|224:256,1,65
200,232,71151,2,0,L|152:184,1,65
144,136,71717,2,0,L|216:96,1,65
248,88,72283,2,0,L|336:96,1,65
360,104,72849,2,0,L|424:152,1,65
416,192,73415,1,0,0:0:0:0:
104,208,75113,5,0,0:0:0:0:
128,160,75396,2,0,P|160:112|184:120,1,65
208,104,75962,2,0,L|280:144,1,65
296,176,76528,1,0,0:0:0:0:
304,224,76811,1,0,0:0:0:0:
264,256,77094,5,0,0:0:0:0:
232,296,77377,2,0,P|184:288|160:272,1,65
144,232,77943,2,0,L|112:144,1,65
160,136,78509,1,0,0:0:0:0:
200,104,78792,1,0,0:0:0:0:
248,88,79075,1,0,0:0:0:0:
296,104,79358,2,0,L|368:160,1,65
368,192,79924,5,0,0:0:0:0:
376,240,80207,2,0,L|328:296,1,65
280,296,80773,1,0,0:0:0:0:
232,304,81056,1,0,0:0:0:0:
184,296,81339,1,0,0:0:0:0:
128,264,81622,6,0,L|96:200,1,65
56,232,82188,1,0,0:0:0:0:
88,192,82471,2,0,P|120:152|136:168,2,65,0|0|0,0:0|0:0|0:0,0:0:0:0:
112,240,83320,6,0,P|144:272|176:264,2,65,0|0|0,0:0|0:0|0:0,0:0:0:0:
168,208,84170,1,0,0:0:0:0:
216,192,84736,6,0,L|280:168,1,65
328,176,85302,2,0,L|248:160,1,65
224,200,85868,2,0,L|288:168,1,65
336,184,86434,2,0,L|256:144,1,65
232,176,87000,5,0,0:0:0:0:
232,176,87283,1,0,0:0:0:0:
232,176,87566,1,0,0:0:0:0:
232,176,87849,1,0,0:0:0:0:
280,176,88132,6,0,L|360:168,1,65
376,216,88698,2,0,L|304:272,1,65
280,272,89264,2,0,B|240:280|176:264|200:208,1,130
232,168,90113,1,0,0:0:0:0:
256,120,90396,6,0,P|192:80|144:104,1,130
104,120,91245,1,0,0:0:0:0:
80,160,91528,2,0,P|88:248|120:248,1,130
136,296,92377,1,0,0:0:0:0:
184,304,92660,1,0,0:0:0:0:
288,280,93226,6,0,L|336:208,1,65
328,176,93792,2,0,L|272:136,1,65
224,120,94358,2,0,L|136:152,1,65
112,168,94924,2,0,L|72:240,1,65,0|0,0:0|0:0,0:0:0:0:
120,264,95490,1,0,0:0:0:0:
120,264,95773,1,0,0:0:0:0:
120,264,96056,1,0,0:0:0:0:
168,272,96339,6,0,L|248:248,1,65
280,264,96905,2,0,P|328:192|296:152,2,130,0|0|0,0:0|0:0|0:0,0:0:0:0:
232,248,98320,1,0,0:0:0:0:
208,200,98604,2,0,P|176:176|176:144,1,65
216,128,99170,1,0,0:0:0:0:
264,104,99453,2,0,L|336:136,1,65
368,152,100019,2,0,P|384:200|368:224,2,65,0|0|0,0:0|0:0|0:0,0:0:0:0:
352,104,100868,5,0,0:0:0:0:
304,104,101151,2,0,L|232:152,1,65
216,184,101717,2,0,L|248:256,1,65
288,264,102283,1,0,0:0:0:0:
336,272,102566,1,0,0:0:0:0:
384,280,102849,1,0,0:0:0:0:
440,320,103132,2,0,P|504:288|496:240,1,130
416,192,103981,5,0,0:0:0:0:
376,160,104264,2,0,L|288:184,1,65
264,168,104830,2,0,L|208:112,1,65
168,128,105396,5,0,0:0:0:0:
120,152,105679,1,0,0:0:0:0:
104,200,105962,2,0,L|160:272,1,65
176,288,106528,2,0,L|272:280,1,65
280,248,107094,1,0,0:0:0:0:
320,216,107377,2,0,L|320:128,1,65
280,120,107943,5,0,0:0:0:0:
240,80,108226,2,0,L|168:120,1,65
136,104,108792,2,0,L|80:160,2,65,0|0|0,0:0|0:0|0:0,0:0:0:0:
152,152,109641,5,0,0:0:0:0:
152,152,109924,1,0,0:0:0:0:
152,152,110207,1,0,0:0:0:0:
152,152,110490,1,0,0:0:0:0:
152,152,110773,1,0,0:0:0:0:
176,200,111056,6,0,P|232:240|304:208,1,130
336,200,111905,2,0,P|272:248|224:224,1,130
232,184,112754,2,0,L|232:88,1,65
184,104,113320,1,0,0:0:0:0:
136,120,113604,1,0,0:0:0:0:
112,168,113887,6,0,L|112:256,1,65
152,264,114453,1,0,0:0:0:0:
200,280,114736,1,0,0:0:0:0:
248,264,115019,2,0,L|320:232,1,65
336,192,115585,2,0,L|296:112,1,65
288,88,116151,6,0,P|80:112|88:264,1,390
128,280,118132,1,0,0:0:0:0:
176,272,118415,2,0,L|256:224,1,65
256,192,118981,1,0,0:0:0:0:
288,152,119264,6,0,L|352:96,1,65
392,104,119830,2,0,L|448:160,1,65
456,200,120396,1,0,0:0:0:0:
416,232,120679,6,0,P|336:280|288:256,2,130,0|0|0,0:0|0:0|0:0,0:0:0:0:
416,184,122094,2,0,L|296:120,1,130
248,128,122943,1,0,0:0:0:0:
96,248,123792,5,0,0:0:0:0:
216,168,124075,2,0,L|272:112,1,65
312,136,124641,1,0,0:0:0:0:
312,136,124924,1,0,0:0:0:0:
360,152,125207,2,0,L|368:232,1,65
328,248,125773,5,0,0:0:0:0:
328,248,126056,1,0,0:0:0:0:
280,264,126339,2,0,L|192:248,1,65
176,216,126905,1,0,0:0:0:0:
136,184,127188,2,0,P|64:128|80:96,1,130
120,112,128037,5,0,0:0:0:0:
120,112,128320,1,0,0:0:0:0:
120,112,128604,1,0,0:0:0:0:
120,112,128887,1,0,0:0:0:0:
120,112,129170,5,0,0:0:0:0:
120,112,129453,1,0,0:0:0:0:
120,112,129736,1,0,0:0:0:0:
120,112,130019,1,0,0:0:0:0:
168,96,130302,6,0,B|256:112|248:112,1,65
280,120,130868,2,0,L|320:184,1,65
272,200,131434,2,0,L|208:248,1,65
168,256,132000,2,0,L|80:232,1,65
80,192,132566,2,0,L|120:112,1,65
128,88,133132,2,0,L|192:88,1,65
240,112,133698,5,0,0:0:0:0:
288,128,133981,2,0,L|352:192,1,65
312,216,134547,1,0,0:0:0:0:
328,264,134830,1,0,0:0:0:0:
280,288,135113,6,0,L|192:296,1,65
168,272,135679,1,0,0:0:0:0:
128,240,135962,2,0,L|56:176,1,65
112,160,136528,1,0,0:0:0:0:
144,120,136811,2,0,L|224:96,1,65
256,80,137377,1,0,0:0:0:0:
352,120,137943,6,0,L|424:176,1,65
376,200,138509,1,0,0:0:0:0:
344,240,138792,1,0,0:0:0:0:
312,280,139075,2,0,L|224:288,1,65
192,280,139641,5,0,0:0:0:0:
144,264,139924,1,0,0:0:0:0:
96,240,140207,2,0,L|56:168,1,65
104,144,140773,5,0,0:0:0:0:
152,120,141056,1,0,0:0:0:0:
200,96,141339,2,0,P|256:88|272:112,1,65
256,144,141905,2,0,L|256:208,1,65
232,256,142471,1,0,0:0:0:0:
256,192,143037,12,0,148556,0:0:0:0:
