osu file format v8

[General]
AudioFilename: Sondambi - queen.mp3
AudioLeadIn: 0
PreviewTime: 50465
Countdown: 1
SampleSet: Normal
StackLeniency: 0.7
Mode: 0
LetterboxInBreaks: 1

[Editor]
DistanceSpacing: 1
BeatDivisor: 4
GridSize: 8

[Metadata]
Title:queen
Artist:Son Dambi
Creator:Sunny Holic
Version:Untypical
Source:
Tags:_llkey_18

[Difficulty]
HPDrainRate:7
CircleSize:4
OverallDifficulty:7
ApproachRate:7
SliderMultiplier:1.8
SliderTickRate:1

[Events]
//Background and Video events
0,0,"queen.jpg"
//Break Periods
2,80665,95755
//Storyboard Layer 0 (Background)
//Storyboard Layer 1 (Fail)
//Storyboard Layer 2 (Pass)
//Storyboard Layer 3 (Foreground)
//Storyboard Sound Samples
//Background Colour Transformations
3,100,163,162,255

[TimingPoints]
16656,476.190476190476,4,1,0,70,1,0
33917,-100,4,2,0,100,0,0
35822,-100,4,1,0,70,0,0
37727,-100,4,2,0,100,0,0
39394,-100,4,2,0,70,0,0
39632,-100,4,1,0,70,0,0
50227,-100,4,1,0,80,0,1
61894,-100,4,1,0,70,0,0
130465,-100,4,1,0,80,0,1
141894,-100,4,1,0,70,0,0
145703,-100,4,1,0,80,0,1
157132,-100,4,1,0,70,0,0

[Colours]
Combo1 : 255,255,255
Combo2 : 217,234,224

[HitObjects]
88,104,16655,1,4
166,58,16894,1,0
166,147,17132,1,8
244,103,17370,1,0
333,103,17608,2,0,B|410:47,1,90
333,103,18084,1,8
260,156,18322,1,0
355,251,18560,5,0
197,337,18798,1,0
37,252,19036,1,8
37,161,19275,2,0,B|74:57|195:104,1,180
270,84,19989,2,0,B|304:55,1,45,8|0
270,128,20227,1,0
340,183,20465,5,4
407,299,20703,1,0
227,299,20941,1,8
88,184,21179,1,0
88,94,21417,2,0,B|97:38|157:44,1,90
240,43,21894,1,8
303,106,22132,1,0
303,195,22370,6,0,B|406:151,1,90
386,160,22846,1,8
386,70,23084,2,0,B|333:12|257:30,1,135
219,28,23560,2,0,B|180:4,1,45,8|0
187,59,23798,2,0,L|131:27,1,45,8|0
155,90,24036,1,8
116,171,24275,6,0,B|252:171,1,90,4|0
295,171,24751,1,8
368,222,24989,1,0
295,275,25227,2,0,B|205:275,1,90
115,275,25703,1,8
51,211,25941,1,0
51,121,26179,1,0
97,43,26417,2,0,B|211:43,1,90,0|8
277,43,26894,1,0
404,170,27370,5,0
354,245,27608,1,8
267,269,27846,1,0
177,269,28084,6,0,B|52:279|10:190,1,180,4|8
41,27,29036,2,0,B|166:17|208:106,1,180,0|8
107,244,29989,1,0
170,307,30227,1,0
233,243,30465,1,8
169,179,30703,2,0,B|273:179,1,90
74,75,31655,5,0
137,11,31894,2,0,B|217:91,1,90,4|0
137,138,32370,1,8
73,201,32608,1,0
168,296,32846,1,0
321,201,33084,1,0
141,201,33322,1,8
268,73,33560,2,0,B|306:33|361:76,1,90
438,66,34036,6,0,B|480:49,1,45
438,111,34275,2,0,B|482:117,1,45,8|0
431,156,34513,2,0,B|471:174,1,45
418,199,34751,2,0,B|455:224,1,45
395,237,34989,2,0,B|431:264,1,45
373,277,35227,2,0,B|410:301,1,45,8|0
341,308,35465,2,0,B|306:349|216:322,1,90
137,271,35941,5,0
83,99,36179,1,8
247,26,36417,1,0
336,26,36655,2,0,B|391:31|412:87,1,90
406,164,37132,2,0,B|390:276|258:308,1,180,8|0
207,295,37846,6,0,B|201:339,1,45
168,273,38085,2,0,B|141:309,1,45,8|0
133,246,38323,2,0,B|96:272,1,45
102,213,38561,2,0,B|61:233,1,45
79,174,38799,2,0,B|38:193,1,45,8|0
55,136,39037,2,0,B|15:157,1,45,8|0
45,92,39275,2,0,B|48:26|117:22,1,90,8|4
184,25,39751,5,0
228,25,39870,1,0
272,25,39989,1,8
320,100,40227,2,0,L|384:100,2,45
185,100,40703,5,0
57,227,40941,1,8
217,309,41179,1,0
392,192,41656,6,0,B|491:192,2,90,0|8|0
252,305,42608,5,0
188,241,42846,1,8
98,241,43084,1,0
34,177,43322,2,0,B|28:114|100:93,1,90
164,103,43798,2,0,B|210:113|204:176,1,90,8|0
204,263,44275,2,0,B|264:357|388:313,1,180,0|8
466,176,45227,5,4
370,80,45465,1,0
190,80,45703,1,8
38,177,45941,1,0
77,64,47132,5,4
256,64,47608,1,0
128,191,48084,1,0
307,191,48560,1,0
434,318,49036,5,0
298,318,49275,1,0
127,260,49513,1,0
36,104,49751,1,0
390,41,50227,6,0,L|454:41,1,45
478,53,50465,2,0,B|521:76|489:166,1,90,8|0
483,222,50941,2,0,B|451:318|331:318,1,180,0|8
255,317,51655,2,0,B|191:301|191:237,1,90
279,233,52132,1,0
363,202,52370,2,0,B|365:159|301:143,1,90,8|0
214,149,52846,1,0
125,166,53084,2,0,B|42:173|43:56|128:68,1,180
215,67,53798,6,0,B|295:40,1,45,8|0
257,97,54036,2,0,B|339:97,1,45,8|0
302,142,54275,1,8
368,202,54513,1,0
431,265,54751,6,0,B|376:361|244:299,1,180,4|8
191,277,55465,2,0,B|127:261|127:197,1,90
215,193,55942,1,0
299,162,56180,2,0,B|301:119|237:103,1,90,8|0
154,78,56655,1,0
64,92,56894,2,0,B|-8:186|94:268,1,180
149,304,57608,6,0,B|229:331,1,45,8|0
191,273,57846,2,0,B|273:273,1,45,8|0
236,228,58084,2,0,B|296:235|333:172,1,90,8|0
363,119,58560,6,0,B|235:-3|93:110,1,270,4|0
52,154,59513,1,0
124,207,59751,1,0
213,207,59989,2,0,B|277:183|262:104,1,90,8|0
264,50,60465,1,0
353,62,60703,2,0,B|455:81|464:221,1,180
445,278,61417,2,0,B|443:362,1,45,8|0
403,307,61655,2,0,B|374:384,1,45,8|0
345,334,61894,1,8
166,311,62370,5,4
70,215,62608,1,0
70,215,62846,1,8
160,59,63084,1,0
160,59,63322,1,0
339,59,63560,1,0
466,186,63798,1,8
286,186,64036,2,0,B|196:186,1,90
323,313,64513,2,0,B|442:313,2,90,0|8|0
233,313,65227,1,0
143,313,65465,2,0,B|95:313,2,45,0|0|8
15,185,66179,5,4
78,121,66417,1,0
141,57,66656,2,0,B|231:57,1,90,8|0
320,57,67132,1,0
383,120,67370,1,0
319,183,67608,1,8
382,246,67846,1,0
318,309,68084,2,0,B|225:309,3,90,0|0|8|0
138,309,69036,1,0
74,245,69275,5,0
74,155,69513,1,8
137,91,69751,1,0
181,91,69870,1,0
212,122,69989,2,0,B|340:122,3,90,4|0|8|0
391,122,70941,2,0,B|442:127|463:171,1,90
462,259,71417,2,0,B|441:301|390:306,1,90,8|0
255,306,71894,5,0
89,236,72132,1,0
154,68,72370,1,8
333,68,72608,2,0,B|395:63|435:108,1,90
481,155,73084,5,0
452,240,73322,1,8
388,303,73560,1,0
343,303,73679,1,0
298,303,73798,2,0,B|172:317|150:206,3,180,4|8|0|8
125,46,75703,1,0
214,46,75941,1,0
303,46,76179,1,8
366,109,76417,2,0,B|438:181,1,90
429,262,76894,5,0
365,325,77132,1,8
275,325,77370,1,0
230,325,77489,1,0
185,325,77608,2,0,B|89:325,2,90,4|0|8
248,261,78322,1,0
311,197,78560,2,0,B|423:155,2,90,0|0|8
247,133,79275,1,0
151,37,79513,5,4
23,164,79751,1,0
150,291,79989,1,8
329,291,80227,2,0,B|380:288|398:228,1,90
85,184,96655,5,4
139,112,96894,1,0
221,76,97132,2,0,B|257:42|338:87,1,90,8|0
264,151,97608,2,0,B|300:185|381:140,1,90
429,115,98084,1,8
492,178,98322,1,0
396,273,98560,5,0
216,273,98798,1,0
88,145,99036,1,8
250,65,99275,2,0,B|349:21|418:143,1,180
455,193,99989,1,8
455,282,100227,1,0
391,345,100465,5,4
327,281,100703,1,0
237,281,100941,1,8
155,243,101179,1,0
91,179,101417,2,0,B|96:127|182:113,1,90
215,183,101894,2,0,B|267:178|281:92,1,90,8|0
274,32,102370,5,0
210,95,102608,1,0
273,158,102846,1,8
317,158,102965,1,0
361,158,103084,2,0,B|440:162|440:284|335:278,1,180,0|8
226,276,103798,1,8
46,262,104036,1,8
46,171,104275,6,0,B|53:114|135:116,1,90,4|0
140,201,104751,2,0,B|197:194|195:112,1,90,8|0
193,48,105227,2,0,B|238:12|294:72,1,90
238,135,105703,2,0,B|283:170|339:110,1,90,8|0
400,89,106179,1,0
463,152,106417,2,0,B|479:271|359:307,1,180
294,297,107132,5,0
159,297,107370,1,0
31,169,107608,1,8
158,41,107846,1,0
247,41,108084,6,0,B|372:31|414:120,1,180,4|8
395,193,108798,1,0
383,283,109036,2,0,B|258:293|216:204,1,180,0|8
214,130,109751,1,0
193,42,109989,2,0,B|129:36|111:74,1,90
64,145,110465,1,0
127,208,110703,2,0,B|225:186|296:317,1,180,0|8
411,284,111417,1,8
411,104,111655,5,8
334,56,111894,2,0,B|295:17|244:43,1,90,4|0
200,114,112370,2,0,B|272:186,1,90,8|0
359,273,112846,1,0
179,273,113084,1,0
51,145,113322,2,0,B|163:145,1,90,8|0
230,145,113798,1,0
319,145,114036,2,0,B|375:145,12,45,0|0|8|0|0|0|0|0|0|0|8|0|0
228,145,115703,6,0,B|167:127|125:201,1,90
146,259,116179,2,0,B|166:301|227:283,1,90,8|0
352,245,116655,1,0
472,110,116894,1,0
303,47,117132,1,8
124,66,117370,2,0,B|54:90|62:155,1,90,0|0
132,241,117846,5,0
311,241,118084,1,8
132,241,118322,1,0
311,241,118560,1,0
132,241,118798,1,8
311,241,119036,1,8
132,241,119275,2,0,B|30:186,1,90,8|4
52,108,119751,5,0
91,86,119870,1,0
135,86,119989,1,8
224,86,120227,1,0
313,86,120465,1,0
376,149,120703,2,0,B|464:237,2,90,0|8|0
286,149,121417,1,0
196,149,121655,2,0,B|100:245,2,90,0|8|0
259,85,122370,1,0
348,85,122608,1,0
284,148,122846,1,8
373,148,123084,5,0
449,224,123322,2,0,B|361:312,1,90
309,211,123798,2,0,B|221:299,1,90,8|0
136,274,124275,2,0,B|22:255|46:134,1,180,0|8
75,42,124989,1,0
209,42,125227,5,4
388,42,125465,1,0
480,196,125703,1,8
352,323,125941,2,8,B|258:378|177:315,1,180
183,319,126655,1,8
55,191,127132,5,4
182,63,127608,1,0
182,242,128084,1,0
310,106,128560,1,0
436,241,129036,5,0
320,312,129275,1,0
192,184,129513,1,0
319,56,129751,1,0
122,41,130227,6,0,L|58:41,1,45
34,53,130465,2,0,B|-9:76|23:166,1,90
29,222,130941,2,0,B|61:318|181:318,1,180,0|8
257,317,131655,2,0,B|321:301|321:237,1,90
233,233,132132,1,0
149,202,132370,2,0,B|147:159|211:143,1,90,8|0
298,149,132846,1,0
387,166,133084,6,0,B|470:173|469:56|384:68,1,180
297,67,133798,2,0,B|217:40,1,45
255,97,134036,2,0,B|173:97,1,45
210,142,134275,1,8
144,202,134513,1,0
81,265,134751,6,0,B|136:361|268:299,1,180,4|8
321,277,135465,2,0,B|385:261|385:197,1,90
297,193,135942,1,0
213,162,136180,2,0,B|211:119|275:103,1,90,8|0
358,78,136655,1,0
448,92,136894,2,0,B|520:186|418:268,1,180
363,304,137608,6,0,B|283:331,1,45
321,273,137846,2,0,B|239:273,1,45
276,228,138084,2,0,B|216:235|179:172,1,90,8|0
149,119,138560,6,4,B|277:-3|419:110,1,270
460,154,139513,1,0
388,207,139751,1,0
299,207,139989,2,0,B|235:183|250:104,1,90,8|0
248,50,140465,1,0
159,62,140703,2,0,B|57:81|48:221,1,180
67,278,141417,6,0,B|69:362,1,45,0|0
109,307,141655,2,0,B|138:384,1,45
167,334,141894,1,8
346,311,142370,5,4
442,215,142608,1,0
442,215,142846,1,8
352,59,143084,1,0
352,59,143322,1,0
173,59,143560,1,0
46,186,143798,1,8
226,186,144036,2,0,B|316:186,1,90
189,313,144513,2,0,B|70:313,2,90,0|8|0
369,313,145227,6,0,B|417:313,3,45
414,268,145703,2,0,B|459:268,3,45
459,223,146179,2,0,B|370:222|348:136,1,135,4|0
321,122,146655,1,8
239,82,146894,2,0,B|178:84|151:23,1,90
98,107,147370,1,0
161,170,147608,2,0,B|176:129|237:131,1,90,8|0
324,133,148084,1,0
412,147,148322,6,0,B|495:140|494:257|409:245,1,180
321,245,149036,2,0,B|241:218,1,45
279,275,149274,2,0,B|197:275,1,45
234,320,149513,1,8
144,320,149751,1,0
80,256,149989,6,0,B|78:186|165:154|226:198,1,180,4|8
303,190,150703,2,0,B|367:174|367:110,1,90
279,106,151180,1,0
279,16,151418,2,0,B|216:10|204:51,1,90,8|0
157,127,151893,1,0
157,217,152132,2,0,B|172:334|302:320,1,180
369,321,152846,6,0,B|449:348,1,45,0|0
411,290,153084,2,0,B|493:290,1,45
456,245,153322,2,0,B|503:207|484:136,1,90,8|0
439,90,153798,6,0,B|322:-4|194:117,1,270,4|0
244,191,154751,1,0
331,213,154989,1,0
420,213,155227,2,0,B|484:189|469:110,1,90,8|0
407,82,155703,1,0
317,82,155941,6,0,B|214:68|162:198,1,180
175,260,156655,2,0,B|177:344,1,45
217,289,156893,2,0,B|246:366,1,45
275,316,157132,1,8
402,188,157608,5,4
306,92,157846,1,0
306,92,158084,1,8
126,92,158322,1,0
126,92,158560,1,0
126,271,158798,1,0
305,271,159036,1,8
462,184,159274,2,0,B|372:184,1,90
191,184,159751,2,0,B|72:184,2,90,0|8|0
254,247,160465,1,0
317,310,160703,2,0,B|365:310,2,45,0|0|8
467,210,161417,5,4
434,125,161655,1,0
371,61,161894,2,0,B|281:61,1,90,8|0
192,61,162370,1,0
129,124,162608,1,0
193,187,162846,1,8
130,250,163084,1,0
194,313,163322,2,0,B|287:313,3,90,0|0|8|0
374,313,164274,1,0
438,249,164513,5,0
438,159,164751,1,8
375,95,164989,1,0
330,95,165108,1,0
298,126,165227,2,0,B|170:126,3,90,4|0|8|0
119,126,166179,2,0,B|68:131|47:175,1,90
48,263,166655,2,0,B|69:305|120:310,1,90,8|0
255,310,167132,5,0
421,240,167370,1,0
356,72,167608,1,8
177,72,167846,2,0,B|115:67|75:112,1,90,0|0
29,159,168322,5,0
58,244,168560,1,8
122,307,168798,1,0
167,307,168917,1,0
212,307,169036,2,0,B|338:321|360:210,3,180,4|8|0|8
385,50,170941,1,0
296,50,171179,1,0
207,50,171417,1,8
144,113,171655,2,0,B|72:185,1,90
81,266,172132,5,0
145,329,172370,1,8
235,329,172608,1,0
280,329,172727,1,0
325,329,172846,2,0,B|421:329,2,90,4|0|8
262,265,173560,1,0
199,201,173798,2,0,B|87:159,2,90,0|0|8
263,137,174513,1,0
359,41,174751,5,0
487,168,174989,1,0
360,295,175227,1,8
180,295,175465,2,0,B|129:271,1,45
256,192,175703,12,0,176655
136,112,177132,6,0,B|248:112,1,90,8|0
315,112,177608,1,0
273,191,177846,2,0,B|353:271,1,90,0|8
400,318,178322,1,0
424,231,178560,1,0
424,141,178798,2,0,B|304:141,1,90,0|8
244,141,179274,1,0
81,219,179751,2,0,B|33:219,2,45,0|0|8
234,312,180465,5,4
323,312,180703,2,0,B|435:312,1,90,0|8
502,312,181179,1,0
502,222,181417,1,0
412,222,181655,2,0,B|322:222,1,90,0|8
232,222,182131,1,0
168,285,182370,1,0
78,285,182608,2,0,B|78:165,1,90,0|8
78,105,183084,1,0
257,105,183560,2,0,B|329:105,2,45,0|0|8
78,105,184275,5,4
141,168,184513,2,0,B|229:256,1,90,0|8
268,295,184989,1,0
357,295,185227,1,0
420,231,185465,2,0,B|356:167,1,90,0|8
292,103,185941,1,0
202,103,186179,1,0
112,103,186417,2,0,B|48:166,1,90,0|8
48,256,186893,1,0
228,263,187370,2,0,B|280:264,2,45,0|0|8
355,135,188084,5,4
291,71,188322,2,0,B|201:71,1,90,0|8
111,71,188798,1,0
47,134,189036,1,0
47,224,189275,2,0,B|135:312,1,90,0|8
174,351,189751,1,0
269,255,189989,1,0
269,255,190227,1,0
269,75,190465,1,0
269,75,190703,1,0
418,171,191179,6,0,B|490:171,2,45,0|0|8
