osu file format v8

[General]
AudioFilename: Sondambi - queen.mp3
AudioLeadIn: 0
PreviewTime: 50465
Countdown: 1
SampleSet: Normal
StackLeniency: 0.7
Mode: 0
LetterboxInBreaks: 1

[Editor]
DistanceSpacing: 1
BeatDivisor: 4
GridSize: 8

[Metadata]
Title:queen
Artist:Son Dambi
Creator:Sunny Holic
Version:Style B
Source:
Tags:_llkey_18

[Difficulty]
HPDrainRate:5
CircleSize:4
OverallDifficulty:7
ApproachRate:7
SliderMultiplier:1.6
SliderTickRate:1

[Events]
//Background and Video events
0,0,"queen.jpg"
//Break Periods
2,81617,94803
2,173284,174803
//Storyboard Layer 0 (Background)
//Storyboard Layer 1 (Fail)
//Storyboard Layer 2 (Pass)
//Storyboard Layer 3 (Foreground)
//Storyboard Sound Samples
//Background Colour Transformations
3,100,163,162,255

[TimingPoints]
16656,476.190476190476,4,1,0,70,1,0
33917,-100,4,2,0,70,0,0
35822,-100,4,1,0,70,0,0
37727,-100,4,2,0,70,0,0
39632,-100,4,1,0,70,0,0
50227,-100,4,1,0,80,0,1
61894,-100,4,1,0,70,0,0
130465,-100,4,1,0,80,0,1
141894,-100,4,1,0,70,0,0
145703,-100,4,1,0,80,0,1
157132,-100,4,1,0,70,0,0

[Colours]
Combo1 : 255,255,255
Combo2 : 217,234,224

[HitObjects]
64,208,16655,2,0,B|64:152|128:136,1,80,4|0
184,144,17132,2,0,B|224:151|224:207,1,80,8|0
144,204,17608,2,0,B|144:260|208:276,1,80
264,267,18084,2,0,B|304:259|304:203,1,80,8|0
304,126,18560,5,0
247,69,18798,1,0
167,69,19036,1,8
110,125,19275,2,0,B|31:203|117:277,1,160
168,311,19989,1,8
247,311,20227,1,0
326,311,20465,6,0,B|366:303|366:247,1,80,4|0
286,250,20941,2,0,B|285:196|326:189,1,80,8|0
366,250,21417,2,0,B|406:242|406:186,1,80
325,189,21894,2,0,B|324:135|365:128,1,80,8|0
444,128,22370,5,0
402,59,22608,1,0
322,59,22846,1,8
242,59,23084,2,0,B|128:62|94:155,1,160,0|8
75,202,23798,1,8
131,258,24036,1,8
74,314,24275,6,0,B|113:353|170:319,1,80,4|0
203,274,24751,2,8,B|240:236|274:259,1,80
354,259,25227,1,0
354,259,25465,1,0
410,202,25703,1,8
410,202,25941,1,0
410,122,26179,6,0,B|498:122,2,80,0|0|8
353,65,26894,2,0,B|309:16|189:38,1,160
128,67,27608,1,8
71,123,27846,1,0
71,202,28084,6,0,B|71:258|135:274,1,80,4|0
191,266,28560,2,0,B|231:258|231:202,1,80,8|0
151,206,29036,2,0,B|151:150|215:134,1,80
271,143,29513,2,0,B|311:150|311:206,1,80,8|0
311,284,29989,5,0
311,284,30227,1,0
311,284,30465,1,0
470,284,30941,1,0
121,56,31894,6,0,B|62:52|51:130,2,80,4|0|8
200,56,32608,1,0
279,56,32846,2,0,B|367:56,3,80,0|0|8|0
359,135,33798,2,0,B|455:135,2,80,0|0|8
278,135,34513,2,0,B|220:147|229:225,1,80
264,261,34989,1,0
326,310,35227,1,8
376,248,35465,1,0
376,168,35703,6,0,B|425:158|449:201,2,80,0|0|8
296,168,36417,1,0
216,168,36655,2,0,B|96:168,3,80,0|0|8|0
79,111,37608,2,0,B|31:123|21:164,2,80,0|0|8
147,69,38322,2,0,B|249:32,1,80
302,41,38798,1,8
260,109,39036,1,8
301,177,39275,1,8
244,233,39513,6,0,B|183:227|152:297,2,80,4|0|8
300,289,40227,1,0
379,289,40465,2,0,B|467:289,3,80,0|0|8|0
459,209,41417,2,0,B|379:209,2,80,0|0|8
459,128,42132,2,0,B|450:62|376:61,1,80
335,50,42608,1,0
261,80,42846,1,8
317,136,43084,5,0
367,198,43322,2,0,B|420:218|448:163,2,80,0|0|8
310,254,44036,1,0
230,254,44275,2,0,B|231:312|301:326,3,80,0|0|8|0
351,316,45227,2,0,B|447:316,2,80,4|0|8
351,235,45941,2,0,B|349:184|401:173,1,80
468,149,46417,1,8
431,78,46655,1,8
351,78,46894,1,8
256,192,47132,12,0,49036
109,117,49989,5,0
140,92,50108,1,0
178,81,50227,2,0,B|224:65|281:105,2,80,0|8|0
178,160,50941,2,0,B|130:166|99:217,1,80,4|0
110,279,51417,2,0,B|129:312|177:318,1,80,8|0
256,318,51894,1,0
295,318,52013,1,0
334,318,52132,1,0
406,285,52370,2,0,B|420:237|344:200,1,80,8|0
317,161,52846,5,0
237,161,53084,1,0
293,104,53322,1,8
213,104,53560,1,0
156,160,53798,1,0
127,188,53917,1,0
127,227,54036,1,0
207,227,54275,2,0,B|271:227,2,40,8|0|0
165,295,54751,6,0,B|111:314|69:272,1,80,4|0
31,231,55227,2,0,B|2:199|37:146,1,80,8|0
51,122,55584,1,0
79,93,55703,2,0,B|107:70|158:83,1,80
218,132,56179,2,0,B|206:178|148:182,1,80,8|0
104,237,56655,1,0
160,293,56894,1,0
216,236,57132,1,8
272,179,57370,2,0,B|304:134|348:150,1,80,0|0
379,147,57727,1,0
418,147,57846,1,0
418,67,58084,6,0,B|474:67,2,40,8|0|0
338,67,58560,2,0,B|288:57|249:107,1,80,4|0
208,146,59036,1,8
285,167,59275,1,0
285,246,59513,1,0
256,274,59632,1,0
216,274,59751,1,0
136,274,59989,2,0,B|80:275|77:214,1,80,8|0
78,149,60465,5,0
147,188,60703,1,0
147,108,60941,1,8
83,59,61179,1,0
154,23,61417,1,0
193,23,61536,1,0
232,23,61655,1,0
288,79,61894,2,0,B|345:43,2,40,8|0|0
221,123,62370,6,0,B|180:130|156:192,1,80,4|0
163,254,62846,1,8
219,310,63084,1,0
258,310,63203,1,0
297,310,63322,2,0,B|336:313|384:279,1,80
315,230,63798,2,0,B|351:203|390:206,1,80,8|0
470,206,64275,5,0
470,126,64513,1,0
413,69,64751,1,8
333,69,64989,1,0
253,69,65227,1,0
214,78,65346,1,0
185,106,65465,1,0
185,185,65703,2,0,B|267:185,1,80,8|0
344,185,66179,6,0,B|396:209|387:265,1,80,4|0
356,320,66655,2,0,B|335:351|281:331,1,80,8|0
251,308,67013,1,0
224,278,67132,2,0,B|192:257|212:203,1,80
242,131,67608,1,8
185,74,67846,1,0
105,74,68084,6,0,B|41:88|68:157,3,80,0|0|8|0
60,209,69036,1,0
116,265,69275,1,0
172,208,69513,1,8
200,179,69632,1,0
237,166,69751,1,0
316,166,69989,6,0,B|374:171|399:130,1,80,4|0
389,62,70465,2,0,B|373:33|315:38,1,80,8|0
276,38,70822,1,0
236,38,70941,2,0,B|179:33|164:61,1,80
106,117,71417,1,8
106,196,71655,1,0
143,266,71894,6,0,B|126:310|59:307,3,80,0|0|8|0
44,234,72846,1,0
44,153,73084,1,0
100,96,73322,1,8
139,96,73441,1,0
178,96,73560,1,0
216,168,73798,6,0,B|112:168,1,80,4|0
175,238,74275,2,0,B|255:238,1,80,8|0
294,238,74632,1,0
333,238,74751,2,0,B|376:237|412:191,1,80
445,135,75227,1,8
416,60,75465,1,0
339,35,75703,6,0,B|290:13|242:46,3,80,0|0|8|0
187,64,76655,1,0
130,120,76894,1,0
168,190,77132,1,8
132,209,77251,1,0
117,246,77370,1,0
173,302,77608,6,0,B|221:329|252:292,1,80,4|0
301,240,78084,2,0,B|349:213|380:249,1,80,8|0
392,279,78441,1,0
375,314,78560,2,0,B|349:344|301:317,1,80
231,279,79036,1,8
174,222,79275,1,0
174,142,79513,2,0,B|171:91|96:82,3,80,4|0|0|0
43,87,80465,5,0
14,115,80584,1,0
4,154,80703,1,0
83,154,80941,5,0
111,125,81060,1,0
150,125,81179,1,0
223,155,81417,1,0
256,192,95703,12,4,96655
256,120,96894,5,0
176,120,97132,2,0,B|127:119|104:159,1,80,8|0
169,203,97608,2,0,B|135:238|90:226,1,80
33,178,98084,2,0,B|6:219|27:259,1,80,8|0
81,310,98560,2,0,B|134:333|168:310,1,80
227,275,99036,1,8
307,275,99275,2,0,B|394:275,1,80
326,222,99751,2,0,B|407:197,1,80,0|8
330,163,100227,2,0,B|403:108,1,80,0|4
313,114,100703,5,0
256,57,100941,2,0,B|220:29|176:57,1,80,8|0
181,133,101417,2,0,B|268:133,1,80
261,213,101894,2,0,B|225:241|181:213,1,80,8|0
116,176,102370,2,0,B|80:148|36:176,1,80
41,252,102846,1,8
97,308,103084,2,0,B|184:308,1,80
233,251,103560,1,8
289,194,103798,1,8
233,251,104036,1,8
289,307,104275,6,0,B|341:310|371:275,1,80,4|0
419,226,104751,2,0,B|428:178|383:139,1,80,8|0
333,103,105227,2,0,B|253:103,1,80
253,182,105703,2,0,B|340:182,1,80,8|0
333,261,106179,2,0,B|253:261,1,80
173,261,106655,1,8
116,204,106894,2,0,B|133:144|199:144,1,80
244,126,107370,2,0,B|304:109|304:43,2,80,0|8|0
164,126,108084,6,0,B|129:130|112:70,1,80,4|0
33,73,108560,2,0,B|4:124|31:146,1,80,8|0
97,191,109036,2,0,B|131:195|148:135,1,80
228,138,109513,2,0,B|256:189|229:211,1,80,8|0
286,267,109989,2,0,B|373:267,1,80
286,267,110465,2,0,B|206:267,1,80,0|0
206,187,110941,2,0,B|293:187,1,80,0|8
365,187,111417,1,8
365,187,111655,5,8
365,106,111894,2,0,B|335:66|265:70,2,80,4|0|8
421,162,112608,1,0
421,241,112846,2,0,B|392:275|349:259,3,80,0|0|8|0
276,226,113798,2,0,B|196:226,2,80,0|0|8
347,188,114513,2,0,B|388:175|397:126,1,80
396,50,114989,1,0
316,50,115227,1,8
396,50,115465,1,0
355,119,115703,6,0,B|234:119,2,80,0|0|8
434,119,116417,1,0
394,188,116655,2,0,B|276:188,3,80,0|0|8|0
233,188,117608,2,0,B|180:187|157:147,2,80,0|0|8
312,188,118322,2,0,B|365:187|388:147,1,80
430,91,118798,1,8
383,25,119036,1,8
302,25,119275,1,8
245,81,119513,6,0,B|182:87|146:39,2,80,4|0|8
322,101,120227,1,0
393,135,120465,2,0,B|352:183|293:175,3,80,0|0|8|0
246,175,121417,2,0,B|166:175,2,80,0|0|8
326,175,122132,2,0,B|329:235|255:257,1,80
346,298,122608,1,0
290,241,122846,1,8
346,298,123084,5,0
425,298,123322,2,0,B|507:298,2,80,0|0|8
346,298,124036,1,0
266,298,124275,2,0,B|145:298,3,80,0|0|8|0
108,279,125227,2,0,B|62:265|57:202,2,80,4|0|8
186,298,125941,2,0,B|237:279|243:228,1,80
239,163,126417,1,8
239,83,126655,1,8
239,163,126894,1,8
256,192,127132,12,0,129036
403,117,129989,5,0
372,92,130108,1,0
334,81,130227,2,0,B|288:65|231:105,2,80,0|8|0
334,160,130941,2,0,B|382:166|413:217,1,80,4|0
402,279,131417,2,0,B|383:312|335:318,1,80,8|0
256,318,131894,1,0
217,318,132013,1,0
178,318,132132,1,0
106,285,132370,6,0,B|92:237|168:200,1,80,8|0
195,161,132846,1,0
275,161,133084,1,0
219,104,133322,1,8
299,104,133560,1,0
356,160,133798,1,0
385,188,133917,1,0
385,227,134036,1,0
305,227,134275,2,0,B|241:227,2,40,8|0|0
347,295,134751,6,0,B|401:314|443:272,1,80,4|0
481,231,135227,2,0,B|510:199|475:146,1,80,8|0
461,122,135584,1,0
433,93,135703,2,0,B|405:70|354:83,1,80
294,132,136179,2,0,B|306:178|364:182,1,80,8|0
408,237,136655,1,0
352,293,136894,1,0
296,236,137132,1,8
240,179,137370,2,0,B|208:134|164:150,1,80
133,147,137727,1,0
94,147,137846,1,0
94,67,138084,6,0,B|38:67,2,40,8|0|0
174,67,138560,2,0,B|224:57|263:107,1,80,4|0
304,146,139036,1,8
227,167,139275,1,0
227,246,139513,1,0
256,274,139632,1,0
296,274,139751,1,0
376,274,139989,2,0,B|432:275|435:214,1,80,8|0
434,149,140465,1,0
365,188,140703,5,0
365,108,140941,1,8
429,59,141179,1,0
358,23,141417,1,0
319,23,141536,1,0
280,23,141656,1,0
224,79,141894,2,0,B|167:43,2,40,8|0|0
291,123,142370,6,0,B|332:130|356:192,1,80,4|0
349,254,142846,1,8
293,310,143084,1,0
254,310,143203,1,0
215,310,143322,2,0,B|176:313|128:279,1,80
197,230,143798,2,0,B|161:203|122:206,1,80,8|0
42,206,144275,1,0
42,126,144513,5,0
99,69,144751,1,8
176,49,144989,1,0
255,49,145227,2,0,B|308:16,8,40,0|0|0|0|8|0|0|0|4
214,118,146417,5,0
283,157,146656,2,0,B|258:199|199:198,1,80,8|0
146,160,147132,1,0
112,182,147251,1,0
97,219,147370,1,0
116,296,147608,2,0,B|141:338|200:337,1,80,8|0
261,336,148084,5,0
340,336,148322,1,0
261,336,148560,1,8
340,336,148798,1,0
412,301,149036,1,0
440,272,149156,1,0
440,232,149275,1,0
440,152,149513,2,0,B|494:116,2,40,8|0|0
383,95,149989,6,0,B|347:64|291:76,1,80,4|0
319,152,150465,2,0,B|280:161|244:130,1,80,8|0
212,108,150822,1,0
184,79,150941,2,0,B|136:50|87:90,1,80
107,156,151417,2,0,B|194:156,1,80,8|0
267,156,151894,1,0
230,227,152132,1,0
309,227,152370,1,8
346,156,152608,2,0,B|429:156,1,80
454,127,152965,1,0
454,87,153084,1,0
397,30,153322,6,0,B|449:30,2,40,8|0|0
340,86,153798,2,0,B|318:127|266:128,1,80,4|0
218,70,154275,1,8
199,147,154513,1,0
132,191,154751,1,0
162,217,154870,1,0
201,224,154989,1,0
271,185,155227,2,0,B|298:137|251:84,1,80,8|0
212,52,155703,1,0
155,108,155941,5,0
211,164,156179,1,8
154,220,156417,1,0
210,276,156656,1,0
249,276,156775,1,0
288,276,156894,1,0
367,276,157132,2,0,B|408:314,2,40,8|0|0
327,206,157608,6,0,B|372:206|402:164,1,80,4|0
396,91,158084,1,8
326,129,158322,1,0
286,137,158441,1,0
257,165,158560,2,0,B|242:209|165:194,1,80
190,197,159036,2,0,B|241:185|256:229,1,80,8|0
289,299,159513,1,0
289,299,159751,1,0
289,299,159989,1,8
209,299,160227,1,0
152,242,160465,5,0
123,213,160584,1,0
94,184,160703,1,0
94,104,160941,2,0,B|121:62|168:67,1,80,8|0
240,66,161417,2,0,B|280:58|323:91,1,80,4|0
259,143,161894,2,0,B|294:169|334:162,1,80,8|0
374,162,162251,1,0
374,201,162370,2,0,B|368:244|334:268,1,80
268,313,162846,1,8
200,270,163084,1,0
143,213,163322,2,0,B|112:166|56:187,3,80,0|0|8|0
74,101,164275,5,0
130,44,164513,1,0
209,44,164751,1,8
248,44,164870,1,0
287,44,164989,1,0
343,100,165227,6,0,B|387:122|422:90,1,80,4|0
389,169,165703,2,0,B|357:196|313:174,1,80,8|0
275,164,166060,1,0
238,148,166179,2,0,B|189:126|141:159,1,80
85,175,166656,1,8
141,231,166894,1,0
220,231,167132,2,0,B|262:257|306:225,3,80,0|0|8|0
364,191,168084,5,0
443,191,168322,1,0
443,270,168560,1,8
414,298,168679,1,0
374,298,168798,1,0
296,279,169036,6,0,B|250:284|224:225,1,80,4|0
304,206,169513,2,0,B|285:162|239:167,1,80,8|0
202,158,169870,1,0
176,127,169989,2,0,B|158:83|194:54,1,80
252,108,170465,1,8
230,185,170703,1,0
258,259,170941,2,0,B|226:294|161:270,3,80,0|0|8|0
110,245,171894,1,0
110,245,172132,5,0
79,170,172370,1,8
107,141,172489,1,0
146,141,172608,1,0
225,141,172846,2,0,B|321:141,1,80,4|0
256,192,175703,12,0,176656
256,120,176894,5,0
188,162,177132,2,0,B|151:161|109:213,1,80,8|0
142,276,177608,2,0,B|215:323|298:241,1,160,0|8
287,91,178560,2,0,B|215:44|143:116,1,160,0|8
95,180,179275,1,0
254,180,179751,1,0
310,236,179989,2,0,B|292:268|226:278,1,80,8|0
163,275,180465,6,0,B|52:275|46:144,3,160,4|8|0|8
163,69,182370,2,0,B|194:37|242:59,1,80
311,84,182846,1,8
311,163,183084,2,0,B|279:248|147:248,1,160,0|8
137,181,183798,1,8
165,152,183917,1,0
193,123,184036,1,8
273,123,184275,6,0,B|366:109|425:225,3,160,4|8|0|8
293,305,186179,2,0,B|261:341|196:316,1,80
143,296,186656,1,8
100,228,186894,2,0,B|134:160|260:183,1,160
321,180,187608,1,8
349,151,187727,1,0
377,122,187846,1,0
320,65,188084,6,0,B|240:11|158:74,3,160,4|8|0|8
120,217,189989,6,0,B|111:272|178:285,1,80
237,279,190465,1,0
237,279,190703,1,0
316,279,191179,6,0,B|354:278,2,40
