osu file format v8

[General]
AudioFilename: Sondambi - queen.mp3
AudioLeadIn: 0
PreviewTime: 50465
Countdown: 1
SampleSet: Normal
StackLeniency: 0.7
Mode: 0
LetterboxInBreaks: 1

[Editor]
Bookmarks: 96655
DistanceSpacing: 1
BeatDivisor: 4
GridSize: 8

[Metadata]
Title:queen
Artist:Son Dambi
Creator:Sunny Holic
Version:Style A
Source:
Tags:_llkey_18

[Difficulty]
HPDrainRate:5
CircleSize:4
OverallDifficulty:7
ApproachRate:7
SliderMultiplier:1.5
SliderTickRate:1

[Events]
//Background and Video events
0,0,"queen.jpg"
//Break Periods
2,80665,95755
//Storyboard Layer 0 (Background)
//Storyboard Layer 1 (Fail)
//Storyboard Layer 2 (Pass)
//Storyboard Layer 3 (Foreground)
//Storyboard Sound Samples
//Background Colour Transformations
3,100,163,162,255

[TimingPoints]
16656,476.190476190476,4,1,0,70,1,0
33917,-100,4,2,0,70,0,0
35822,-100,4,1,0,70,0,0
37727,-100,4,2,0,70,0,0
39632,-100,4,1,0,70,0,0
50227,-100,4,1,0,80,0,1
61894,-100,4,1,0,70,0,0
130465,-100,4,1,0,80,0,1
141894,-100,4,1,0,70,0,0
145703,-100,4,1,0,80,0,1
157132,-100,4,1,0,70,0,0

[Colours]
Combo1 : 255,255,255
Combo2 : 217,234,224

[HitObjects]
65,39,16655,1,4
139,39,16894,1,0
101,104,17132,1,8
175,104,17370,1,0
214,167,17608,2,0,B|139:167,1,75
64,167,18084,1,8
64,167,18322,1,0
103,230,18560,5,0
153,285,18798,1,0
153,285,19036,1,8
228,285,19275,2,0,B|412:285,1,150
452,285,19989,1,8
452,285,20227,1,0
414,219,20465,5,4
339,219,20703,1,0
339,219,20941,1,8
264,219,21179,2,0,B|156:224|126:130,1,150
100,90,21894,1,8
100,90,22132,1,0
174,90,22370,5,0
227,143,22608,1,0
280,196,22846,1,8
354,196,23084,2,0,B|454:208|482:108,1,150,0|8
474,129,23798,1,8
474,129,24036,1,8
420,75,24275,6,0,B|344:75,1,75,4|0
345,149,24751,2,0,B|269:149,1,75,8|0
270,74,25227,2,0,B|194:74,1,75
195,148,25703,2,0,B|270:148,1,75,8|0
345,149,26179,5,0
418,148,26417,2,0,B|431:266|275:236,1,150
332,242,27132,1,0
257,242,27370,2,0,B|182:242,2,75,0|8|0
293,176,28084,6,0,B|384:167|391:61,1,150,4|8
389,3,28798,1,0
314,3,29036,2,0,B|225:8|216:96,1,150,0|8
216,172,29751,1,0
141,172,29989,2,0,B|61:172,3,75
355,92,31655,5,0
429,92,31894,2,0,B|533:92,2,75,4|0|8
355,92,32608,1,0
316,157,32846,2,0,B|220:157,2,75,0|0|8
390,157,33560,2,0,B|486:157,1,75
502,222,34036,6,0,B|422:222,7,75,0|8|0|0|0|8|0|0
351,218,35941,1,0
313,286,36179,2,0,B|388:286,1,75,8|0
463,286,36655,1,0
463,286,36894,1,0
424,221,37132,1,8
349,221,37370,2,0,B|261:221,1,75
306,153,37846,6,0,B|194:153,7,75,0|8|0|0|8|8|8|4
177,99,39751,1,0
177,99,39870,1,0
177,99,39989,1,8
102,93,40227,2,0,B|27:93,1,75
65,157,40703,2,0,B|177:157,2,75,0|8|0
30,223,41417,1,0
105,223,41655,2,0,B|209:223,2,75,0|8|0
68,288,42370,5,0
68,288,42608,1,0
68,288,42846,2,0,B|164:288,1,75,8|0
217,288,43322,2,0,B|313:288,1,75
255,222,43798,2,0,B|180:222,1,75,8|0
217,156,44275,2,0,B|313:156,1,75
366,156,44751,1,8
259,49,45227,5,4
184,49,45465,1,0
109,49,45703,1,8
55,102,45941,1,0
377,293,47132,6,0,B|465:293,1,75,4|0
452,218,47608,2,0,B|452:130,1,75
377,143,48084,2,0,B|273:143,1,75
302,217,48560,2,0,B|406:217,1,75
452,218,49036,1,0
452,218,49275,1,0
452,143,49513,1,0
452,143,49751,2,0,B|372:143,1,75
302,143,50227,6,0,B|262:143,2,37.5
338,77,50703,1,0
263,77,50941,2,0,B|106:91|112:243,1,225
112,288,51894,1,0
112,288,52132,1,0
186,288,52370,2,0,B|291:288,1,75,8|0
335,288,52846,1,0
335,288,53084,2,0,B|442:292|458:186,1,150
451,139,53798,2,0,B|347:139,2,75,0|0|8
414,72,54513,1,0
339,72,54751,6,0,B|191:69|183:224,1,225,4|0
185,275,55703,1,0
185,275,55941,1,0
110,275,56179,2,0,B|30:275,1,75,8|0
35,200,56655,1,0
35,200,56894,2,0,B|39:102|165:101,1,150
205,103,57608,1,0
205,103,57846,1,0
279,103,58084,6,0,B|359:103,1,75,8|0
428,103,58560,2,0,B|415:246|261:234,1,225,4|0
278,234,59513,1,0
278,234,59751,1,0
203,234,59989,2,0,B|91:234,1,75,8|0
53,234,60465,1,0
53,159,60703,2,0,B|54:64|158:51,1,150
215,54,61417,2,0,B|327:54,2,75,0|0|8
177,119,62132,1,0
104,120,62370,6,0,B|-8:120,1,75,4|0
29,194,62846,2,0,B|104:194,1,75,8|0
178,194,63322,2,0,B|132:270,1,75
214,258,63798,2,0,B|289:258,1,75,8|0
289,258,64275,1,0
363,258,64513,2,0,B|443:258,2,75,0|8|0
327,191,65227,1,0
252,191,65465,2,0,B|212:191,2,37.5,0|0|8
252,41,66179,5,4
252,41,66417,1,0
176,41,66655,2,0,B|101:41,1,75,8|0
63,106,67132,2,0,B|138:106,1,75
176,170,67608,2,0,B|101:170,1,75,8|0
48,222,68084,1,0
101,275,68322,1,0
166,238,68560,2,0,B|241:238,1,75,8|0
315,238,69036,1,0
315,238,69275,1,0
389,238,69513,2,0,B|426:238,2,37.5,8|0|0
351,173,69989,5,4
297,119,70227,1,0
243,172,70465,2,0,B|168:172,1,75,8|0
93,172,70941,2,0,B|18:172,1,75
18,246,71417,2,0,B|18:321,1,75,8|0
93,321,71894,1,0
167,321,72132,1,0
220,267,72370,1,8
273,213,72608,2,0,B|348:213,1,75
401,159,73084,1,0
347,105,73322,2,0,B|384:105,2,37.5,8|0|0
272,105,73798,6,0,B|218:158,1,75,4|0
143,158,74275,2,0,B|89:104,1,75,8|0
36,51,74751,2,0,B|36:126,1,75
110,126,75227,2,0,B|185:126,1,75,8|0
238,179,75703,1,0
291,125,75941,1,0
344,178,76179,1,8
397,124,76417,2,0,B|472:124,1,75
472,199,76894,1,0
472,199,77132,2,0,B|512:199,2,37.5,8|0|0
397,199,77608,6,0,B|322:199,1,75,4|0
359,264,78084,2,0,B|284:264,1,75,8|0
322,199,78560,2,0,B|247:199,1,75
284,264,79036,2,0,B|209:264,1,75,8|0
133,264,79513,1,4
79,210,79751,1,0
79,135,79989,1,8
132,81,80227,2,0,B|207:81,1,75
71,77,96655,5,4
71,77,96894,1,0
145,77,97132,2,0,B|233:77,1,75,8|0
220,151,97608,2,0,B|145:151,1,75
70,151,98084,1,8
16,204,98322,1,0
69,257,98560,5,0
122,203,98798,1,0
175,256,99036,1,8
250,256,99275,2,0,B|404:256,1,150
453,202,99989,1,8
453,202,100227,1,0
452,127,100465,6,0,B|398:73,1,75,4|0
345,126,100941,2,0,B|291:179,1,75,8|0
238,126,101417,2,0,B|184:72,1,75
131,126,101894,2,0,B|77:179,1,75,8|0
77,254,102370,5,0
130,307,102608,1,0
204,307,102846,1,8
204,307,102965,1,0
204,307,103084,2,0,B|356:307,1,150,0|8
428,307,103798,1,8
428,307,104036,1,8
428,231,104275,5,4
374,177,104513,2,0,B|299:177,2,75,0|8|0
427,123,105227,2,0,B|515:123,1,75
502,48,105703,2,0,B|427:48,1,75,8|0
352,48,106179,1,0
277,48,106417,2,0,B|223:101,1,75,0|8
170,47,106894,1,0
116,100,107132,1,0
116,174,107370,2,0,B|204:174,2,75,0|8|0
116,248,108084,6,0,B|204:248,1,75,4|0
265,248,108560,1,8
265,248,108798,1,0
304,311,109036,2,0,B|229:311,1,75
153,311,109513,1,8
46,204,109989,5,0
99,150,110227,2,0,B|187:150,1,75
227,96,110703,1,0
376,96,111179,5,8
376,96,111417,1,8
376,96,111655,1,8
429,149,111894,2,0,B|429:224,1,75,4|0
429,298,112370,2,0,B|354:298,1,75,8|0
354,223,112846,1,0
279,223,113084,1,0
279,148,113322,1,8
279,223,113560,1,0
204,223,113798,1,0
279,223,114036,2,0,B|279:298,6,75,0|8|0|0|0|8|0
279,147,115703,6,0,B|204:147,1,75
204,72,116179,2,0,B|292:72,1,75,8|0
353,72,116655,1,0
406,125,116894,1,0
331,125,117132,1,8
277,71,117370,1,0
202,71,117608,1,0
148,124,117846,2,0,B|73:124,5,75,0|8|0|0|8|8
73,199,119275,2,0,B|161:199,1,75,8|4
222,199,119751,5,0
259,199,119870,1,0
296,199,119989,1,0
370,199,120227,2,0,B|432:261,1,75
423,252,120703,1,0
423,326,120941,1,8
423,326,121179,1,0
348,326,121417,1,0
273,326,121655,2,0,B|198:326,2,75,0|8|0
273,250,122370,2,0,B|361:250,1,75
401,196,122846,1,8
401,121,123084,5,0
347,67,123322,2,0,B|272:67,1,75
272,141,123798,2,0,B|197:141,1,75,8|0
143,87,124275,1,0
89,140,124513,1,0
89,140,124751,1,8
89,289,125227,2,0,B|164:289,3,75,4|0|8|0
238,289,126179,1,0
312,289,126417,1,8
312,289,126655,1,8
312,289,126894,1,8
386,289,127132,6,0,B|474:289,1,75,4|0
461,214,127608,2,0,B|461:126,1,75
461,64,128084,2,0,B|357:64,1,75
386,138,128560,2,0,B|311:138,1,75
257,84,129036,1,0
181,84,129275,1,0
128,137,129513,1,0
181,190,129751,2,0,B|256:190,1,75
330,190,130227,6,0,B|367:190,2,37.5
330,264,130703,1,0
255,264,130941,2,0,B|98:250|104:98,1,225,4|0
104,52,131894,1,0
104,52,132132,1,0
178,52,132370,2,0,B|283:52,1,75,8|0
327,52,132846,1,0
327,52,133084,2,0,B|434:48|450:154,1,150
443,200,133798,2,0,B|339:200,2,75,0|0|8
443,275,134513,1,0
368,275,134751,6,0,B|220:278|212:123,1,225,4|0
214,71,135703,1,0
214,71,135941,1,0
139,71,136179,2,0,B|59:71,1,75,8|0
64,145,136655,1,0
64,145,136894,2,0,B|68:243|194:244,1,150
234,241,137608,1,0
234,241,137846,1,0
308,241,138084,6,0,B|388:241,1,75,8|0
436,187,138560,2,0,B|423:44|269:56,1,225,4|0
211,55,139513,1,0
211,55,139751,1,0
157,108,139989,2,0,B|45:108,1,75,8|0
28,161,140465,1,0
28,235,140703,2,0,B|29:330|133:343,1,150
190,340,141417,2,0,B|302:340,2,75,0|0|8
190,264,142132,1,0
264,264,142370,6,0,B|376:264,1,75,4|0
339,189,142846,2,0,B|264:189,1,75,8|0
210,135,143322,2,0,B|171:199,1,75
224,252,143798,2,0,B|299:252,1,75,8|0
374,252,144275,1,0
427,305,144513,2,0,B|507:305,2,75,0|8|0
352,305,145227,6,0,B|312:305,8,37.5,0|0|0|0|8|0|0|0|4
352,230,146417,6,0,B|427:230,2,75,0|8|0
276,230,147132,1,0
222,176,147370,1,0
168,122,147608,2,0,B|93:122,1,75,8|0
18,122,148084,1,0
18,122,148322,2,0,B|14:229|120:245,1,150
166,238,149036,2,0,B|270:238,2,75,0|0|8
208,300,149751,1,0
282,300,149989,6,0,B|430:303|438:148,1,225,4|0
435,96,150941,1,0
435,96,151179,1,0
381,42,151417,2,0,B|301:42,1,75,8|0
231,42,151894,1,0
231,42,152132,2,0,B|133:46|132:172,1,150
134,212,152846,1,0
134,212,153084,1,0
208,212,153322,6,0,B|288:212,1,75,8|0
357,212,153798,2,0,B|344:69|190:81,1,225,4|0
132,80,154751,1,0
132,80,154989,1,0
132,154,155227,2,0,B|207:154,1,75,8|0
281,154,155703,1,0
355,154,155941,2,0,B|354:249|250:262,1,150
192,259,156656,2,0,B|117:259,2,75,0|0|8
267,259,157370,1,0
341,259,157608,6,0,B|453:259,1,75,4|0
416,184,158084,2,0,B|341:184,1,75,8|0
287,130,158560,2,0,B|241:206,1,75
173,194,159036,2,0,B|98:194,1,75,8|0
44,140,159513,1,0
97,86,159751,2,0,B|172:86,2,75,0|8|0
43,32,160465,1,0
117,32,160703,2,0,B|154:32,2,37.5,0|0|8
79,96,161179,1,0
25,149,161417,5,4
25,149,161656,1,0
78,202,161894,2,0,B|153:202,1,75,8|0
206,148,162370,2,0,B|281:148,1,75
281,222,162846,2,0,B|206:222,1,75,8|0
131,222,163322,1,0
170,285,163560,1,0
244,285,163798,2,0,B|319:285,1,75,8|0
393,285,164275,1,0
393,285,164513,1,0
467,285,164751,2,0,B|504:285,2,37.5,8|0|0
431,219,165227,5,4
377,165,165465,1,0
302,165,165703,2,0,B|227:165,1,75,8|0
227,90,166179,2,0,B|152:90,1,75
152,164,166656,2,0,B|152:239,1,75,8|0
205,292,167132,1,0
258,238,167370,1,0
311,291,167608,1,8
364,237,167846,2,0,B|439:237,1,75
439,162,168322,1,0
439,87,168560,2,0,B|476:87,2,37.5,8|0|0
364,87,169036,6,0,B|310:140,1,75,4|0
235,139,169513,2,0,B|181:85,1,75,8|0
106,85,169989,2,0,B|106:160,1,75
106,234,170465,2,0,B|181:234,1,75,8|0
234,180,170941,1,0
287,126,171179,1,0
340,179,171417,1,8
393,125,171656,2,0,B|468:125,1,75
468,200,172132,1,0
468,200,172370,2,0,B|508:200,2,37.5,8|0|0
393,200,172846,6,0,B|318:200,1,75,4|0
355,265,173322,2,0,B|280:265,1,75
318,200,173798,2,0,B|243:200,1,75
280,265,174275,2,0,B|205:265,1,75
129,265,174751,1,0
75,211,174989,1,0
75,136,175227,1,0
128,82,175465,1,0
256,192,175703,12,0,176656
256,120,176894,6,0,B|181:120,1,75,0|8
106,120,177370,1,0
216,221,177846,2,0,B|312:221,1,75,0|8
365,221,178322,1,0
258,327,178798,2,0,B|183:327,1,75,0|8
108,327,179275,1,0
108,176,179751,2,0,B|44:176,2,37.5,0|0|8
214,69,180465,5,4
288,69,180703,2,0,B|384:69,1,75,0|8
437,69,181179,1,0
330,175,181656,2,0,B|255:175,1,75,0|8
180,175,182132,1,0
286,281,182608,2,0,B|382:281,1,75,0|8
435,281,183084,1,0
435,131,183560,2,0,B|472:131,2,37.5,0|0|8
328,24,184275,5,4
253,24,184513,2,0,B|178:24,1,75,0|8
124,77,184989,1,0
230,183,185465,2,0,B|326:183,1,75,0|8
358,236,185941,1,0
251,342,186417,2,0,B|176:342,1,75,0|8
122,288,186894,1,0
122,137,187370,2,0,B|74:137,2,37.5,0|0|8
228,30,188084,5,4
302,30,188322,2,0,B|398:30,1,75,0|8
430,83,188798,1,0
323,189,189275,2,0,B|248:189,1,75,0|8
194,242,189751,1,0
140,188,189989,5,0
140,188,190227,1,0
193,134,190465,1,0
193,134,190703,1,0
