osu file format v8

[General]
AudioFilename: 02_queen.mp3
AudioLeadIn: 0
PreviewTime: -1
Countdown: 1
SampleSet: Soft
StackLeniency: 0.9
Mode: 0
LetterboxInBreaks: 1
SkinPreference:Default

[Editor]
DistanceSpacing: 0.800000011920929
BeatDivisor: 4
GridSize: 4

[Metadata]
Title:Queen
Artist:Son Dam Bi
Creator:ILove4MinutesHyunah
Version:Hard
Source:
Tags:

[Difficulty]
HPDrainRate:6
CircleSize:6
OverallDifficulty:4
ApproachRate:3
SliderMultiplier:1.4
SliderTickRate:1

[Events]
//Background and Video events
0,0,"son dambi.jpg"
Video,80950,"Son_Dambi_-_Queen_100808_[kpopflash.net].tp.spl.asf.avi.avi"
//Break Periods
2,81635,95472
2,142350,160234
//Storyboard Layer 0 (Background)
//Storyboard Layer 1 (Fail)
//Storyboard Layer 2 (Pass)
//Storyboard Layer 3 (Foreground)
//Storyboard Sound Samples
//Background Colour Transformations
3,100,163,162,255

[TimingPoints]
9055,476.190476190476,4,2,1,100,1,0
46710,-100,4,2,1,100,0,1
56595,-100,4,2,1,100,0,1
62186,-66.6666666666667,4,2,1,100,0,0
64904,-200,4,2,1,100,0,0
65736,-100,4,2,1,100,0,0
81625,-100,4,2,1,100,0,0
104288,-100,4,2,1,100,0,0
107356,-100,4,2,1,100,0,0
109900,-66.6666666666667,4,2,1,100,0,0
111410,-100,4,2,1,100,0,0
126995,-100,4,2,1,100,0,0
126995,-100,4,2,1,100,0,1
142334,-66.6666666666667,4,2,1,100,0,1
145959,-100,4,2,1,100,0,1
160858,-100,4,2,1,100,0,0
177021,-66.6666666666667,4,2,1,100,0,0
190516,-200,4,2,1,100,0,0
196259,-100,4,2,1,100,0,0

[Colours]
Combo1 : 214,168,215
Combo2 : 211,207,254
Combo3 : 255,204,250
Combo4 : 221,227,221
Combo5 : 255,255,255

[HitObjects]
104,88,8340,2,0,B|288:92|288:92|344:172|344:172|260:248|260:248|168:200,1,490
172,204,10126,1,0
192,174,10364,1,0
208,144,10602,1,0
223,118,10840,1,0
239,92,11078,1,0
260,58,11316,2,0,B|260:59|416:60,2,140
262,63,13102,5,0
232,104,13340,1,0
200,144,13578,1,0
168,184,13816,1,0
136,224,14054,1,0
104,264,14293,1,0
72,304,14531,2,0,B|72:305|228:306,2,140
292,140,16682,5,8
374,139,16920,1,8
292,203,17158,1,8
371,198,17396,1,8
289,265,17634,1,8
370,265,17872,1,8
370,265,18110,5,8
289,265,18348,1,8
372,199,18586,1,8
292,203,18824,1,8
374,139,19062,1,8
292,140,19293,1,8
224,140,19531,2,8,B|108:140,2,70
88,140,20245,1,8
24,136,20491,1,8
37,55,20729,5,8
151,55,20967,1,8
274,54,21205,1,8
401,54,21443,1,8
500,54,21682,1,8
500,53,21920,1,8
498,143,22158,1,8
399,142,22396,1,8
282,142,22634,5,8
159,144,22872,1,8
36,142,23102,1,8
37,143,23348,1,8
36,216,23586,2,8,B|36:279|34:281|36:274,4,46.6666666666667
166,293,24539,5,0
82,297,24777,1,0
82,296,25015,1,0
167,293,25245,2,0,B|270:293|270:293|275:296,1,70
388,296,25729,1,0
236,292,25959,2,0,B|339:292|339:292|344:295,1,70
388,296,26435,2,0,B|491:296|491:296|496:299,3,70
456,236,27396,1,0
452,176,27507,1,0
452,116,27745,1,0
452,116,27864,1,0
334,112,28110,6,0,B|184:113|190:112,1,140
194,113,28816,1,0
191,39,29054,2,0,B|337:40,1,140
332,39,29769,1,0
256,192,30007,12,0,31435
322,251,31682,5,0
290,214,31920,1,0
258,177,32158,1,0
223,142,32396,1,0
193,108,32634,1,0
164,72,32872,1,0
132,39,33110,1,0
148,219,33348,5,0
176,231,33586,1,0
186,200,33824,1,0
159,171,34062,1,0
120,188,34301,1,0
112,224,34539,1,0
128,252,34777,1,0
164,256,35015,1,0
188,220,35253,1,0
164,184,35491,1,0
128,200,35729,5,0
178,238,35967,1,0
211,219,36205,1,0
235,202,36443,1,0
258,187,36682,1,0
283,169,36920,1,0
310,152,37158,1,0
339,132,37396,1,0
393,52,37872,5,0
362,65,38110,1,0
364,100,38348,1,0
396,120,38586,1,0
424,88,38824,1,0
392,52,39062,1,0
360,64,39301,1,0
364,100,39539,2,0,B|364:172,1,70
256,192,40015,12,0,41554
254,191,41682,5,0
253,190,41920,1,0
254,191,42150,2,0,B|12:188,1,210
40,56,43110,1,0
40,0,43348,1,0
40,0,43586,1,0
40,56,43824,1,0
120,116,44062,1,0
193,161,44301,5,0
264,200,44531,2,0,B|392:276,1,140
193,161,45253,1,0
193,162,45491,1,0
112,97,45729,1,0
34,39,45967,1,0
311,192,47150,5,0
372,192,47626,1,0
435,192,48102,1,0
497,192,48578,1,0
256,192,49054,12,0,50245
48,64,50483,5,0
48,64,50721,1,0
120,64,50959,2,0,B|272:64,2,140
252,64,52388,1,0
252,64,52626,1,0
312,64,53102,2,0,B|464:64,1,140
456,124,53816,1,0
456,124,54054,1,0
460,192,54293,2,0,B|460:280,1,70
464,328,54769,2,0,B|256:328,2,140
460,256,56197,5,0
456,192,56435,1,0
456,128,56674,2,0,B|456:-8,3,70
456,0,57626,1,0
456,0,57864,1,0
384,0,58102,1,0
312,0,58340,1,0
236,4,58578,2,0,B|156:4,4,70
96,12,60007,1,0
28,12,60245,1,0
28,80,60721,6,0,B|28:152,2,70
28,12,61435,1,0
28,12,61674,1,0
104,12,61912,2,0,B|176:12,1,70
236,12,62388,6,0,B|292:88|292:88,1,70
277,67,62864,2,0,B|296:52|224:112,2,70
232,104,63340,2,0,B|292:176|292:176,2,70
276,156,63816,2,0,B|294:140|222:200,2,70
232,192,64293,2,0,B|292:264|292:264,1,70
220,292,64531,1,0
164,336,64769,1,0
92,336,65007,2,0,B|7:335|31:336,1,70
32,32,66435,5,0
108,32,66674,1,0
108,104,66912,1,0
188,104,67150,1,0
188,188,67388,1,0
264,188,67626,1,0
260,264,67864,1,0
344,264,68102,1,0
344,344,68340,1,0
436,344,68578,1,0
256,192,68816,12,0,70126
436,344,70245,5,0
344,344,70483,1,0
344,264,70721,1,0
260,264,70959,1,0
264,188,71197,1,0
188,188,71435,1,0
188,104,71674,1,0
108,104,71912,1,0
108,32,72150,1,0
32,32,72388,1,0
256,192,72626,12,0,73935
36,352,74054,5,0
36,288,74293,1,0
100,288,74531,1,0
100,224,74769,1,0
164,224,75007,1,0
164,160,75245,1,0
224,160,75483,1,0
220,100,75721,1,0
284,100,75959,1,0
284,36,76197,1,0
348,36,76435,2,0,B|492:36,2,140
284,36,77626,5,0
284,100,77864,1,0
220,100,78102,1,0
224,160,78340,1,0
164,160,78578,1,0
164,224,78816,1,0
100,224,79054,1,0
100,288,79293,1,0
36,288,79531,1,0
36,352,79769,1,0
256,192,80126,12,0,81435
200,168,96912,5,0
264,168,97150,2,0,B|336:168,1,70
332,108,97626,2,0,B|252:108,1,70
204,108,98102,1,0
204,108,98340,1,0
204,44,98578,5,0
264,44,98816,1,0
328,44,99054,1,0
388,44,99293,2,0,B|488:44,1,70
460,112,99769,1,0
460,172,100007,1,0
460,232,100245,2,0,B|460:304,1,70
400,304,100721,5,0
340,304,100959,2,0,B|268:304,3,70
212,304,101912,1,0
212,304,102150,1,0
212,240,102388,1,0
216,176,102626,1,0
216,112,102864,2,0,B|216:36,3,70
156,32,103816,1,0
156,32,104054,1,0
32,28,104531,6,0,B|96:28,2,52.4999984353781
84,80,105007,2,0,B|8:80,2,52.4999984353781
32,132,105483,2,0,B|108:132,2,52.4999984353781
84,184,105959,2,0,B|0:184,2,52.4999984353781
32,236,106435,2,0,B|120:236,2,52.4999984353781
84,288,106912,2,0,B|16:288,2,52.4999984353781
32,352,107388,5,0
100,352,107626,1,0
172,352,107864,1,0
252,160,108102,2,0,B|208:120|160:168|160:264|252:292,1,210
252,160,109054,2,0,B|296:120|344:168|344:264|252:292,1,210
148,288,110007,2,0,B|404:116,1,262.499992176891
292,84,110721,2,0,B|408:112|408:112|396:240,1,245
320,288,111674,5,0
292,260,111912,1,0
264,236,112150,1,0
240,212,112388,1,0
212,188,112626,1,0
184,164,112864,1,0
156,136,113102,1,0
128,112,113340,1,0
104,88,113578,1,0
132,72,114054,5,0
104,56,114293,1,0
72,80,114531,1,0
88,116,114769,1,0
124,116,115007,1,0
132,72,115245,1,0
104,56,115483,1,0
72,80,115721,5,0
72,120,115959,1,0
68,160,116197,1,0
68,200,116435,1,0
68,240,116674,1,0
68,280,116912,1,0
68,320,117150,1,0
68,348,117388,1,0
100,336,117864,5,0
92,292,118102,1,0
52,292,118340,1,0
40,332,118578,1,0
68,348,118816,1,0
100,332,119054,1,0
92,292,119293,2,0,B|92:216,1,70
92,84,120007,6,0,B|152:84|152:84|208:152,1,140,0|0
420,84,120959,6,0,B|360:84|360:84|304:152,1,140,0|0
272,208,121674,1,0
224,264,121912,1,0
168,320,122150,2,0,B|104:320|104:320|32:360,1,140
100,188,123102,1,0
168,188,123340,1,0
168,188,123578,1,0
232,188,123816,1,0
232,188,124054,1,0
300,188,124293,6,0,B|376:188,3,70
428,188,125245,1,0
488,188,125483,1,0
488,188,125721,1,0
488,188,125959,2,0,B|488:108,1,70
311,192,127150,5,0
372,192,127626,1,0
435,192,128102,1,0
497,192,128578,1,0
256,192,129054,12,0,130245
48,320,130483,5,0
48,320,130721,1,0
120,320,130959,2,0,B|268:320,2,140
252,320,132388,1,0
252,320,132626,1,0
312,320,133102,2,0,B|464:320,1,140
456,260,133816,1,0
456,260,134054,1,0
456,192,134293,2,0,B|456:104,1,70
464,56,134769,2,0,B|256:56,2,140
460,128,136197,5,0
456,192,136435,1,0
456,256,136674,2,0,B|456:392,3,70
456,384,137626,1,0
456,384,137864,1,0
384,384,138102,1,0
312,384,138340,1,0
236,380,138578,2,0,B|156:380,4,70
96,372,140007,1,0
28,372,140245,1,0
28,304,140721,6,0,B|28:232,2,70
28,372,141435,1,0
28,372,141674,1,0
104,372,141912,2,0,B|176:372,1,70
40,148,161674,5,0
56,136,161912,1,0
72,124,162150,1,0
88,112,162388,1,0
104,100,162626,1,0
120,116,162864,5,0
140,140,163102,1,0
156,164,163340,1,0
172,188,163578,1,0
188,212,163816,1,0
216,292,164054,2,0,B|300:292,1,70
348,292,164531,1,0
412,292,164769,1,0
480,292,165007,1,0
472,148,165483,5,0
456,136,165721,1,0
440,124,165959,1,0
424,112,166197,1,0
408,100,166435,1,0
392,116,166674,5,0
372,140,166912,1,0
356,164,167150,1,0
340,188,167388,1,0
324,212,167626,1,0
296,292,167864,2,0,B|212:292,1,70
164,292,168340,1,0
100,292,168578,1,0
32,292,168816,1,0
180,68,169293,5,0
256,152,169531,1,0
332,68,169769,1,0
256,152,170007,1,0
256,232,170245,1,0
180,316,170483,1,0
256,232,170721,1,0
332,316,170959,1,0
256,232,171197,1,0
256,152,171435,1,0
256,192,171554,12,0,172744
180,316,172864,5,0
256,232,173102,1,0
332,316,173340,1,0
256,232,173578,1,0
256,152,173816,1,0
180,68,174054,1,0
256,152,174293,1,0
332,68,174531,1,0
256,152,174769,1,0
256,232,175007,1,0
256,192,175245,12,0,177031
76,84,177150,6,0,L|96:112|156:128,1,70
156,52,177507,2,0,L|190:61|210:89,2,70
76,84,177983,2,0,L|96:112|156:128,1,70
129,122,178340,2,0,L|164:132|184:160,1,70
136,208,178697,2,0,L|156:236|191:246,2,70
129,122,179174,2,0,L|164:132|184:160,1,70
184,160,179412,2,0,L|204:188|264:204,1,70
240,196,179769,1,0
240,196,180007,1,0
272,128,180364,6,0,L|306:137|326:165,2,70
184,160,180840,2,0,L|204:188|264:204,1,70
237,198,181197,2,0,L|272:208|292:236,1,70
244,288,181554,2,0,L|264:316|299:326,2,70
237,198,182031,2,0,L|272:208|292:236,1,70
292,236,182388,2,0,L|312:264|372:280,1,70
364,208,182745,2,0,L|398:217|418:245,2,70
292,236,183221,2,0,L|312:264|372:280,1,70
348,272,183578,1,0
348,272,183697,1,0
436,84,184769,6,0,L|416:112|356:128,1,70
356,52,185126,2,0,L|322:61|302:89,2,70
436,84,185602,2,0,L|416:112|356:128,1,70
383,122,185959,2,0,L|348:132|328:160,1,70
376,208,186316,2,0,L|356:236|321:246,2,70
383,122,186793,2,0,L|348:132|328:160,1,70
328,160,187031,2,0,L|308:188|248:204,1,70
272,200,187388,1,0
276,200,187507,1,0
240,128,187864,6,0,L|206:137|186:165,2,70
328,160,188340,2,0,L|308:188|248:204,1,70
275,198,188697,2,0,L|240:208|220:236,1,70
268,288,189054,2,0,L|248:316|213:326,2,70
275,198,189531,2,0,L|240:208|220:236,1,70
220,236,189888,2,0,L|200:264|140:280,1,70
148,208,190245,2,0,L|114:217|94:245,2,70
164,272,191078,1,0
164,272,191197,1,0
220,236,190721,2,0,L|200:264|140:280,1,70
