osu file format v5

[General]
AudioFilename: war rock dance remix song.mp3
AudioLeadIn: 0
PreviewTime: -1
Countdown: 1
SampleSet: Normal
StackLeniency: 0.7
Mode: 0
LetterboxInBreaks: 1

[Metadata]
Title:Warrock Song
Artist:Some Guy
Creator:DarkPanny
Version:Hard
Source:Game
Tags:

[Difficulty]
HPDrainRate:5
CircleSize:5
OverallDifficulty:5
SliderMultiplier:1.4
SliderTickRate:1

[Events]
//Background and Video events
//Break Periods
2,68799,75534
2,94300,98841
//Storyboard Layer 0 (Background)
//Storyboard Layer 1 (Failing)
//Storyboard Layer 2 (Passing)
//Storyboard Layer 3 (Foreground)
//Storyboard Sound Samples
//Background Colour Transformations
3,100,163,162,255

[TimingPoints]
1420,365.6031216745,4,1,0,100,1

[HitObjects]
132,148,871,1,0
193,124,2791,1,0
244,115,2973,1,0
309,119,4619,1,0
359,115,4893,1,0
168,220,6538,1,0
239,215,6721,1,0
248,89,8457,1,0
299,80,8640,1,0
344,132,9463,1,0
311,223,10468,1,0
169,246,11474,1,0
116,156,12479,1,0
150,87,13393,1,0
257,91,14307,1,0
296,88,14764,1,0
344,88,15312,1,0
328,212,16226,1,0
245,234,16592,1,0
153,225,16958,1,0
136,132,18054,1,0
185,86,18420,1,0
257,68,18786,1,0
391,103,19243,1,0
391,103,19517,1,0
289,222,19974,1,0
197,224,20339,1,0
114,217,20705,1,0
113,66,21162,1,0
201,46,21436,1,0
310,80,22076,1,0
361,96,22350,1,0
383,129,22624,1,0
156,232,23813,1,0
120,186,24270,1,0
113,120,24727,1,0
191,68,25641,1,0
273,62,26098,1,0
353,65,26555,1,0
307,235,27469,1,0
228,252,27834,1,0
148,243,27926,1,0
119,224,28109,1,0
88,152,28291,1,0
108,60,28474,1,0
267,90,29114,1,0
291,102,29388,1,0
299,189,29662,1,0
299,189,29845,1,0
408,200,30028,1,0
427,111,30302,1,0
177,98,31399,5,0
148,136,31582,1,0
148,136,31765,1,0
140,176,31947,1,0
206,214,32222,1,0
349,174,33227,1,0
340,127,33684,1,0
275,85,34141,1,0
104,78,35146,1,0
89,173,35603,1,0
189,221,36060,1,0
325,209,36792,1,0
380,160,36974,1,0
364,88,37340,1,0
336,60,37523,1,0
196,48,37706,1,0
162,72,37980,1,0
219,199,38894,1,0
281,151,39168,1,0
392,97,39808,1,0
285,48,40265,1,0
146,73,40722,1,0
301,212,41727,1,0
419,86,42733,1,0
388,56,44104,5,0
180,64,44561,1,0
64,123,45932,1,0
283,130,46480,1,0
43,167,47394,2,0,B|519:154,2,455
164,92,50959,1,0
353,115,52147,1,0
151,246,53061,1,0
258,224,54066,1,0
256,192,56626,12,0,59916
93,116,62018,1,0
188,134,63024,1,0
316,149,63938,1,0
340,98,64212,1,0
297,72,64486,1,0
211,64,64760,1,0
120,78,64943,1,0
76,155,65217,1,0
84,235,65400,1,0
192,292,65674,1,0
287,294,65857,1,0
394,260,66131,1,0
445,204,66405,1,0
242,143,67228,1,0
188,142,67685,1,0
174,106,68051,1,0
174,80,68416,1,0
174,80,68599,1,0
178,81,76734,5,0
270,80,77099,1,0
372,74,77465,1,0
360,147,78470,1,0
354,221,79019,1,0
269,259,79476,1,0
105,244,79750,1,0
93,87,80481,1,0
232,70,80938,1,0
296,90,81395,1,0
276,156,81852,1,0
183,208,82309,1,0
261,251,82766,1,0
355,216,83315,1,0
117,74,84229,1,0
502,47,84686,1,0
391,52,85234,5,0
327,97,85600,1,0
308,165,86057,1,0
232,216,86514,1,0
148,206,87062,1,0
69,180,87519,1,0
44,121,87976,1,0
70,72,88433,1,0
126,49,88890,1,0
234,43,89347,1,0
326,44,89804,1,0
382,76,90261,1,0
384,146,90718,1,0
319,192,91175,1,0
202,194,91632,1,0
102,172,92089,1,0
94,144,92546,1,0
130,112,93003,1,0
224,83,93643,1,0
305,82,94100,1,0
116,169,100041,1,0
276,140,100498,1,0
352,73,100772,1,0
335,108,101046,1,0
158,149,101960,1,0
179,40,102417,1,0
307,63,102600,1,0
311,168,102874,1,0
390,61,103788,5,0
208,60,104337,1,0
111,66,104520,1,0
43,148,104794,1,0
211,281,105708,1,0
224,204,106165,1,0
240,154,106439,1,0
262,92,106713,1,0
338,80,106896,1,0
360,145,107353,1,0
315,228,107810,1,0
147,237,108358,1,0
57,187,108815,1,0
54,109,108998,1,0
59,63,109272,1,0
162,45,109729,1,0
281,62,110186,1,0
372,144,110643,1,0
328,211,110826,1,0
252,244,111100,1,0
190,254,111375,1,0
102,246,111557,1,0
57,219,111832,1,0
44,179,112106,1,0
46,143,112289,1,0
67,116,112471,1,0
100,100,112654,1,0
193,87,112837,1,0
193,87,112928,1,0
274,84,113020,1,0
274,84,113203,1,0
300,90,113385,1,0
286,161,113751,1,0
223,188,113934,1,0
122,216,114117,1,0
144,291,114482,1,0
344,282,114939,1,0
404,175,115396,1,0
274,84,115853,1,0
240,153,116767,5,0
128,165,116950,1,0
110,68,117498,1,0
283,74,117681,1,0
348,163,117955,1,0
314,250,118138,1,0
124,304,118870,1,0
408,209,119418,1,0
314,148,119692,1,0
139,118,119875,1,0
244,292,120880,1,0
402,161,121337,1,0
211,119,121612,1,0
112,116,121794,1,0
297,281,122708,1,0
384,120,123165,1,0
207,84,123348,1,0
105,181,123897,1,0
312,267,124628,1,0
328,81,125085,1,0
206,80,125268,1,0
83,137,125542,1,0
350,206,126456,1,0
324,156,126547,1,0
172,132,126913,1,0
172,132,127187,1,0
172,132,127461,1,0
335,115,127644,1,0
303,196,128101,1,0
182,268,128649,1,0
182,268,128741,1,0
182,268,128924,1,0
182,268,129015,1,0
182,268,129381,1,0
312,103,130934,5,0
274,275,136875,1,0
236,232,137241,1,0
219,194,137789,1,0
216,153,138246,1,0
216,111,138612,1,0
228,74,139160,1,0
310,68,139617,1,0
356,124,140074,1,0
335,187,140440,1,0
204,256,140806,1,0
105,255,141080,1,0
105,119,141537,1,0
105,119,141811,1,0
105,119,141994,1,0
105,119,142177,1,0
105,119,142451,1,0
239,189,144827,1,0
