osu file format v13

[General]
AudioFilename: 03. Renatus - Soleily 192kbps.mp3
AudioLeadIn: 0
PreviewTime: 164481
Countdown: 0
SampleSet: None
StackLeniency: 0.7
Mode: 2
LetterboxInBreaks: 0
WidescreenStoryboard: 1

[Editor]
Bookmarks: 966,11515,22064,32614,43163,53713,64262,74812,85361,95911,106460,117009,119647,127559,227777
DistanceSpacing: 1.2
BeatDivisor: 4
GridSize: 4
TimelineZoom: 2.2

[Metadata]
Title:Renatus
TitleUnicode:Renatus
Artist:Soleily
ArtistUnicode:Soleily
Creator:Last Bubble
Version:Platter
Source:
Tags:Unisphere 宇宙ヤバイEP
BeatmapID:539032
BeatmapSetID:232107

[Difficulty]
HPDrainRate:6
CircleSize:3.5
OverallDifficulty:7.6
ApproachRate:7.6
SliderMultiplier:1.6
SliderTickRate:2

[Events]
//Background and Video events
0,0,"machinetop_background.jpg",0,0
//Break Periods
2,56550,74002
2,91825,118837
2,119847,137298
2,140616,163671
2,175065,203231
//Storyboard Layer 0 (Background)
//Storyboard Layer 1 (Fail)
//Storyboard Layer 2 (Pass)
//Storyboard Layer 3 (Foreground)
//Storyboard Sound Samples
//Background Colour Transformations
3,100,163,162,255

[TimingPoints]
966,329.67032967033,4,2,0,40,1,0
53713,-100,4,2,0,40,0,1
53795,-100,4,2,0,40,0,0
95911,-83.3333333333333,4,1,0,60,0,1
119647,659.340659340659,4,1,0,60,1,0
119811,-100,4,2,0,40,0,0
140745,-100,4,1,0,40,0,0
161844,329.67032967033,4,1,0,60,1,0
206679,659.340659340659,4,1,0,60,1,0

[Colours]
Combo1 : 128,128,128
Combo2 : 255,255,255

[HitObjects]
128,336,966,5,0,0:0:0:0:
64,240,1130,1,0,0:0:0:0:
168,136,1295,1,0,0:0:0:0:
288,212,1460,2,0,P|376:224|440:184,2,160,0|0|0,0:0|0:0|0:0,0:0:0:0:
204,144,2284,6,0,P|125:154|51:127,1,160
152,52,2779,1,0,0:0:0:0:
280,84,2944,1,0,0:0:0:0:
168,176,3108,1,0,0:0:0:0:
304,204,3273,1,0,0:0:0:0:
432,224,3603,6,0,L|472:296,1,80
304,216,3933,2,0,L|344:288,1,80,2|0,0:0|0:0,0:0:0:0:
192,168,4262,2,0,L|168:88,2,80,0|0|2,0:0|0:0|0:0,0:0:0:0:
89,314,4922,6,0,L|14:277,1,80
84,212,5251,2,0,L|155:247,1,80
244,264,5581,2,0,L|268:176,1,80
368,176,5911,2,0,L|344:88,1,80
240,112,6240,6,0,L|200:40,1,80
96,64,6569,2,0,L|136:136,1,80
208,296,6900,2,0,L|128:296,1,80,0|0,0:0|0:0,0:0:0:0:
204,180,7229,2,0,L|284:180,1,80,0|0,0:0|0:0,0:0:0:0:
384,96,7559,6,0,L|464:104,3,80,0|0|0|0,0:0|0:0|0:0|0:0,0:0:0:0:
384,184,8218,1,0,0:0:0:0:
344,256,8383,1,0,0:0:0:0:
256,288,8548,1,0,0:0:0:0:
168,212,8713,1,0,0:0:0:0:
128,104,8878,6,0,L|48:112,3,80,0|0|0|0,0:0|0:0|0:0|0:0,0:0:0:0:
128,184,9537,1,0,0:0:0:0:
168,256,9702,1,0,0:0:0:0:
256,288,9867,1,0,0:0:0:0:
368,184,10031,1,0,0:0:0:0:
312,48,10196,6,0,L|232:48,1,80
188,160,10526,2,0,L|268:160,1,80
152,256,10856,1,0,0:0:0:0:
80,184,11020,1,0,0:0:0:0:
104,80,11185,1,0,0:0:0:0:
216,32,11350,1,0,0:0:0:0:
416,304,11515,5,6,0:0:0:0:
456,192,11680,1,0,0:0:0:0:
368,128,11845,1,0,0:0:0:0:
280,64,12009,2,0,P|368:80|432:48,1,160
327,97,12504,2,0,L|312:176,1,80
192,336,12834,6,0,L|176:256,2,80,0|0|0,0:0|0:0|0:0,0:0:0:0:
224,160,13328,2,0,L|64:160,1,160
344,160,13823,1,0,0:0:0:0:
320,336,14152,6,0,L|336:256,2,80,0|0|0,0:0|0:0|0:0,0:0:0:0:
288,160,14646,2,0,L|448:160,1,160
168,160,15141,1,0,0:0:0:0:
328,328,15471,2,0,P|408:312|488:336,1,160
184,328,15966,2,0,L|176:240,2,80,0|0|0,0:0|0:0|0:0,0:0:0:0:
304,344,16461,1,0,0:0:0:0:
184,328,16790,6,0,P|104:312|24:336,1,160
328,328,17285,2,0,L|336:240,2,80,0|0|0,0:0|0:0|0:0,0:0:0:0:
208,344,17779,1,0,0:0:0:0:
87,319,18108,6,0,P|63:245|92:172,1,160
176,120,18603,2,0,P|188:157|187:197,1,80
32,252,18933,2,0,P|19:214|20:174,1,80
424,319,19427,6,0,P|448:245|419:172,1,160
335,120,19922,2,0,P|323:157|324:197,1,80
480,252,20252,2,0,P|492:214|491:174,1,80
404,124,20581,1,0,0:0:0:0:
304,72,20746,5,0,0:0:0:0:
276,80,20828,1,0,0:0:0:0:
248,88,20911,1,0,0:0:0:0:
220,96,20993,1,0,0:0:0:0:
192,104,21075,1,0,0:0:0:0:
164,112,21158,1,0,0:0:0:0:
136,120,21240,1,0,0:0:0:0:
108,128,21323,1,0,0:0:0:0:
80,136,21405,6,0,L|64:188,7,40,0|0|0|0|0|0|0|0,0:0|0:0|0:0|0:0|0:0|0:0|0:0|0:0,0:0:0:0:
116,164,22064,6,0,P|129:201|120:239,1,80
32,316,22394,1,0,0:0:0:0:
312,272,22559,2,0,P|383:303|458:280,2,160,0|0|0,0:0|0:0|0:0,0:0:0:0:
392,84,23383,6,0,P|403:121|398:161,1,80
300,260,23713,2,0,P|288:222|293:182,1,80
392,212,24042,1,0,0:0:0:0:
280,296,24207,1,0,0:0:0:0:
252,160,24372,1,0,0:0:0:0:
300,260,24537,1,0,0:0:0:0:
396,340,24702,6,0,P|420:304|420:260,1,80
492,208,25031,1,0,0:0:0:0:
187,284,25196,2,0,P|116:312|51:270,2,160,0|0|0,0:0|0:0|0:0,0:0:0:0:
116,340,26020,6,0,P|92:304|92:260,1,80
120,212,26349,1,0,0:0:0:0:
324,284,26514,2,0,P|395:312|460:270,2,160,0|0|0,0:0|0:0|0:0,0:0:0:0:
420,80,27339,6,0,P|432:117|425:156,1,80
336,332,27669,2,0,P|323:294|330:255,1,80
287,163,27998,2,0,P|251:149|211:151,1,80
360,236,28328,2,0,P|396:250|436:248,1,80
92,80,28658,6,0,P|79:117|86:156,1,80
176,332,28988,2,0,P|188:294|181:255,1,80
224,164,29317,1,0,0:0:0:0:
312,88,29482,1,0,0:0:0:0:
191,88,29647,1,0,0:0:0:0:
70,88,29812,1,0,0:0:0:0:
136,192,29976,6,0,P|189:249|267:261,1,160
375,191,30471,2,0,P|322:134|244:122,1,160,0|0,0:0|0:0,0:0:0:0:
144,140,30966,2,0,L|60:156,1,80,0|0,0:0|0:0,0:0:0:0:
360,328,31295,5,0,0:0:0:0:
456,280,31460,1,0,0:0:0:0:
380,228,31625,1,0,0:0:0:0:
380,228,31790,2,0,P|400:156|376:76,1,160
288,32,32284,2,0,P|280:80|296:128,1,80
352,196,32614,6,0,P|400:204|448:188,1,80,0|0,0:0|0:0,0:0:0:0:
488,104,32944,1,0,0:0:0:0:
228,116,33108,2,0,L|282:266,2,160,0|0|0,0:0|0:0|0:0,0:0:0:0:
136,72,33933,6,0,P|97:63|58:70,1,80
16,256,34262,2,0,P|55:265|94:258,1,80
216,168,34592,1,0,0:0:0:0:
284,80,34757,2,0,L|336:140,1,80
312,248,35086,1,0,0:0:0:0:
224,264,35251,6,0,P|222:304|238:341,1,80
352,364,35580,1,0,0:0:0:0:
120,312,35746,2,0,P|60:248|56:176,2,160,0|0|0,0:0|0:0|0:0,0:0:0:0:
288,264,36570,6,0,P|290:304|274:341,1,80
160,364,36899,1,0,0:0:0:0:
392,312,37065,2,0,P|452:248|456:176,2,160,0|0|0,0:0|0:0|0:0,0:0:0:0:
291,340,37889,6,0,P|254:352|216:340,1,80
256,248,38218,2,0,P|293:235|331:247,1,80
240,44,38548,1,0,0:0:0:0:
128,84,38713,1,0,0:0:0:0:
56,208,38878,1,0,0:0:0:0:
132,308,39042,1,0,0:0:0:0:
220,340,39207,6,0,P|257:352|295:340,1,80
256,248,39536,2,0,P|218:235|180:247,1,80
272,44,39866,1,0,0:0:0:0:
384,84,40031,1,0,0:0:0:0:
456,208,40196,1,0,0:0:0:0:
380,308,40360,1,0,0:0:0:0:
240,300,40526,6,0,L|416:284,1,160
456,212,41020,2,0,L|280:196,1,160
240,300,41515,2,0,L|416:284,1,160
480,276,42009,1,0,0:0:0:0:
312,212,42339,1,0,0:0:0:0:
480,276,42669,1,0,0:0:0:0:
400,288,42834,1,0,0:0:0:0:
320,296,42998,1,0,0:0:0:0:
248,304,43163,6,0,P|171:323|98:296,1,160
53,191,43658,2,0,P|130:172|204:200,1,160
248,304,44152,1,0,0:0:0:0:
348,244,44482,6,0,L|352:164,1,80
468,172,44812,2,0,L|464:92,1,80
344,88,45141,1,0,0:0:0:0:
244,60,45306,1,0,0:0:0:0:
344,88,45471,1,0,0:0:0:0:
164,244,45801,6,0,L|160:164,1,80
44,172,46131,2,0,L|48:92,1,80
168,88,46460,1,0,0:0:0:0:
268,60,46625,1,0,0:0:0:0:
168,88,46790,1,0,0:0:0:0:
328,312,47119,6,0,L|412:300,1,80
292,200,47449,2,0,L|376:188,1,80
260,88,47779,1,0,0:0:0:0:
148,104,47944,1,0,0:0:0:0:
36,120,48108,1,0,0:0:0:0:
120,212,48438,6,0,L|132:308,3,80,0|0|0|0,0:0|0:0|0:0|0:0,0:0:0:0:
208,355,49097,2,0,P|225:320|229:280,1,80
120,212,49427,2,0,P|102:247|98:287,1,80
352,336,49757,6,0,P|408:340|436:328,1,80
468,220,50086,2,0,P|412:216|384:228,1,80
312,192,50416,1,0,0:0:0:0:
268,120,50581,1,0,0:0:0:0:
308,40,50746,1,0,0:0:0:0:
388,4,50911,1,0,0:0:0:0:
112,32,51075,6,0,L|92:112,3,80,0|0|0|0,0:0|0:0|0:0|0:0,0:0:0:0:
168,220,51735,2,0,P|206:228|245:217,1,80
200,140,52064,2,0,P|238:129|276:138,1,80
344,88,52394,5,0,0:0:0:0:
420,136,52559,1,0,0:0:0:0:
464,220,52724,1,0,0:0:0:0:
416,300,52889,1,0,0:0:0:0:
340,336,53053,1,0,0:0:0:0:
256,296,53218,1,0,0:0:0:0:
208,216,53383,2,0,L|216:168,3,40,0|0|0|0,0:0|0:0|0:0|0:0,0:0:0:0:
204,240,53713,5,0,0:0:0:0:
88,204,53878,1,0,0:0:0:0:
388,80,54042,2,0,P|424:168|408:216,1,120
404,208,54372,2,0,P|365:216|326:208,1,80
280,108,54702,2,0,P|318:99|357:107,1,80
424,192,55031,5,0,0:0:0:0:
460,280,55196,1,0,0:0:0:0:
388,344,55361,1,0,0:0:0:0:
292,344,55526,1,0,0:0:0:0:
224,276,55691,2,0,L|212:192,1,80
432,176,56020,2,0,L|444:92,1,80
408,188,56350,5,0,0:0:0:0:
216,276,74812,6,0,B|263:226|319:270|319:270|375:314|432:272,2,240,0|0|0,0:0|0:0|0:0,0:0:0:0:
216,276,80086,6,0,B|263:226|319:270|319:270|375:314|432:272,2,240,0|0|0,0:0|0:0|0:0,0:0:0:0:
216,276,85361,6,0,B|263:226|319:270|319:270|375:314|432:272,2,240,0|0|0,0:0|0:0|0:0,0:0:0:0:
216,276,90636,6,0,B|263:226|319:270|319:270|375:314|432:272,2,240,0|0|0,0:0|0:0|0:0,0:0:0:0:
256,192,119647,5,4,0:0:0:0:
256,192,138108,12,0,140416,0:0:0:0:
160,328,164481,6,0,P|104:336|72:324,1,80
44,240,164811,2,0,P|100:232|132:244,1,80
408,336,165140,2,0,P|432:244|408:184,1,160
296,48,165800,2,0,L|216:48,2,80,0|0|0,0:0|0:0|0:0,0:0:0:0:
168,108,166294,2,0,P|97:191|172:271,1,240
352,328,167118,6,0,P|408:336|440:324,1,80
468,240,167448,2,0,P|412:232|380:244,1,80
104,336,167777,2,0,P|80:244|104:184,1,160
216,48,168437,2,0,L|296:48,2,80,0|0|0,0:0|0:0|0:0,0:0:0:0:
344,108,168931,2,0,P|415:191|340:271,1,240
336,356,169756,6,0,L|340:272,1,80
444,216,170085,2,0,L|448:132,1,80
200,308,170415,2,0,P|123:328|52:291,1,160
268,183,171074,2,0,L|348:176,1,80
180,108,171404,1,0,0:0:0:0:
256,24,171569,2,0,P|327:108|255:192,1,240
176,356,172393,6,0,L|172:272,1,80
68,216,172722,2,0,L|64:132,1,80
312,308,173052,2,0,P|388:328|459:291,1,160
243,183,173711,2,0,L|164:176,1,80
332,108,174041,1,0,0:0:0:0:
228,64,174206,2,0,P|304:84|375:47,1,160
136,116,174701,2,0,L|124:32,1,80
416,344,204041,6,0,L|428:264,1,80
312,220,204371,2,0,L|312:136,1,80
208,124,204701,2,0,L|196:44,1,80
360,144,205030,2,0,L|372:64,1,80
248,228,205360,6,0,L|160:228,1,80
240,328,205690,2,0,L|328:328,1,80
396,272,206019,2,0,L|440:192,1,80
116,272,206349,2,0,L|72:192,2,80,0|0|4,0:0|0:0|0:0,0:0:0:0:
