osu file format v14

[General]
AudioFilename: 03. Renatus - Soleily 192kbps.mp3
AudioLeadIn: 0
PreviewTime: 164471
Countdown: 0
SampleSet: Soft
StackLeniency: 0.7
Mode: 0
LetterboxInBreaks: 0
WidescreenStoryboard: 0

[Editor]
Bookmarks: 956,11505,22054,32604,43153,53703,64252,74802,85351,95901,106450,116999,119637,130186,140735,151285,161834,164471,175020,185570,196119,206669,209306
DistanceSpacing: 1.2
BeatDivisor: 4
GridSize: 4
TimelineZoom: 1

[Metadata]
Title:Renatus
TitleUnicode:Renatus
Artist:Soleily
ArtistUnicode:Soleily
Creator:Gamu
Version:Hard
Source:
Tags:MBC7 Unisphere 地球ヤバイEP Chikyu Yabai
BeatmapID:557814
BeatmapSetID:241526

[Difficulty]
HPDrainRate:6
CircleSize:4
OverallDifficulty:6
ApproachRate:7.5
SliderMultiplier:1.4
SliderTickRate:2

[Events]
//Background and Video events
0,0,"machinetop_background.jpg",0,0
//Break Periods
2,122474,139910
//Storyboard Layer 0 (Background)
//Storyboard Layer 1 (Fail)
//Storyboard Layer 2 (Pass)
//Storyboard Layer 3 (Foreground)
//Storyboard Sound Samples

[TimingPoints]
956,329.67032967033,4,2,0,60,1,0
20736,-100,4,2,0,65,0,0
22054,-100,4,2,0,70,0,0
43153,-100,4,2,0,60,0,0
48428,-100,4,2,0,50,0,0
53373,-100,4,2,0,60,0,0
53703,-100,4,2,0,70,0,1
74719,-100,4,2,0,70,0,0
74802,-100,4,2,0,70,0,1
95901,-100,4,2,0,70,0,0
116999,-100,4,2,0,50,0,0
118977,-100,4,2,0,60,0,0
119307,-100,4,2,0,70,0,0
119637,659.340659340659,4,2,0,80,1,0
119966,-100,4,2,0,70,0,0
120296,-100,4,2,0,60,0,0
120626,-100,4,2,0,50,0,0
120955,-100,4,2,0,40,0,0
121285,-100,4,2,0,30,0,0
121615,-100,4,2,0,20,0,0
121944,-100,4,2,0,10,0,0
122274,-100,4,2,0,5,0,0
140735,-100,4,2,0,50,0,0
151285,-80,4,2,0,60,0,0
161834,329.67032967033,4,2,0,65,1,0
164141,-100,4,2,0,70,0,0
164471,-100,4,2,0,70,0,1
185487,-100,4,2,0,70,0,0
185570,-100,4,2,0,70,0,1
206669,659.340659340659,4,2,0,80,1,0
206998,-100,4,2,0,70,0,0
207328,-100,4,2,0,60,0,0
207658,-100,4,2,0,50,0,0
207987,-100,4,2,0,40,0,0
208317,-100,4,2,0,30,0,0
208647,-100,4,2,0,20,0,0
208976,-100,4,2,0,10,0,0
209306,-100,4,2,0,5,0,0

[Colours]
Combo1 : 142,199,255
Combo2 : 255,128,128
Combo3 : 128,255,255
Combo4 : 128,255,128
Combo5 : 255,187,255
Combo6 : 255,177,140

[HitObjects]
112,148,956,6,0,P|144:140|184:144,1,70,4|0,1:2|0:0,0:0:0:0:
248,192,1285,1,8,0:0:0:0:
256,108,1450,2,0,L|253:33,1,70,2|0,0:0|0:0,0:0:0:0:
332,64,1780,2,0,L|335:133,1,70,2|8,1:2|0:0,0:0:0:0:
340,216,2109,1,2,0:0:0:0:
340,216,2274,6,0,P|384:232|468:192,1,140,0|8,1:0|0:0,0:0:0:0:
468,292,2769,2,0,P|436:304|316:292,1,140,0|0,1:0|1:0,0:0:0:0:
264,252,3263,2,0,P|250:286|254:327,1,70,8|0,0:0|0:0,0:0:0:0:
168,304,3593,6,0,P|176:244|224:178,1,140,0|8,1:0|0:0,0:0:0:0:
280,124,4087,2,0,P|282:89|270:56,1,70,0|0,0:0|0:0,0:0:0:0:
196,20,4417,1,0,1:0:0:0:
144,84,4582,2,0,P|108:88|68:80,1,70,8|0,0:0|0:0,0:0:0:0:
16,144,4912,6,0,P|36:204|24:280,1,140,0|8,1:0|0:0,0:0:0:0:
80,340,5406,2,0,P|140:320|216:332,1,140,0|0,1:0|1:0,0:0:0:0:
256,260,5901,2,0,P|252:225|260:191,1,70,8|0,0:0|0:0,0:0:0:0:
336,232,6230,6,0,L|184:220,1,140,0|8,1:0|0:0,0:0:0:0:
112,216,6725,2,0,P|80:224|40:220,1,70,0|0,0:0|0:0,0:0:0:0:
16,144,7054,1,0,1:0:0:0:
48,68,7219,2,0,P|80:60|116:64,1,70,8|0,0:0|0:0,0:0:0:0:
188,108,7549,6,0,P|253:127|313:95,1,140,0|8,1:0|0:0,0:0:0:0:
392,60,8043,2,0,P|397:94|391:129,1,70,0|0,1:0|0:0,0:0:0:0:
356,204,8373,1,0,1:0:0:0:
288,256,8538,2,0,P|254:261|219:255,1,70,8|0,0:0|0:0,0:0:0:0:
152,208,8868,6,0,P|139:274|181:328,1,140,0|8,1:0|0:0,0:0:0:0:
264,348,9362,2,0,P|300:348|336:336,1,70,0|0,0:0|0:0,0:0:0:0:
396,280,9692,1,0,1:0:0:0:
356,204,9857,2,0,L|364:128,1,70,8|0,0:0|0:0,0:0:0:0:
296,84,10186,6,0,L|278:224,1,140,0|8,1:0|0:0,0:0:0:0:
212,276,10681,2,0,P|179:283|139:281,1,70,0|0,1:0|0:0,0:0:0:0:
84,220,11010,1,0,1:0:0:0:
168,200,11175,2,0,L|208:192,2,35,8|8|0,0:0|0:0|1:0,0:0:0:0:
12,176,11505,6,0,L|20:104,1,70,4|2,1:2|0:0,0:0:0:0:
100,76,11835,2,0,L|107:6,1,70,10|2,0:0|0:0,0:0:0:0:
12,260,12329,2,0,P|8:296|16:336,2,70,2|10|2,1:2|0:0|0:0,0:0:0:0:
84,220,12824,6,0,P|152:212|216:240,1,140,0|8,1:0|0:0,0:0:0:0:
268,304,13318,2,0,L|340:300,1,70,0|0,1:0|0:0,0:0:0:0:
424,292,13648,1,0,1:0:0:0:
480,228,13813,2,0,P|484:192|472:152,1,70,8|0,0:0|0:0,0:0:0:0:
404,200,14142,6,0,P|396:140|448:80,1,140,0|8,1:0|0:0,0:0:0:0:
376,32,14637,2,0,P|312:48|236:40,1,140,0|0,0:0|1:0,0:0:0:0:
160,18,15131,2,0,L|168:88,1,70,8|0,0:0|0:0,0:0:0:0:
228,144,15461,6,0,P|172:172|104:140,1,140,0|8,1:0|0:0,0:0:0:0:
8,248,15956,2,0,P|64:220|132:252,1,140,0|0,1:0|1:0,0:0:0:0:
192,308,16450,2,0,L|208:232,1,70,8|0,0:0|0:0,0:0:0:0:
228,145,16780,6,0,P|261:120|295:114,1,70,0|0,1:0|0:0,0:0:0:0:
372,120,17109,1,8,0:0:0:0:
392,204,17274,2,0,P|356:260|284:284,1,140,0|0,0:0|1:0,0:0:0:0:
224,228,17769,2,0,P|188:220|152:232,1,70,8|0,0:0|0:0,0:0:0:0:
192,308,18098,6,0,P|136:312|76:256,1,140,0|8,1:0|0:0,0:0:0:0:
52,176,18593,2,0,L|64:108,1,70,0|0,1:0|0:0,0:0:0:0:
112,40,18923,1,0,1:0:0:0:
176,96,19087,2,0,P|212:96|244:84,1,70,8|0,0:0|0:0,0:0:0:0:
308,28,19417,6,0,P|376:20|428:68,1,140,0|8,1:0|0:0,0:0:0:0:
352,96,19912,2,0,P|403:140|470:132,1,140,0|0,0:0|1:0,0:0:0:0:
488,216,20406,2,0,L|480:288,1,70,8|0,0:0|0:0,0:0:0:0:
408,332,20736,6,0,L|364:340,3,35,0|0|0|0,1:0|0:0|0:0|0:0,0:0:0:0:
336,324,21065,2,0,L|292:332,3,35,2|0|0|0,0:3|0:0|1:0|0:0,0:0:0:0:
264,316,21395,2,0,L|220:324,3,35,0|0|0|0,0:0|0:0|1:0|0:0,0:0:0:0:
192,304,21725,2,0,L|148:312,3,35,0|0|2|0,0:0|0:0|0:3|0:0,0:0:0:0:
120,292,22054,6,0,P|112:256|116:224,1,70,4|0,1:2|0:0,0:0:0:0:
148,144,22384,1,8,0:0:0:0:
224,180,22549,2,0,P|258:184|292:176,1,70,2|0,0:0|0:0,0:0:0:0:
352,116,22879,2,0,P|386:111|420:119,1,70,2|8,1:2|0:0,0:0:0:0:
464,192,23208,1,2,0:0:0:0:
432,272,23373,6,0,P|466:277|500:269,2,70,0|0|8,1:0|0:0|0:0,0:0:0:0:
348,284,23868,2,0,L|341:353,1,70,0|0,1:0|0:0,0:0:0:0:
260,328,24197,2,0,L|267:259,2,70,2|8|0,1:2|0:0|0:0,0:0:0:0:
180,352,24692,6,0,P|114:315|97:253,1,140,2|8,1:2|0:0,0:0:0:0:
180,268,25186,2,0,L|164:200,1,70,2|0,0:0|0:0,0:0:0:0:
84,168,25516,2,0,L|100:100,1,70,2|8,1:2|0:0,0:0:0:0:
152,32,25846,2,0,P|185:24|220:27,1,70,2|0,0:0|1:0,0:0:0:0:
256,104,26175,5,2,0:0:0:0:
328,61,26340,1,8,0:0:0:0:
408,36,26505,2,0,P|441:42|471:60,1,70,2|0,1:2|0:0,0:0:0:0:
508,136,26835,2,0,P|516:172|512:208,2,70,2|10|2,1:2|0:0|0:0,0:0:0:0:
432,176,27329,6,0,L|362:172,1,70,0|0,1:0|0:0,0:0:0:0:
280,192,27659,1,8,0:0:0:0:
304,272,27824,2,0,P|288:300|256:325,1,70,2|0,0:0|0:0,0:0:0:0:
220,248,28153,2,0,P|188:239|148:243,1,70,2|8,1:2|0:0,0:0:0:0:
96,308,28483,2,0,P|64:316|24:312,1,70,2|0,0:0|1:0,0:0:0:0:
8,232,28813,5,2,0:0:0:0:
24,152,28977,1,8,0:0:0:0:
80,88,29142,2,0,P|112:80|152:84,1,70,2|0,1:2|0:0,0:0:0:0:
188,156,29472,2,0,P|156:164|116:160,2,70,2|10|2,1:2|0:0|0:0,0:0:0:0:
256,108,29966,6,0,P|268:175|227:230,1,140,2|10,1:2|0:0,0:0:0:0:
144,244,30461,2,0,L|-4:236,1,140,2|2,0:0|1:2,0:0:0:0:
28,320,30956,2,0,L|104:324,1,70,8|0,0:0|0:0,0:0:0:0:
216,328,31285,5,2,1:2:0:0:
216,328,31368,1,0,1:0:0:0:
216,328,31450,2,0,L|224:256,1,70,2|0,1:2|1:0,0:0:0:0:
296,216,31780,2,0,P|300:250|320:278,1,70,2|0,1:2|0:0,0:0:0:0:
396,316,32109,1,2,1:2:0:0:
472,284,32274,2,0,L|516:288,2,35,2|0|2,1:2|1:0|1:2,0:0:0:0:
320,278,32604,6,0,L|312:348,2,70,4|0|8,1:2|0:0|0:0,0:0:0:0:
380,220,33098,2,0,L|371:150,1,70,2|0,0:0|0:0,0:0:0:0:
288,136,33428,2,0,L|279:66,1,70,2|8,1:2|0:0,0:0:0:0:
200,40,33758,2,0,P|168:48|128:44,1,70,2|0,0:0|1:0,0:0:0:0:
57,106,34087,6,0,L|48:36,2,70,0|8|0,0:0|0:0|1:0,0:0:0:0:
57,278,34747,2,0,L|48:348,2,70,2|8|0,1:2|0:0|0:0,0:0:0:0:
120,228,35241,6,0,P|186:209|244:252,1,140,2|8,1:2|0:0,0:0:0:0:
172,292,35736,2,0,P|172:328|184:364,1,70,2|0,0:0|0:0,0:0:0:0:
252,316,36065,2,0,P|277:341|311:358,1,70,2|8,1:2|0:0,0:0:0:0:
325,276,36395,2,0,P|360:275|396:264,1,70,2|0,0:0|1:0,0:0:0:0:
348,196,36725,6,0,P|373:170|390:136,2,70,0|8|2,0:0|0:0|1:2,0:0:0:0:
164,196,37384,2,0,P|138:170|121:136,2,70,2|10|2,1:2|0:0|0:0,0:0:0:0:
244,224,37879,5,0,1:0:0:0:
180,276,38043,2,0,L|188:348,1,70,0|8,0:0|0:0,0:0:0:0:
104,332,38373,2,0,L|96:262,1,70,2|0,0:0|0:0,0:0:0:0:
68,184,38703,2,0,P|32:176|-4:180,1,70,2|8,1:2|0:0,0:0:0:0:
36,96,39032,2,0,P|72:104|108:100,1,70,2|0,0:0|1:0,0:0:0:0:
172,48,39362,5,2,0:0:0:0:
256,32,39527,1,8,0:0:0:0:
340,48,39692,2,0,P|372:52|412:48,1,70,2|0,1:2|0:0,0:0:0:0:
464,112,40021,2,0,L|484:180,2,70,2|10|2,1:2|0:0|0:0,0:0:0:0:
384,136,40516,6,0,L|348:132,2,35,4|0|0,1:2|1:0|1:0,0:0:0:0:
412,216,40846,1,2,1:2:0:0:
332,200,41010,2,0,L|296:196,2,35,4|0|0,1:2|1:0|1:0,0:0:0:0:
360,280,41340,1,2,1:2:0:0:
280,264,41505,2,0,L|244:260,2,35,4|0|0,1:2|1:0|1:0,0:0:0:0:
308,344,41835,6,0,L|236:336,1,70,2|2,1:2|1:2,0:0:0:0:
156,324,42164,1,0,1:0:0:0:
72,312,42329,2,0,P|64:280|68:244,1,70,2|0,1:2|1:0,0:0:0:0:
120,176,42659,2,0,P|152:168|188:172,2,70,0|2|0,0:0|0:3|0:0,0:0:0:0:
76,104,43153,6,0,P|148:84|220:92,1,140,4|8,1:2|0:0,0:0:0:0:
280,140,43648,2,0,L|284:216,2,70,0|0|0,0:0|0:0|1:0,0:0:0:0:
344,88,44142,2,0,L|347:18,1,70,8|0,0:0|0:0,0:0:0:0:
420,64,44472,6,0,L|416:208,1,140,0|8,1:0|0:0,0:0:0:0:
400,288,44966,2,0,P|368:296|328:292,1,70,0|0,1:0|0:0,0:0:0:0:
256,256,45296,1,0,1:0:0:0:
180,292,45461,2,0,P|145:296|112:288,1,70,8|0,0:0|0:0,0:0:0:0:
52,228,45791,6,0,P|32:152|48:92,1,140,0|8,1:0|0:0,0:0:0:0:
128,120,46285,2,0,P|200:128|264:96,1,140,0|0,0:0|1:0,0:0:0:0:
324,48,46780,2,0,P|348:72|366:113,1,70,8|0,0:0|0:0,0:0:0:0:
384,184,47109,6,0,L|456:188,2,70,0|0|8,1:0|0:0|0:0,0:0:0:0:
308,220,47604,2,0,L|236:224,2,70,0|0|0,1:0|0:0|1:0,0:0:0:0:
376,268,48098,2,0,L|448:272,1,70,8|0,0:0|0:0,0:0:0:0:
300,308,48428,5,4,1:2:0:0:
459,128,48758,2,0,L|320:140,1,140,8|0,0:0|0:0,0:0:0:0:
260,84,49252,1,0,1:0:0:0:
240,164,49417,2,0,L|168:160,1,70,8|0,0:0|0:0,0:0:0:0:
96,116,49747,6,0,L|88:40,1,70,4|0,1:2|0:0,0:0:0:0:
16,88,50076,1,8,0:0:0:0:
28,172,50241,2,0,L|36:244,1,70,0|0,1:0|0:0,0:0:0:0:
80,312,50571,1,0,1:0:0:0:
160,292,50736,2,0,P|164:258|155:224,1,70,8|0,0:0|0:0,0:0:0:0:
240,164,51065,6,0,P|236:198|245:232,1,70,4|0,1:2|0:0,0:0:0:0:
288,304,51395,2,0,P|348:332|424:328,1,140,8|0,0:0|0:0,0:0:0:0:
496,292,51890,1,0,1:0:0:0:
496,292,51972,1,0,0:0:0:0:
496,292,52054,2,0,P|492:232|429:187,1,140,8|0,0:0|1:0,0:0:0:0:
431,187,52714,5,8,0:0:0:0:
364,236,52879,2,0,P|348:168|392:112,1,140,0|0,1:0|1:0,0:0:0:0:
360,36,53373,2,0,L|325:43,3,35,8|0|0|0,0:0|0:0|0:0|0:0,0:0:0:0:
284,56,53703,6,0,P|248:56|208:44,1,70,4|0,1:2|0:0,0:0:0:0:
136,16,54032,2,0,L|64:28,1,70,8|0,0:0|0:0,0:0:0:0:
88,108,54362,2,0,L|128:100,2,35,0|0|0,0:0|0:0|1:0,0:0:0:0:
24,164,54692,2,0,P|16:200|20:236,2,70,8|0|0,0:0|0:0|1:0,0:0:0:0:
100,204,55186,5,0,0:0:0:0:
100,204,55269,1,0,0:0:0:0:
100,204,55351,2,0,P|104:244|96:272,1,70,8|0,0:0|1:0,0:0:0:0:
176,244,55681,2,0,P|202:224|240:213,1,70,0|0,0:0|1:0,0:0:0:0:
288,280,56010,2,0,P|262:300|224:311,2,70,8|0|0,0:0|0:0|1:0,0:0:0:0:
316,200,56505,6,0,L|320:156,2,35,0|0|8,0:0|0:0|0:0,0:0:0:0:
368,264,56835,1,0,0:0:0:0:
448,280,56999,2,0,L|516:264,1,70,0|0,0:0|1:0,0:0:0:0:
480,188,57329,2,0,P|480:152|488:112,1,70,8|0,0:0|0:0,0:0:0:0:
436,48,57659,5,0,1:0:0:0:
356,28,57824,2,0,L|280:36,2,70,0|8|0,0:0|0:0|1:0,0:0:0:0:
336,108,58318,2,0,L|260:116,1,70,0|0,0:0|1:0,0:0:0:0:
184,128,58648,1,8,0:0:0:0:
165,210,58813,1,0,0:0:0:0:
218,275,58977,6,0,L|288:268,1,70,0|0,1:0|0:0,0:0:0:0:
264,348,59307,1,8,0:0:0:0:
264,348,59637,2,0,L|333:340,1,70,0|0,0:0|1:0,0:0:0:0:
416,320,59966,2,0,P|424:284|420:248,1,70,8|0,0:0|0:0,0:0:0:0:
368,184,60296,5,0,1:0:0:0:
296,228,60461,2,0,P|264:236|224:224,1,70,0|8,0:0|0:0,0:0:0:0:
264,148,60791,1,0,1:0:0:0:
264,148,60873,1,0,0:0:0:0:
264,148,60956,2,0,L|268:104,3,35,0|0|0|0,0:0|0:0|1:0|0:0,0:0:0:0:
308,100,61285,2,0,L|312:56,3,35,8|0|0|0,0:0|0:0|0:0|0:0,0:0:0:0:
352,52,61615,6,0,P|388:44|424:48,1,70,2|2,1:2|0:0,0:0:0:0:
480,108,61945,1,10,0:0:0:0:
496,192,62109,1,2,0:0:0:0:
496,192,62439,2,0,L|508:268,1,70,2|10,1:2|0:0,0:0:0:0:
432,300,62769,2,0,L|421:230,1,70,2|0,0:0|1:0,0:0:0:0:
376,160,63098,6,0,P|344:152|304:156,1,70,2|8,0:0|0:0,0:0:0:0:
336,236,63428,2,0,P|304:244|264:240,1,70,2|0,1:2|0:0,0:0:0:0:
192,204,63758,1,2,1:2:0:0:
132,148,63923,2,0,L|128:112,2,35,10|0|2,1:2|1:0|1:2,0:0:0:0:
114,230,64252,6,0,P|78:234|46:222,1,70,4|0,1:2|0:0,0:0:0:0:
8,148,64582,2,0,L|16:76,1,70,8|0,0:0|0:0,0:0:0:0:
96,52,64912,2,0,L|92:96,2,35,0|0|0,0:0|0:0|1:0,0:0:0:0:
168,12,65241,2,0,P|204:12|240:24,1,70,8|0,0:0|0:0,0:0:0:0:
280,92,65571,5,0,1:0:0:0:
356,128,65736,1,0,0:0:0:0:
356,128,65818,1,0,0:0:0:0:
356,128,65901,2,0,P|360:164|376:200,1,70,8|0,0:0|1:0,0:0:0:0:
420,264,66230,2,0,P|387:277|352:276,1,70,0|0,0:0|1:0,0:0:0:0:
276,244,66560,2,0,P|243:230|208:232,2,70,8|0|0,0:0|0:0|1:0,0:0:0:0:
288,328,67054,6,0,L|292:368,2,35,0|0|8,0:0|0:0|0:0,0:0:0:0:
208,348,67384,1,0,0:0:0:0:
136,304,67549,2,0,P|104:300|64:308,1,70,0|0,0:0|1:0,0:0:0:0:
24,220,67879,2,0,P|56:224|96:216,1,70,8|0,0:0|0:0,0:0:0:0:
140,148,68208,5,0,1:0:0:0:
100,76,68373,2,0,P|68:72|28:80,2,70,0|8|0,0:0|0:0|1:0,0:0:0:0:
140,148,68868,1,0,0:0:0:0:
212,108,69032,1,0,1:0:0:0:
212,108,69115,1,0,0:0:0:0:
212,108,69197,2,0,P|244:104|284:112,1,70,8|0,0:0|0:0,0:0:0:0:
356,152,69527,6,0,L|368:76,1,70,0|0,1:0|0:0,0:0:0:0:
428,24,69857,1,8,0:0:0:0:
428,24,69939,1,0,0:0:0:0:
428,24,70021,2,0,P|436:60|460:92,1,70,0|0,0:0|0:0,0:0:0:0:
512,144,70351,1,0,1:0:0:0:
484,224,70516,2,0,L|492:276,3,35,8|0|0|0,0:0|0:0|0:0|0:0,0:0:0:0:
472,296,70846,6,0,P|472:332|480:372,1,70,0|0,1:0|0:0,0:0:0:0:
400,336,71175,2,0,P|365:331|331:338,1,70,8|0,0:0|1:0,0:0:0:0:
260,296,71505,1,0,0:0:0:0:
196,352,71670,2,0,P|160:356|124:348,2,70,0|8|0,1:0|0:0|0:0,0:0:0:0:
260,296,72164,6,0,L|253:226,1,70,0|0,1:0|0:0,0:0:0:0:
172,252,72494,2,0,L|180:183,1,70,8|0,0:0|0:0,0:0:0:0:
96,188,72824,2,0,L|118:122,1,70,0|0,0:0|1:0,0:0:0:0:
34,109,73153,2,0,L|69:49,1,70,8|0,0:0|0:0,0:0:0:0:
152,36,73483,6,0,L|200:32,3,35,4|0|2|0,1:2|0:0|0:0|1:0,0:0:0:0:
220,60,73813,2,0,L|268:56,3,35,2|0|2|0,1:2|0:0|1:2|0:0,0:0:0:0:
288,84,74142,2,0,L|336:80,3,35,0|0|2|0,0:0|1:0|1:2|0:0,0:0:0:0:
356,108,74472,2,0,L|404:104,3,35,2|0|2|0,1:2|1:0|1:2|1:0,0:0:0:0:
424,132,74802,6,0,B|460:188|408:240|408:240|416:280,1,140,4|2,1:2|0:3,0:0:0:0:
496,268,75296,2,0,P|456:332|392:344,1,140,4|0,1:2|0:0,0:0:0:0:
316,316,75791,2,0,P|280:312|240:324,1,70,0|2,0:0|0:3,0:0:0:0:
172,360,76120,6,0,L|100:356,2,70,4|0|2,1:2|1:0|0:3,0:0:0:0:
247,320,76615,1,4,1:2:0:0:
176,276,76780,2,0,L|28:268,1,140,2|0,0:0|0:0,0:0:0:0:
4,192,77274,1,2,0:3:0:0:
24,112,77439,6,0,B|53:115|80:143|85:176|85:176|140:180,1,140,4|8,1:2|0:0,0:0:0:0:
212,160,77934,2,0,L|220:88,1,70,0|0,0:0|0:0,0:0:0:0:
270,24,78262,1,0,1:0:0:0:
332,80,78428,2,0,P|324:112|328:148,1,70,8|0,0:0|0:0,0:0:0:0:
408,176,78758,6,0,L|480:184,1,70,2|0,1:2|0:0,0:0:0:0:
476,268,79087,2,0,L|406:260,1,70,8|0,0:0|1:0,0:0:0:0:
324,244,79417,1,0,0:0:0:0:
256,292,79582,1,0,1:0:0:0:
188,244,79747,2,0,L|184:204,2,35,8|0|0,1:2|1:0|1:0,0:0:0:0:
180,328,80076,6,0,P|128:304|106:225,1,140,4|2,1:2|0:3,0:0:0:0:
113,144,80571,2,0,P|172:177|188:244,1,140,4|0,1:2|0:0,0:0:0:0:
256,292,81065,2,0,L|328:296,1,70,0|2,0:0|0:3,0:0:0:0:
408,280,81395,6,0,P|400:244|404:208,1,70,4|0,1:2|1:0,0:0:0:0:
452,140,81725,2,0,P|460:104|456:68,1,70,2|4,0:3|1:2,0:0:0:0:
384,28,82054,1,2,0:0:0:0:
384,28,82384,1,0,0:0:0:0:
308,60,82549,1,2,0:3:0:0:
232,28,82714,6,0,P|160:16|100:44,1,140,4|8,1:2|0:0,0:0:0:0:
68,120,83208,1,0,0:0:0:0:
104,196,83373,2,0,P|68:204|28:192,1,70,0|0,0:0|1:0,0:0:0:0:
148,128,83703,2,0,P|184:120|224:132,1,70,8|0,0:0|0:0,0:0:0:0:
264,196,84032,6,0,P|276:260|332:308,1,140,2|8,1:2|0:0,0:0:0:0:
412,320,84527,1,0,1:0:0:0:
476,264,84692,2,0,L|472:184,1,70,2|0,0:0|1:0,0:0:0:0:
464,112,85021,2,0,L|480:72,2,35,8|0|0,1:2|1:0|0:0,0:0:0:0:
396,160,85351,6,0,P|330:140|302:78,1,140,4|2,1:2|0:3,0:0:0:0:
209,78,85846,2,0,P|181:140|116:160,1,140,4|0,1:2|0:0,0:0:0:0:
54,82,86340,2,0,L|124:76,1,70,0|2,0:0|0:3,0:0:0:0:
209,78,86670,6,0,P|208:44|216:8,2,70,4|0|2,1:2|1:0|0:3,0:0:0:0:
256,148,87164,1,4,1:2:0:0:
303,77,87329,2,0,P|303:43|296:9,1,70,2|0,0:0|0:0,0:0:0:0:
384,48,87659,2,0,P|383:82|390:116,1,70,0|2,0:0|0:3,0:0:0:0:
432,192,87988,6,0,P|448:272|408:324,1,140,4|8,1:2|0:0,0:0:0:0:
368,248,88483,1,0,0:0:0:0:
284,232,88648,2,0,P|284:264|304:304,1,70,0|0,0:0|1:0,0:0:0:0:
240,356,88977,2,0,P|208:356|168:336,1,70,8|0,0:0|0:0,0:0:0:0:
120,276,89307,6,0,L|112:204,1,70,2|0,1:2|0:0,0:0:0:0:
28,192,89637,1,8,0:0:0:0:
84,128,89802,2,0,P|124:124|156:136,1,70,0|0,1:0|0:0,0:0:0:0:
208,196,90131,1,0,1:0:0:0:
276,148,90296,2,0,L|272:112,2,35,8|0|0,1:2|1:0|1:0,0:0:0:0:
284,232,90626,6,0,P|340:200|358:128,1,140,4|2,1:2|0:3,0:0:0:0:
436,164,91120,2,0,P|416:232|360:288,1,140,4|0,1:2|0:0,0:0:0:0:
292,316,91615,2,0,L|220:312,1,70,0|2,0:0|0:3,0:0:0:0:
136,308,91945,6,0,L|66:311,2,70,4|0|2,1:2|1:0|0:3,0:0:0:0:
184,240,92439,1,4,1:2:0:0:
204,160,92604,1,2,0:0:0:0:
204,160,92934,2,0,L|200:84,1,70,0|2,0:0|0:3,0:0:0:0:
260,28,93263,6,0,P|272:60|300:88,1,70,4|0,1:2|1:0,0:0:0:0:
360,140,93593,2,0,P|391:154|430:154,1,70,0|0,1:0|1:0,0:0:0:0:
480,220,93923,2,0,P|468:252|440:280,1,70,0|0,1:0|1:0,0:0:0:0:
372,320,94252,2,0,P|347:294|335:262,1,70,0|0,1:0|1:0,0:0:0:0:
280,200,94582,6,0,L|232:208,3,35,2|0|0|0,1:2|1:0|1:0|1:0,0:0:0:0:
204,212,94912,2,0,L|169:206,3,35,0|0|0|0,1:0|1:0|1:0|1:0,0:0:0:0:
128,196,95241,2,0,L|107:167,3,35,2|0|0|0,1:2|1:0|1:0|1:0,0:0:0:0:
88,132,95571,2,0,L|93:97,3,35,0|0|0|0,1:0|1:0|1:0|1:0,0:0:0:0:
104,56,95901,6,0,P|68:56|32:40,2,70,4|0|8,1:2|0:0|0:0,0:0:0:0:
184,36,96395,2,0,P|252:28|328:44,1,140,0|0,0:0|1:0,0:0:0:0:
384,100,96890,1,8,0:0:0:0:
384,100,97054,1,0,0:0:0:0:
332,168,97219,6,0,P|396:184|456:144,1,140,0|8,1:0|0:0,0:0:0:0:
480,272,97714,2,0,P|416:256|356:296,1,140,0|0,1:0|1:0,0:0:0:0:
328,372,98208,2,0,L|256:364,1,70,8|0,0:0|0:0,0:0:0:0:
176,348,98538,6,0,L|140:352,2,35,0|0|0,1:0|0:0|0:0,0:0:0:0:
232,284,98868,2,0,P|244:232|228:184,2,105,8|0|0,0:0|0:0|1:0,0:0:0:0:
160,236,99527,2,0,P|144:200|144:164,1,70,8|0,0:0|0:0,0:0:0:0:
172,92,99857,6,0,L|160:52,2,35,0|0|0,1:0|0:0|0:0,0:0:0:0:
256,76,100186,2,0,L|275:39,2,35,8|0|0,0:0|0:0|1:0,0:0:0:0:
326,124,100516,2,0,L|366:112,2,35,0|0|0,0:0|1:0|1:0,0:0:0:0:
341,207,100846,2,0,L|377:226,2,35,8|0|0,0:0|0:0|1:0,0:0:0:0:
292,276,101175,6,0,P|308:308|312:352,1,70,0|0,1:0|0:0,0:0:0:0:
228,332,101505,2,0,P|208:292|207:268,1,70,8|0,0:0|0:0,0:0:0:0:
204,184,101835,2,0,P|244:164|268:163,1,70,0|0,0:0|1:0,0:0:0:0:
341,207,102164,2,0,P|376:216|416:212,1,70,8|0,0:0|0:0,0:0:0:0:
484,176,102494,5,0,1:0:0:0:
496,92,102659,1,0,0:0:0:0:
440,32,102824,2,0,L|360:28,1,70,8|0,0:0|1:0,0:0:0:0:
328,28,103071,2,0,L|208:40,1,105,0|0,0:0|1:0,0:0:0:0:
140,44,103483,2,0,P|152:84|176:108,1,70,8|0,0:0|0:0,0:0:0:0:
248,136,103813,6,0,P|240:168|244:208,1,70,0|0,1:0|0:0,0:0:0:0:
324,176,104142,2,0,P|327:210|319:244,1,70,8|0,0:0|0:0,0:0:0:0:
288,324,104472,2,0,P|256:328|216:320,1,70,0|0,0:0|0:0,0:0:0:0:
140,352,104802,2,0,P|108:348|68:356,1,70,8|0,0:0|0:0,0:0:0:0:
68,272,105131,6,0,P|92:240|72:140,1,140,0|8,1:0|0:0,0:0:0:0:
140,92,105626,2,0,P|172:152|180:232,1,140,0|0,1:0|1:0,0:0:0:0:
216,300,106120,1,8,0:0:0:0:
280,244,106285,5,0,1:0:0:0:
280,244,106368,1,0,1:0:0:0:
280,244,106450,2,0,P|316:245|350:258,1,70,4|0,1:2|0:0,0:0:0:0:
328,340,106780,2,0,P|364:338|398:325,1,70,8|0,0:0|0:0,0:0:0:0:
456,268,107109,1,0,0:0:0:0:
476,184,107274,2,0,L|468:112,1,70,0|8,1:0|0:0,0:0:0:0:
388,84,107604,1,0,0:0:0:0:
336,152,107769,6,0,P|304:104|324:28,1,140,0|8,1:0|0:0,0:0:0:0:
240,24,108263,1,0,1:0:0:0:
240,24,108593,2,0,L|164:28,2,70,0|8|0,1:0|0:0|0:0,0:0:0:0:
216,104,109087,5,0,1:0:0:0:
60,36,109417,1,8,0:0:0:0:
164,168,109747,2,0,P|172:200|168:240,1,70,0|0,0:0|1:0,0:0:0:0:
136,316,110076,1,8,0:0:0:0:
216,344,110241,2,0,P|248:336|288:340,1,70,0|0,0:0|1:0,0:0:0:0:
384,264,110571,6,0,P|352:272|312:268,1,70,0|8,0:0|0:0,0:0:0:0:
344,188,110901,2,0,P|376:180|416:184,1,70,0|0,1:0|0:0,0:0:0:0:
464,248,111230,2,0,P|464:280|448:316,2,70,0|8|0,1:0|0:0|1:0,0:0:0:0:
384,264,111725,5,4,1:2:0:0:
344,188,111890,2,0,P|344:156|360:120,2,70,0|8|0,0:0|0:0|0:0,0:0:0:0:
304,260,112384,2,0,P|272:260|236:244,1,70,0|0,0:0|1:0,0:0:0:0:
172,192,112714,1,8,0:0:0:0:
88,208,112879,2,0,P|88:176|104:140,1,70,0|0,0:0|1:0,0:0:0:0:
88,60,113208,6,0,P|123:61|156:80,1,70,0|8,0:0|0:0,0:0:0:0:
224,124,113538,1,0,1:0:0:0:
224,124,113868,2,0,L|252:56,2,70,0|8|0,1:0|0:0|0:0,0:0:0:0:
304,152,114362,6,0,P|372:156|424:108,1,140,4|8,1:2|0:0,0:0:0:0:
480,48,114857,1,0,0:0:0:0:
480,48,115186,1,0,1:0:0:0:
492,132,115351,2,0,L|488:212,1,70,8|0,0:0|0:0,0:0:0:0:
480,288,115681,6,0,P|432:268|404:188,1,140,4|8,1:2|0:0,0:0:0:0:
348,128,116175,2,0,L|204:140,1,140,0|0,1:0|1:0,0:0:0:0:
124,148,116670,2,0,P|88:152|52:140,1,70,8|0,0:0|0:0,0:0:0:0:
96,68,116999,5,2,0:1:0:0:
96,68,118318,6,0,L|20:80,1,70,0|0,1:0|1:0,0:0:0:0:
64,156,118648,2,0,L|133:145,1,70,0|0,1:0|1:0,0:0:0:0:
216,128,118977,2,0,L|256:136,3,35,2|0|2|0,1:2|0:0|0:0|0:0,0:0:0:0:
292,144,119307,2,0,L|326:137,3,35,2|0|2|0,1:2|0:0|0:0|0:0,0:0:0:0:
368,128,119637,5,4,1:2:0:0:
256,192,119719,12,0,122274,0:0:0:0:
396,64,140735,6,0,P|364:60|324:64,1,70,4|0,1:2|0:0,0:0:0:0:
256,108,141395,1,8,0:0:0:0:
200,48,141724,1,8,0:0:0:0:
176,128,142054,2,0,L|188:196,1,70,8|8,0:0|1:2,0:0:0:0:
200,280,142713,2,0,L|196:320,1,35,8|8,0:0|0:0,0:0:0:0:
196,314,143373,6,0,P|236:308|272:312,1,70,0|0,1:0|0:0,0:0:0:0:
296,232,144032,2,0,P|330:234|368:224,1,70,10|8,0:0|0:0,0:0:0:0:
324,152,144691,1,10,0:0:0:0:
240,168,145021,1,8,1:2:0:0:
212,248,145351,2,0,P|224:280|256:308,2,70,10|0|2,0:0|0:0|1:2,0:0:0:0:
160,184,146340,5,0,0:0:0:0:
80,164,146669,2,0,L|8:172,1,70,8|8,0:0|0:0,0:0:0:0:
36,92,147329,2,0,L|105:84,1,70,8|8,0:0|1:2,0:0:0:0:
188,72,147988,2,0,L|196:24,1,35,8|8,0:0|0:0,0:0:0:0:
193,37,148647,6,0,P|228:32|268:40,1,70,0|0,1:0|0:0,0:0:0:0:
316,100,149307,2,0,P|351:105|391:97,1,70,10|8,0:0|0:0,0:0:0:0:
464,72,149966,1,10,0:0:0:0:
496,148,150296,1,8,1:2:0:0:
464,224,150626,2,0,L|476:264,2,35,10|0|2,0:0|0:0|0:0,0:0:0:0:
364,192,151285,6,0,P|320:188|276:200,1,87.5,4|0,1:2|0:0,0:0:0:0:
184,248,151944,2,0,L|168:156,1,87.5,8|8,0:0|0:0,0:0:0:0:
68,192,152604,1,8,0:0:0:0:
88,296,152933,1,8,1:2:0:0:
184,248,153263,2,0,L|232:252,1,43.75,8|8,0:0|0:0,0:0:0:0:
227,251,153922,6,0,P|224:296|244:344,1,87.5,4|0,1:2|0:0,0:0:0:0:
328,280,154582,2,0,P|372:276|420:296,1,87.5,10|8,0:0|0:0,0:0:0:0:
392,188,155241,2,0,P|347:191|299:171,1,87.5,10|8,0:0|1:2,0:0:0:0:
256,84,155900,2,0,L|256:40,2,43.75,10|0|0,0:0|0:0|0:0,0:0:0:0:
204,177,156560,6,0,P|163:191|120:188,1,87.5,4|0,1:2|0:0,0:0:0:0:
99,290,157219,2,0,P|140:275|184:280,1,87.5,8|8,0:0|0:0,0:0:0:0:
256,360,157878,1,8,0:0:0:0:
256,360,158208,1,8,1:2:0:0:
352,316,158538,2,0,L|360:272,2,43.75,8|8|0,0:0|0:0|0:0,0:0:0:0:
456,292,159197,6,0,P|456:248|432:204,1,87.5,2|0,1:2|0:0,0:0:0:0:
336,180,159856,2,0,L|240:176,1,87.5,8|8,0:0|0:0,0:0:0:0:
172,104,160516,2,0,L|268:100,1,87.5,10|8,0:0|1:2,0:0:0:0:
364,96,161175,1,8,0:0:0:0:
408,192,161505,1,2,0:0:0:0:
364,288,161834,6,0,P|328:296|288:292,1,70,2|0,1:2|1:0,0:0:0:0:
224,252,162163,2,0,P|188:244|148:248,1,70,2|0,1:2|1:0,0:0:0:0:
80,288,162493,2,0,P|72:252|76:212,1,70,2|0,1:2|1:0,0:0:0:0:
116,148,162823,2,0,P|124:112|120:72,1,70,2|0,1:2|1:0,0:0:0:0:
196,36,163152,6,0,L|204:80,3,35,2|0|0|0,1:2|1:0|1:0|1:0,0:0:0:0:
240,92,163482,2,0,L|248:136,3,35,2|0|0|0,1:2|1:0|1:0|1:0,0:0:0:0:
284,148,163812,2,0,L|292:192,3,35,2|0|0|0,1:2|1:0|1:0|1:0,0:0:0:0:
328,204,164141,1,4,1:2:0:0:
328,204,164471,6,0,P|364:212|400:208,1,70,4|0,1:2|0:0,0:0:0:0:
476,180,164801,1,8,0:0:0:0:
492,96,164965,1,0,0:0:0:0:
476,180,165130,2,0,P|476:216|484:248,1,70,0|0,0:0|1:0,0:0:0:0:
416,352,165460,2,0,P|416:317|408:284,1,70,8|0,0:0|0:0,0:0:0:0:
332,324,165790,6,0,P|296:324|260:312,1,70,0|0,1:0|0:0,0:0:0:0:
196,264,166119,2,0,P|196:228|208:192,1,70,8|0,0:0|1:0,0:0:0:0:
256,128,166449,1,0,0:0:0:0:
256,128,166614,1,0,1:0:0:0:
180,92,166779,2,0,L|104:96,1,70,8|0,0:0|0:0,0:0:0:0:
44,148,167108,6,0,P|52:184|48:220,1,70,0|0,1:0|0:0,0:0:0:0:
24,296,167438,1,8,0:0:0:0:
104,276,167603,1,0,0:0:0:0:
104,276,167685,1,0,0:0:0:0:
104,276,167768,2,0,P|140:276|176:284,1,70,0|0,0:0|1:0,0:0:0:0:
252,316,168097,2,0,L|272:248,1,70,8|0,0:0|0:0,0:0:0:0:
343,297,168427,6,0,P|380:300|420:292,1,70,0|0,1:0|0:0,0:0:0:0:
476,240,168757,1,8,0:0:0:0:
492,160,168921,1,0,1:0:0:0:
440,92,169086,2,0,P|440:56|448:16,1,70,0|0,0:0|1:0,0:0:0:0:
356,68,169416,2,0,P|356:104|348:144,1,70,8|0,0:0|0:0,0:0:0:0:
292,200,169746,6,0,P|256:200|216:192,1,70,0|0,1:0|0:0,0:0:0:0:
160,140,170075,2,0,P|125:139|90:146,1,70,8|0,0:0|0:0,0:0:0:0:
52,220,170405,1,0,0:0:0:0:
8,148,170570,1,0,1:0:0:0:
52,220,170735,2,0,L|56:304,1,70,8|0,0:0|0:0,0:0:0:0:
120,344,171064,6,0,P|172:324|260:328,1,140,0|8,1:0|0:0,0:0:0:0:
332,360,171559,1,0,1:0:0:0:
396,308,171724,2,0,L|388:236,1,70,0|0,0:0|1:0,0:0:0:0:
472,256,172053,2,0,L|464:184,1,70,8|0,0:0|0:0,0:0:0:0:
452,104,172383,6,0,P|420:116|380:112,1,70,0|0,1:0|0:0,0:0:0:0:
308,76,172713,1,8,0:0:0:0:
252,136,172877,1,0,0:0:0:0:
252,136,172960,1,0,0:0:0:0:
252,136,173042,2,0,L|248:216,1,70,0|0,0:0|1:0,0:0:0:0:
167,150,173372,2,0,L|164:220,1,70,8|0,0:0|0:0,0:0:0:0:
160,304,173702,6,0,L|172:344,2,35,0|0|0,1:0|1:0|1:0,0:0:0:0:
88,260,174031,1,8,0:0:0:0:
48,188,174196,2,0,P|46:152|56:120,1,70,0|0,1:0|0:0,0:0:0:0:
108,56,174526,1,0,1:0:0:0:
192,68,174691,2,0,L|236:60,2,35,8|0|0,1:2|1:0|1:0,0:0:0:0:
168,150,175020,6,0,L|248:138,1,70,0|0,1:0|0:0,0:0:0:0:
320,124,175350,2,0,P|320:160|300:192,1,70,8|0,0:0|0:0,0:0:0:0:
252,260,175680,2,0,P|252:296|272:328,1,70,0|0,0:0|1:0,0:0:0:0:
336,272,176009,2,0,P|372:272|404:292,1,70,8|0,0:0|0:0,0:0:0:0:
468,236,176339,5,0,1:0:0:0:
468,236,176421,1,0,0:0:0:0:
468,236,176504,2,0,L|476:164,1,70,0|8,0:0|0:0,0:0:0:0:
420,104,176834,2,0,L|428:32,2,70,0|0|0,1:0|0:0|1:0,0:0:0:0:
360,164,177328,2,0,P|324:168|288:160,1,70,8|0,0:0|0:0,0:0:0:0:
216,124,177658,6,0,L|132:140,1,70,0|0,1:0|0:0,0:0:0:0:
84,192,177987,1,8,0:0:0:0:
128,264,178152,1,0,0:0:0:0:
128,264,178235,1,0,0:0:0:0:
128,264,178317,2,0,P|132:300|124:336,1,70,0|0,0:0|1:0,0:0:0:0:
216,356,178647,2,0,P|212:320|220:284,1,70,8|0,0:0|0:0,0:0:0:0:
256,212,178976,6,0,P|286:193|322:185,1,70,0|0,1:0|0:0,0:0:0:0:
404,192,179306,1,8,0:0:0:0:
464,132,179471,2,0,L|460:52,1,70,0|0,1:0|0:0,0:0:0:0:
380,40,179801,2,0,L|383:109,1,70,0|8,1:0|0:0,0:0:0:0:
324,168,180130,1,0,0:0:0:0:
252,128,180295,6,0,P|216:136|188:160,1,70,0|0,1:0|0:0,0:0:0:0:
194,240,180625,2,0,P|228:233|256:212,1,70,8|0,0:0|0:0,0:0:0:0:
324,168,180954,2,0,P|360:176|388:200,1,70,0|0,0:0|1:0,0:0:0:0:
381,280,181284,2,0,P|347:272|319:251,1,70,8|0,0:0|0:0,0:0:0:0:
324,168,181614,5,0,1:0:0:0:
368,96,181779,2,0,L|360:20,2,70,0|8|0,0:0|0:0|1:0,0:0:0:0:
284,92,182273,2,0,P|252:80|216:84,1,70,2|2,0:0|1:2,0:0:0:0:
152,140,182603,2,0,P|120:152|84:148,1,70,10|2,0:0|0:0,0:0:0:0:
12,192,182932,5,0,1:0:0:0:
4,276,183097,1,0,0:0:0:0:
60,340,183262,1,8,0:0:0:0:
140,360,183427,2,0,L|280:348,1,140,0|0,0:0|1:0,0:0:0:0:
260,264,183921,2,0,P|296:264|328:276,1,70,8|0,0:0|0:0,0:0:0:0:
388,336,184251,6,0,L|396:372,2,35,0|0|0,1:0|1:0|1:0,0:0:0:0:
408,252,184581,1,8,0:0:0:0:
348,192,184746,1,0,1:0:0:0:
348,192,184828,1,0,1:0:0:0:
348,192,184910,2,0,L|356:156,2,35,0|0|0,1:0|1:0|1:0,0:0:0:0:
264,180,185240,2,0,L|240:152,2,35,8|0|0,0:0|0:0|1:0,0:0:0:0:
260,264,185570,6,0,P|224:272|184:268,1,70,4|0,1:2|0:0,0:0:0:0:
112,240,185899,1,8,0:0:0:0:
44,288,186064,1,0,0:0:0:0:
36,204,186229,2,0,P|45:170|48:132,1,70,0|0,0:0|1:0,0:0:0:0:
116,84,186559,2,0,P|120:120|136:152,1,70,8|0,0:0|0:0,0:0:0:0:
212,188,186888,6,0,L|288:176,1,70,0|0,1:0|0:0,0:0:0:0:
260,264,187218,2,0,L|329:274,1,70,8|0,0:0|1:0,0:0:0:0:
412,288,187548,2,0,P|400:320|372:348,2,70,0|0|10,0:0|1:0|0:0,0:0:0:0:
412,288,188207,6,0,L|408:216,1,70,0|0,1:0|0:0,0:0:0:0:
328,192,188537,2,0,L|332:120,1,70,8|0,0:0|0:0,0:0:0:0:
376,52,188866,2,0,P|341:40|301:43,1,70,2|0,0:0|1:0,0:0:0:0:
240,92,189196,2,0,P|205:104|165:101,1,70,8|0,0:0|0:0,0:0:0:0:
92,76,189526,5,2,1:2:0:0:
92,76,189608,1,0,0:0:0:0:
92,76,189691,2,0,L|52:136,1,70,0|8,0:0|0:0,0:0:0:0:
104,204,190020,1,0,1:0:0:0:
116,288,190185,2,0,P|88:308|52:320,1,70,2|0,0:0|1:0,0:0:0:0:
180,236,190515,2,0,P|196:264|196:304,1,70,8|0,0:0|0:0,0:0:0:0:
256,364,190844,5,2,1:2:0:0:
336,344,191009,1,0,0:0:0:0:
416,324,191174,2,0,L|428:252,1,70,8|0,0:0|0:0,0:0:0:0:
344,244,191504,2,0,P|356:208|380:184,1,70,0|0,0:0|1:0,0:0:0:0:
444,132,191834,2,0,P|432:96|408:72,1,70,8|0,0:0|0:0,0:0:0:0:
332,48,192163,5,0,1:0:0:0:
332,48,192246,1,0,0:0:0:0:
332,48,192328,2,0,L|256:44,1,70,0|8,0:0|0:0,0:0:0:0:
176,44,192658,1,0,1:0:0:0:
220,116,192823,2,0,P|228:152|224:188,2,70,0|0|10,0:0|1:0|0:0,0:0:0:0:
220,116,193482,6,0,L|289:119,1,70,0|0,1:0|0:0,0:0:0:0:
364,160,193812,2,0,P|372:196|368:232,1,70,8|0,0:0|0:0,0:0:0:0:
296,268,194141,2,0,P|288:232|292:196,1,70,2|0,0:0|1:0,0:0:0:0:
364,160,194471,2,0,L|436:164,1,70,8|0,0:0|0:0,0:0:0:0:
460,84,194801,6,0,L|464:48,2,35,2|0|0,1:2|1:0|1:1,0:0:0:0:
376,76,195130,2,0,L|384:4,2,70,8|0|2,0:0|1:0|0:0,0:0:0:0:
296,108,195625,1,0,1:0:0:0:
256,184,195790,2,0,L|260:228,2,35,10|0|0,1:2|1:0|1:0,0:0:0:0:
212,112,196119,6,0,P|176:104|140:108,1,70,4|0,1:2|0:0,0:0:0:0:
76,160,196449,1,8,0:0:0:0:
4,120,196614,1,0,0:0:0:0:
4,120,196696,1,0,0:0:0:0:
4,120,196779,2,0,P|-6:156|0:192,1,70,0|0,0:0|1:0,0:0:0:0:
60,248,197108,1,8,0:0:0:0:
60,248,197273,1,0,0:0:0:0:
100,320,197438,6,0,P|64:332|28:324,2,70,0|0|8,1:0|0:0|0:0,0:0:0:0:
144,248,197932,1,0,1:0:0:0:
220,284,198097,2,0,L|232:352,1,70,0|0,0:0|1:0,0:0:0:0:
304,308,198427,1,10,0:0:0:0:
284,228,198592,1,2,0:0:0:0:
308,148,198757,6,0,P|340:132|376:128,1,70,2|0,1:2|0:0,0:0:0:0:
430,190,199086,2,0,P|398:206|362:210,1,70,8|0,0:0|0:0,0:0:0:0:
284,228,199416,2,0,L|280:304,1,70,0|0,0:0|1:0,0:0:0:0:
200,328,199746,2,0,L|203:258,1,70,8|0,0:0|0:0,0:0:0:0:
164,184,200075,6,0,P|116:168|24:192,1,140,2|8,1:2|0:0,0:0:0:0:
0,112,200570,2,0,P|36:104|72:88,1,70,0|0,1:0|0:0,0:0:0:0:
128,32,200899,2,0,P|96:12|60:8,2,70,0|8|0,1:0|0:0|0:0,0:0:0:0:
180,100,201394,6,0,P|213:106|250:100,1,70,4|0,1:2|1:0,0:0:0:0:
280,180,201724,2,0,P|307:160|329:130,1,70,0|0,1:0|1:0,0:0:0:0:
407,165,202053,2,0,P|413:132|406:95,1,70,0|0,1:0|1:0,0:0:0:0:
486,64,202383,2,0,P|466:36|436:14,1,70,0|0,1:0|1:0,0:0:0:0:
352,16,202713,6,0,P|323:36|303:64,1,70,4|0,1:2|1:0,0:0:0:0:
228,32,203042,2,0,P|222:66|228:100,1,70,0|0,1:0|1:0,0:0:0:0:
151,130,203372,2,0,P|171:158|199:178,1,70,2|2,1:2|1:2,0:0:0:0:
165,253,203702,2,0,P|199:258|233:252,1,70,2|2,1:2|1:2,0:0:0:0:
304,204,204031,6,0,L|340:208,7,35,4|0|0|0|0|0|0|0,1:2|1:0|1:0|1:0|1:0|1:0|1:0|1:0,0:0:0:0:
380,212,204691,2,0,L|416:208,7,35,4|0|0|0|0|0|0|0,1:2|1:0|1:0|1:0|1:0|1:0|1:0|1:0,0:0:0:0:
456,196,205350,6,0,P|464:160|460:128,1,70,4|0,1:2|1:0,0:0:0:0:
380,44,205680,2,0,P|372:80|376:112,1,70,0|0,1:0|1:0,0:0:0:0:
380,212,206009,2,0,L|376:256,2,35,2|0|2,1:2|0:0|0:0,0:0:0:0:
300,180,206339,2,0,L|296:145,2,35,2|0|2,1:2|0:0|0:0,0:0:0:0:
256,252,206669,5,4,1:2:0:0:
256,192,206751,12,0,209306,0:0:0:0:
