osu file format v14

[General]
AudioFilename: 03. Renatus - Soleily 192kbps.mp3
AudioLeadIn: 0
PreviewTime: 164471
Countdown: 0
SampleSet: Soft
StackLeniency: 0.7
Mode: 0
LetterboxInBreaks: 0
WidescreenStoryboard: 0

[Editor]
Bookmarks: 956,11505,22054,24609,32604,43153,53703,64252,74802,85351,95901,106450,116999,119637,130186,140735,151285,161834,164471,175020,185570,196119,206669,209306
DistanceSpacing: 1
BeatDivisor: 4
GridSize: 4
TimelineZoom: 1

[Metadata]
Title:Renatus
TitleUnicode:Renatus
Artist:Soleily
ArtistUnicode:Soleily
Creator:Gamu
Version:Normal
Source:
Tags:MBC7 Unisphere 地球ヤバイEP Chikyu Yabai
BeatmapID:557815
BeatmapSetID:241526

[Difficulty]
HPDrainRate:3
CircleSize:3
OverallDifficulty:3
ApproachRate:4
SliderMultiplier:0.999999999999999
SliderTickRate:2

[Events]
//Background and Video events
0,0,"machinetop_background.jpg",0,0
//Break Periods
2,122474,139415
//Storyboard Layer 0 (Background)
//Storyboard Layer 1 (Fail)
//Storyboard Layer 2 (Pass)
//Storyboard Layer 3 (Foreground)
//Storyboard Sound Samples

[TimingPoints]
956,329.67032967033,4,2,0,60,1,0
22054,-100,4,2,0,80,0,0
22549,-100,4,2,0,70,0,0
43153,-100,4,2,0,60,0,0
48428,-100,4,2,0,70,0,0
48510,-100,4,2,0,50,0,0
49747,-100,4,2,0,70,0,0
49829,-100,4,2,0,50,0,0
51065,-100,4,2,0,70,0,0
51148,-100,4,2,0,50,0,0
53373,-100,4,2,0,60,0,0
53703,-100,4,2,0,70,0,1
74719,-100,4,2,0,70,0,0
74802,-100,4,2,0,70,0,1
95901,-100,4,2,0,70,0,0
116999,-100,4,2,0,50,0,0
118977,-100,4,2,0,60,0,0
119307,-100,4,2,0,70,0,0
119637,659.340659340659,4,2,0,80,1,0
119966,-100,4,2,0,70,0,0
120296,-100,4,2,0,60,0,0
120626,-100,4,2,0,50,0,0
120955,-100,4,2,0,40,0,0
121285,-100,4,2,0,30,0,0
121615,-100,4,2,0,20,0,0
121944,-100,4,2,0,10,0,0
122274,-100,4,2,0,5,0,0
140735,-100,4,2,0,50,0,0
151285,-100,4,2,0,60,0,0
161834,329.67032967033,4,2,0,65,1,0
164141,-100,4,2,0,70,0,0
164471,-100,4,2,0,70,0,1
185487,-100,4,2,0,70,0,0
185570,-100,4,2,0,70,0,1
206669,659.340659340659,4,2,0,80,1,0
206998,-100,4,2,0,70,0,0
207328,-100,4,2,0,60,0,0
207658,-100,4,2,0,50,0,0
207987,-100,4,2,0,40,0,0
208317,-100,4,2,0,30,0,0
208647,-100,4,2,0,20,0,0
208976,-100,4,2,0,10,0,0
209306,-100,4,2,0,5,0,0

[Colours]
Combo1 : 142,199,255
Combo2 : 255,128,128
Combo3 : 128,255,255
Combo4 : 128,255,128
Combo5 : 255,187,255
Combo6 : 255,177,140

[HitObjects]
315,234,956,6,0,L|216:224,1,99.9999999999999,4|10,1:2|0:0,0:0:0:0:
168,216,1450,2,0,P|120:224|68:208,2,99.9999999999999,2|2|2,0:0|1:2|0:0,0:0:0:0:
200,180,2274,2,0,P|208:132|192:80,1,99.9999999999999,0|8,1:0|0:0,0:0:0:0:
160,48,2769,2,0,P|92:56|40:128,1,150,0|8,1:0|0:0,0:0:0:0:
44,216,3593,6,0,L|56:332,1,99.9999999999999,0|8,1:0|0:0,0:0:0:0:
196,264,4417,2,0,L|260:256,1,50,0|8,1:0|0:0,0:0:0:0:
328,316,4912,2,0,P|377:319|432:308,1,99.9999999999999,0|8,1:0|0:0,0:0:0:0:
468,280,5406,2,0,P|484:232|460:132,1,150,0|8,1:0|0:0,0:0:0:0:
380,80,6230,5,0,1:0:0:0:
284,108,6560,1,8,0:0:0:0:
144,52,7054,2,0,L|84:60,1,50,0|8,1:0|0:0,0:0:0:0:
24,128,7549,2,0,P|24:176|44:232,1,99.9999999999999,0|8,1:0|0:0,0:0:0:0:
68,264,8043,2,0,P|136:280|196:232,1,150,0|8,1:0|0:0,0:0:0:0:
280,180,8868,6,0,P|280:228|304:280,1,99.9999999999999,0|8,1:0|0:0,0:0:0:0:
444,320,9692,2,0,L|456:268,1,50,0|8,1:0|0:0,0:0:0:0:
460,172,10186,2,0,P|444:124|444:72,1,99.9999999999999,0|8,1:0|0:0,0:0:0:0:
464,28,10681,2,0,P|384:16|312:32,1,150,0|8,1:0|0:0,0:0:0:0:
252,104,11505,6,0,P|260:176|212:236,1,150,4|2,1:2|0:0,0:0:0:0:
128,284,12329,2,0,L|108:236,2,50,2|10|2,1:2|0:0|0:0,0:0:0:0:
152,328,12824,2,0,P|200:336|256:324,1,99.9999999999999,0|8,1:0|0:0,0:0:0:0:
296,304,13318,2,0,P|344:296|440:324,1,150,0|8,1:0|0:0,0:0:0:0:
484,232,14142,5,0,1:0:0:0:
468,132,14472,1,8,0:0:0:0:
344,48,14966,2,0,L|336:104,1,50,0|8,1:0|0:0,0:0:0:0:
316,196,15461,2,0,P|268:208|216:200,1,99.9999999999999,0|8,1:0|0:0,0:0:0:0:
176,176,15956,2,0,L|12:188,1,150,0|8,1:0|0:0,0:0:0:0:
48,88,16780,6,0,L|148:80,1,99.9999999999999,0|8,1:0|0:0,0:0:0:0:
264,176,17604,2,0,L|256:228,1,50,0|8,1:0|0:0,0:0:0:0:
288,320,18098,2,0,P|336:332|388:324,1,99.9999999999999,0|8,1:0|0:0,0:0:0:0:
428,300,18593,2,0,P|444:228|432:152,1,150,0|8,1:0|0:0,0:0:0:0:
356,88,19417,5,0,1:0:0:0:
256,68,19747,2,0,L|196:64,1,50,8|0,0:0|0:0,0:0:0:0:
176,160,20241,2,0,L|116:156,1,50,0|8,1:0|0:0,0:0:0:0:
44,216,20736,2,0,P|52:292|160:344,2,200,4|2|4,1:2|0:0|0:0,0:0:0:0:
176,160,22549,6,0,P|223:146|272:153,2,99.9999999999999,2|2|2,0:0|0:0|0:0,0:0:0:0:
140,196,23373,2,0,P|140:276|196:344,1,150,0|2,0:0|0:0,0:0:0:0:
276,360,24197,2,0,L|376:352,1,99.9999999999999,2|0,0:0|0:0,0:0:0:0:
424,336,24692,6,0,P|444:272|396:212,1,150,2|2,0:0|0:0,0:0:0:0:
304,172,25516,2,0,P|256:172|208:192,1,99.9999999999999,2|2,0:0|0:0,0:0:0:0:
120,236,26175,2,0,P|108:188|127:135,1,99.9999999999999,2|2,0:0|0:0,0:0:0:0:
92,44,26835,2,0,L|24:36,2,50,2|2|2,0:0|0:0|0:0,0:0:0:0:
140,52,27329,6,0,L|296:44,1,150,0|2,0:0|0:0,0:0:0:0:
392,44,28153,2,0,P|416:84|408:136,1,99.9999999999999,2|2,0:0|0:0,0:0:0:0:
344,212,28813,2,0,L|228:216,1,99.9999999999999,2|0,0:0|0:0,0:0:0:0:
192,300,29472,2,0,L|132:288,2,50,2|2|0,0:0|0:0|0:0,0:0:0:0:
240,308,29966,6,0,L|392:304,1,150,2|2,0:0|0:0,0:0:0:0:
448,220,30791,2,0,L|430:173,1,50,2|0,0:0|0:0,0:0:0:0:
388,84,31285,1,2,0:0:0:0:
388,84,31450,2,0,P|352:112|332:168,1,99.9999999999999,2|2,0:0|0:0,0:0:0:0:
356,260,32109,2,0,P|296:256|236:192,1,150,2|4,0:0|0:0,0:0:0:0:
292,56,33098,6,0,L|192:48,2,99.9999999999999,2|2|2,0:0|0:0|0:0,0:0:0:0:
340,64,33923,2,0,P|408:92|456:156,1,150,0|2,0:0|0:0,0:0:0:0:
472,252,34747,2,0,L|484:312,2,50,2|0|0,0:0|0:0|0:0,0:0:0:0:
424,236,35241,6,0,P|356:224|292:272,1,150,2|2,0:0|0:0,0:0:0:0:
260,364,36065,1,0,0:0:0:0:
160,380,36395,1,2,0:0:0:0:
92,312,36725,2,0,P|80:264|92:216,1,99.9999999999999,0|2,0:0|0:0,0:0:0:0:
184,172,37384,2,0,L|239:167,2,50,2|0|2,0:0|0:0|0:0,0:0:0:0:
108,100,38043,6,0,L|4:108,1,99.9999999999999,0|2,0:0|0:0,0:0:0:0:
48,16,38703,2,0,L|147:8,1,99.9999999999999,2|2,0:0|0:0,0:0:0:0:
208,88,39362,1,0,0:0:0:0:
308,104,39692,1,0,0:0:0:0:
400,68,40021,2,0,P|408:116|344:196,1,150,2|4,0:0|0:0,0:0:0:0:
204,220,41010,6,0,P|192:284|240:356,1,150,4|4,0:0|0:0,0:0:0:0:
296,268,41835,2,0,P|368:252|440:276,2,150,4|4|2,0:0|0:0|0:3,0:0:0:0:
204,220,43153,6,0,L|196:120,1,99.9999999999999,4|8,1:2|0:0,0:0:0:0:
60,52,43977,2,0,L|64:104,1,50,0|8,1:0|0:0,0:0:0:0:
72,204,44472,1,0,1:0:0:0:
96,300,44802,2,0,L|148:304,1,50,8|0,0:0|1:0,0:0:0:0:
204,220,45296,2,0,L|260:216,1,50,0|8,1:0|0:0,0:0:0:0:
292,312,45791,6,0,P|340:320|392:304,1,99.9999999999999,0|8,1:0|0:0,0:0:0:0:
480,184,46615,2,0,L|480:124,1,50,0|8,1:0|0:0,0:0:0:0:
432,44,47109,1,0,1:0:0:0:
352,104,47439,2,0,L|300:100,1,50,8|0,0:0|1:0,0:0:0:0:
212,56,47934,2,0,L|160:76,1,50,0|8,1:0|0:0,0:0:0:0:
76,120,48428,6,0,P|72:168|88:220,1,99.9999999999999,4|8,1:2|0:0,0:0:0:0:
180,336,49252,2,0,L|228:324,1,50,0|8,1:0|0:0,0:0:0:0:
256,228,49747,1,4,1:2:0:0:
324,300,50076,2,0,L|372:316,1,50,8|0,0:0|1:0,0:0:0:0:
444,248,50571,2,0,L|392:228,1,50,0|8,1:0|0:0,0:0:0:0:
328,160,51065,6,0,P|328:108|348:64,1,99.9999999999999,4|8,1:2|0:0,0:0:0:0:
476,144,51890,2,0,L|424:140,1,50,0|8,1:0|0:0,0:0:0:0:
328,160,52384,1,0,1:0:0:0:
236,124,52714,2,0,L|184:132,1,50,8|0,0:0|1:0,0:0:0:0:
88,152,53208,1,0,1:0:0:0:
88,152,53373,2,0,P|104:192|152:224,1,99.9999999999999,8|4,0:0|0:0,0:0:0:0:
188,316,54032,5,8,0:0:0:0:
264,252,54362,2,0,P|308:228|364:228,1,99.9999999999999,2|8,0:0|0:0,0:0:0:0:
440,284,55021,1,2,0:0:0:0:
492,200,55351,1,8,0:0:0:0:
412,140,55681,2,0,L|416:40,1,99.9999999999999,2|8,0:0|0:0,0:0:0:0:
324,84,56340,5,2,0:0:0:0:
236,32,56670,2,0,P|192:40|144:84,2,99.9999999999999,8|2|8,0:0|0:0|0:0,0:0:0:0:
232,132,57659,2,0,P|264:170|312:188,1,99.9999999999999,2|8,0:0|0:0,0:0:0:0:
324,84,58318,2,0,P|373:79|420:100,1,99.9999999999999,2|8,0:0|0:0,0:0:0:0:
464,188,58977,5,2,0:0:0:0:
436,284,59307,1,8,0:0:0:0:
356,344,59637,2,0,P|308:348|260:332,1,99.9999999999999,2|8,0:0|0:0,0:0:0:0:
184,264,60296,2,0,L|166:165,1,99.9999999999999,2|8,0:0|0:0,0:0:0:0:
152,116,60791,2,0,P|88:113|32:53,1,150,2|8,0:0|0:0,0:0:0:0:
124,24,61615,6,0,P|184:24|244:92,1,150,2|2,0:0|0:0,0:0:0:0:
300,168,62439,2,0,P|348:180|396:168,1,99.9999999999999,2|2,0:0|0:0,0:0:0:0:
348,80,63098,2,0,P|396:68|444:80,1,99.9999999999999,2|2,0:0|0:0,0:0:0:0:
492,168,63758,2,0,P|480:212|392:264,1,150,2|4,0:0|0:0,0:0:0:0:
296,256,64582,5,8,0:0:0:0:
224,324,64912,2,0,P|204:292|202:226,1,99.9999999999999,2|8,0:0|0:0,0:0:0:0:
268,160,65571,2,0,P|305:156|365:183,1,99.9999999999999,2|8,0:0|0:0,0:0:0:0:
396,276,66230,2,0,P|381:310|328:350,2,99.9999999999999,2|8|2,0:0|0:0|0:0,0:0:0:0:
296,256,67219,5,8,0:0:0:0:
244,340,67549,2,0,P|192:344|144:332,1,99.9999999999999,2|8,0:0|0:0,0:0:0:0:
76,260,68208,1,2,0:0:0:0:
100,164,68538,2,0,P|104:112|92:64,2,99.9999999999999,8|2|8,0:0|0:0|0:0,0:0:0:0:
4,192,69527,5,2,0:0:0:0:
76,260,69857,2,0,L|184:256,1,99.9999999999999,10|0,0:0|0:0,0:0:0:0:
256,196,70516,1,10,0:0:0:0:
336,256,70846,2,0,L|436:260,1,99.9999999999999,2|10,0:0|0:0,0:0:0:0:
484,244,71340,2,0,P|508:184|472:112,1,150,2|8,0:0|0:0,0:0:0:0:
384,64,72164,6,0,P|336:60|284:72,1,99.9999999999999,2|8,0:0|0:0,0:0:0:0:
224,148,72824,1,2,0:0:0:0:
180,60,73153,1,8,0:0:0:0:
128,144,73483,2,0,P|80:156|24:152,1,99.9999999999999,4|2,0:0|0:0,0:0:0:0:
4,196,73977,2,0,P|28:260|104:276,1,150,0|2,0:0|0:0,0:0:0:0:
200,292,74802,6,0,L|372:308,2,150,4|4|2,0:0|0:0|0:0,0:0:0:0:
112,336,76120,2,0,P|104:272|156:200,1,150,4|4,0:0|0:0,0:0:0:0:
196,180,76780,2,0,L|300:192,1,99.9999999999999,2|2,0:0|0:0,0:0:0:0:
396,204,77439,6,0,P|408:156|400:104,1,99.9999999999999,6|8,0:0|0:0,0:0:0:0:
336,28,78098,2,0,P|288:16|236:24,1,99.9999999999999,0|8,0:0|0:0,0:0:0:0:
164,88,78758,2,0,P|152:136|160:188,1,99.9999999999999,6|8,0:0|0:0,0:0:0:0:
224,264,79417,2,0,P|272:276|324:268,1,99.9999999999999,0|8,0:0|0:0,0:0:0:0:
396,204,80076,6,0,P|420:260|384:344,2,150,4|4|2,0:0|0:0|0:0,0:0:0:0:
321,268,81395,2,0,P|296:200|328:132,1,150,4|4,0:0|0:0,0:0:0:0:
368,104,82054,2,0,L|476:100,2,99.9999999999999,2|0|6,0:0|0:0|0:0,0:0:0:0:
284,48,83043,5,8,0:0:0:0:
232,132,83373,2,0,P|184:140|132:132,1,99.9999999999999,0|8,0:0|0:0,0:0:0:0:
52,72,84032,1,6,0:0:0:0:
8,164,84362,1,8,0:0:0:0:
36,260,84692,2,0,P|80:280|132:276,1,99.9999999999999,2|8,0:0|0:0,0:0:0:0:
95,182,85351,6,0,P|143:174|191:196,1,99.9999999999999,4|0,0:0|0:0,0:0:0:0:
220,232,85846,2,0,P|256:304|322:326,1,150,4|0,0:0|0:0,0:0:0:0:
320,224,86670,2,0,P|384:248|420:325,2,150,4|4|0,0:0|0:0|0:0,0:0:0:0:
220,232,87988,6,0,L|208:124,1,99.9999999999999,6|8,0:0|0:0,0:0:0:0:
144,56,88648,2,0,P|184:36|248:40,1,99.9999999999999,0|8,0:0|0:0,0:0:0:0:
304,112,89307,2,0,P|344:132|408:128,1,99.9999999999999,6|8,0:0|0:0,0:0:0:0:
444,112,89802,2,0,L|456:264,1,150,0|8,0:0|0:0,0:0:0:0:
368,304,90626,6,0,B|332:320|296:304|296:304|260:288|216:304,1,150,4|4,0:0|0:0,0:0:0:0:
132,180,91615,1,0,0:0:0:0:
108,276,91945,2,0,P|52:240|36:160,2,150,4|4|0,0:0|0:0|0:0,0:0:0:0:
204,248,93263,6,0,L|204:348,1,99.9999999999999,6|8,0:0|0:0,0:0:0:0:
304,348,93923,2,0,L|304:248,1,99.9999999999999,0|8,0:0|0:0,0:0:0:0:
256,160,94582,2,0,P|180:148|106:242,2,200,6|2|4,0:0|0:0|0:0,0:0:0:0:
356,272,96395,6,0,P|399:320|486:329,1,150,2|8,0:0|0:0,0:0:0:0:
452,228,97219,2,0,P|440:176|448:124,1,99.9999999999999,2|8,0:0|0:0,0:0:0:0:
476,88,97714,2,0,L|326:74,1,150,2|8,0:0|0:0,0:0:0:0:
344,172,98538,6,0,L|244:160,1,99.9999999999999,2|8,0:0|0:0,0:0:0:0:
196,152,99032,2,0,P|140:200|152:268,1,150,2|8,0:0|0:0,0:0:0:0:
236,324,99857,1,2,0:0:0:0:
320,272,100186,1,8,0:0:0:0:
320,272,100351,2,0,P|388:260|472:280,1,150,2|8,0:0|0:0,0:0:0:0:
440,180,101175,6,0,L|408:80,1,99.9999999999999,2|8,0:0|0:0,0:0:0:0:
328,136,101835,2,0,P|280:144|228:140,1,99.9999999999999,2|8,0:0|0:0,0:0:0:0:
140,96,102494,1,2,0:0:0:0:
40,112,102824,1,8,0:0:0:0:
40,112,102988,2,0,P|72:172|148:200,1,150,2|8,0:0|0:0,0:0:0:0:
244,216,103813,6,0,P|252:268|244:324,1,99.9999999999999,2|8,0:0|0:0,0:0:0:0:
344,336,104472,2,0,P|336:284|344:228,1,99.9999999999999,2|8,0:0|0:0,0:0:0:0:
376,144,105131,2,0,P|384:92|368:44,1,99.9999999999999,2|8,0:0|0:0,0:0:0:0:
320,40,105626,1,0,0:0:0:0:
280,72,105791,2,0,P|236:108|96:64,1,200,2|4,0:0|0:0,0:0:0:0:
24,136,106780,5,8,0:0:0:0:
12,236,107109,2,0,L|32:336,1,99.9999999999999,0|8,0:0|0:0,0:0:0:0:
132,320,107769,2,0,P|203:298|280:316,1,150,2|2,0:0|0:0,0:0:0:0:
376,316,108593,2,0,P|354:244|368:172,1,150,2|4,0:0|0:0,0:0:0:0:
436,96,109417,5,8,0:0:0:0:
356,36,109747,2,0,L|256:47,1,99.9999999999999,0|8,0:0|0:0,0:0:0:0:
216,140,110406,2,0,P|144:160|76:124,1,150,2|2,0:0|0:0,0:0:0:0:
152,60,111230,2,0,P|216:40|292:68,1,150,2|4,0:0|0:0,0:0:0:0:
312,164,112054,5,8,0:0:0:0:
252,244,112384,2,0,P|248:292|272:340,1,99.9999999999999,0|8,0:0|0:0,0:0:0:0:
344,276,113043,2,0,L|500:284,1,150,2|2,0:0|0:0,0:0:0:0:
468,188,113868,2,0,P|416:168|396:76,1,150,2|4,0:0|0:0,0:0:0:0:
300,48,114692,6,0,L|280:208,1,150,2|2,0:0|0:0,0:0:0:0:
160,284,115681,2,0,L|141:135,2,150,4|2|2,0:0|0:0|0:0,0:0:0:0:
256,316,116999,5,2,0:1:0:0:
80,72,118318,5,0,1:0:0:0:
180,64,118648,1,0,1:0:0:0:
280,56,118977,2,0,P|328:64|384:60,2,99.9999999999999,4|4|4,1:0|1:0|0:0,0:0:0:0:
256,192,119801,12,0,122274,0:0:0:0:
208,284,140735,6,0,P|256:296|304:284,1,99.9999999999999,4|8,1:2|0:0,0:0:0:0:
352,196,142054,2,0,P|304:184|256:196,1,99.9999999999999,0|8,0:0|0:0,0:0:0:0:
208,284,143373,2,0,P|160:296|112:284,1,99.9999999999999,0|10,1:0|0:0,0:0:0:0:
32,224,144691,2,0,P|19:175|31:127,1,99.9999999999999,2|10,0:0|0:0,0:0:0:0:
96,52,146010,6,0,L|200:44,1,99.9999999999999,2|8,1:2|0:0,0:0:0:0:
156,136,147329,2,0,L|260:128,1,99.9999999999999,0|8,0:0|0:0,0:0:0:0:
292,36,148647,2,0,L|396:28,1,99.9999999999999,0|10,1:0|0:0,0:0:0:0:
352,120,149966,2,0,L|456:112,2,99.9999999999999,2|10|4,0:0|0:0|1:2,0:0:0:0:
256,140,151944,5,8,0:0:0:0:
196,220,152604,2,0,P|188:272|208:320,1,99.9999999999999,0|8,0:0|0:0,0:0:0:0:
288,260,153922,1,4,1:2:0:0:
364,324,154582,1,10,0:0:0:0:
440,260,155241,2,0,L|444:152,2,99.9999999999999,2|10|4,0:0|0:0|1:2,0:0:0:0:
364,324,157219,5,8,0:0:0:0:
288,260,157878,2,0,P|240:252|188:264,1,99.9999999999999,0|8,0:0|0:0,0:0:0:0:
112,324,159197,1,6,1:2:0:0:
52,244,159856,1,8,0:0:0:0:
92,152,160516,2,0,P|100:104|88:52,1,99.9999999999999,2|8,0:0|0:0,0:0:0:0:
52,244,161834,6,0,P|148:236|195:147,2,200,2|2|2,0:0|0:0|0:0,0:0:0:0:
92,152,163482,1,8,0:0:0:0:
140,64,163812,2,0,P|180:48|240:56,1,99.9999999999999,2|8,0:0|0:0,0:0:0:0:
308,124,164471,5,4,0:0:0:0:
388,64,164801,1,8,0:0:0:0:
468,124,165130,2,0,L|476:232,1,99.9999999999999,2|8,0:0|0:0,0:0:0:0:
424,308,165790,2,0,P|376:320|320:312,1,99.9999999999999,2|8,0:0|0:0,0:0:0:0:
280,292,166284,2,0,P|208:280|148:324,1,150,2|8,0:0|0:0,0:0:0:0:
52,296,167108,6,0,P|88:264|100:212,1,99.9999999999999,2|8,0:0|0:0,0:0:0:0:
80,116,167768,2,0,P|132:120|176:148,1,99.9999999999999,2|10,0:0|0:0,0:0:0:0:
216,236,168427,1,2,0:0:0:0:
236,336,168757,1,8,0:0:0:0:
312,268,169086,2,0,P|356:260|412:272,2,99.9999999999999,2|8|2,0:0|0:0|0:0,0:0:0:0:
236,336,170075,5,8,0:0:0:0:
140,304,170405,2,0,P|95:315|44:303,1,99.9999999999999,2|10,0:0|0:0,0:0:0:0:
92,216,171064,2,0,L|84:108,1,99.9999999999999,2|8,0:0|0:0,0:0:0:0:
84,64,171559,2,0,P|144:96|224:80,1,150,2|8,0:0|0:0,0:0:0:0:
312,40,172383,6,0,P|320:84|304:136,1,99.9999999999999,2|8,0:0|0:0,0:0:0:0:
232,204,173042,2,0,P|185:188|136:196,1,99.9999999999999,2|10,0:0|0:0,0:0:0:0:
56,256,173702,2,0,P|56:304|136:360,1,150,2|2,0:0|0:0,0:0:0:0:
224,324,174526,1,2,0:0:0:0:
224,324,174691,2,0,P|272:320|328:332,1,99.9999999999999,10|4,0:0|0:0,0:0:0:0:
408,276,175350,5,8,0:0:0:0:
464,192,175680,2,0,P|468:144|456:92,1,99.9999999999999,2|8,0:0|0:0,0:0:0:0:
360,72,176339,2,0,P|356:120|368:172,1,99.9999999999999,2|8,0:0|0:0,0:0:0:0:
340,212,176834,2,0,P|288:236|188:216,1,150,2|8,0:0|0:0,0:0:0:0:
124,156,177658,6,0,P|76:148|24:160,1,99.9999999999999,2|8,0:0|0:0,0:0:0:0:
76,244,178317,2,0,P|36:272|8:317,1,99.9999999999999,2|8,0:0|0:0,0:0:0:0:
104,340,178976,2,0,L|256:336,1,150,2|2,0:0|0:0,0:0:0:0:
352,330,179801,2,0,P|323:263|256:236,1,150,2|2,0:0|0:0,0:0:0:0:
156,220,180625,5,8,0:0:0:0:
68,176,180954,2,0,P|52:128|60:72,1,99.9999999999999,2|8,0:0|0:0,0:0:0:0:
148,120,181614,2,0,P|220:128|292:96,1,150,2|0,0:0|0:0,0:0:0:0:
316,56,182273,2,0,L|328:164,1,99.9999999999999,2|10,0:0|0:0,0:0:0:0:
336,256,182932,6,0,P|396:228|428:152,2,150,2|2|10,0:0|0:0|0:0,0:0:0:0:
244,220,184251,2,0,L|136:228,1,99.9999999999999,4|10,0:0|0:0,0:0:0:0:
44,236,184910,2,0,P|32:188|40:136,2,99.9999999999999,2|10|4,0:0|0:0|0:0,0:0:0:0:
92,324,185899,5,8,0:0:0:0:
192,308,186229,2,0,P|240:304|296:316,1,99.9999999999999,2|10,0:0|0:0,0:0:0:0:
384,348,186888,2,0,P|420:316|451:268,1,99.9999999999999,2|10,0:0|0:0,0:0:0:0:
468,228,187383,2,0,P|472:164|444:72,1,150,2|10,0:0|0:0,0:0:0:0:
368,20,188207,5,2,0:0:0:0:
276,60,188537,1,8,0:0:0:0:
252,156,188866,2,0,L|248:264,1,99.9999999999999,2|10,0:0|0:0,0:0:0:0:
344,288,189526,2,0,L|347:188,1,99.9999999999999,2|10,0:0|0:0,0:0:0:0:
312,100,190185,2,0,P|272:76|216:84,1,99.9999999999999,2|8,0:0|0:0,0:0:0:0:
156,160,190844,6,0,P|148:208|163:255,1,99.9999999999999,2|8,0:0|0:0,0:0:0:0:
256,296,191504,2,0,P|263:247|248:200,1,99.9999999999999,2|10,0:0|0:0,0:0:0:0:
156,160,192163,2,0,L|56:168,1,99.9999999999999,2|8,0:0|0:0,0:0:0:0:
8,152,192658,2,0,P|4:104|88:36,1,150,2|10,0:0|0:0,0:0:0:0:
172,60,193482,5,2,0:0:0:0:
256,116,193812,1,8,0:0:0:0:
340,60,194141,2,0,P|388:56|440:68,1,99.9999999999999,2|10,0:0|0:0,0:0:0:0:
480,156,194801,2,0,L|492:320,2,150,2|2|10,0:0|0:0|0:0,0:0:0:0:
396,212,196119,6,0,P|348:216|296:200,1,99.9999999999999,4|8,0:0|0:0,0:0:0:0:
216,144,196779,2,0,P|168:136|116:156,2,99.9999999999999,2|8|2,0:0|0:0|0:0,0:0:0:0:
176,236,197768,1,8,0:0:0:0:
176,236,197932,2,0,P|108:248|40:208,1,150,2|10,0:0|0:0,0:0:0:0:
8,116,198757,5,2,0:0:0:0:
64,32,199086,1,8,0:0:0:0:
152,80,199416,2,0,P|204:84|256:76,1,99.9999999999999,2|8,0:0|0:0,0:0:0:0:
344,36,200075,2,0,P|352:88|332:136,1,99.9999999999999,2|8,0:0|0:0,0:0:0:0:
296,164,200570,2,0,L|304:268,1,99.9999999999999,2|2,0:0|0:0,0:0:0:0:
176,344,201394,6,0,P|128:348|72:328,1,99.9999999999999,4|8,0:0|0:0,0:0:0:0:
136,252,202053,2,0,P|99:220|73:167,1,99.9999999999999,0|8,0:0|0:0,0:0:0:0:
172,158,202713,2,0,P|167:110|187:54,1,99.9999999999999,4|8,0:0|0:0,0:0:0:0:
263,116,203372,2,0,P|294:79|347:53,1,99.9999999999999,2|10,0:0|0:0,0:0:0:0:
357,150,204031,6,0,P|405:146|461:166,1,99.9999999999999,4|8,0:0|0:0,0:0:0:0:
399,240,204691,2,0,P|435:271|461:324,1,99.9999999999999,4|8,0:0|0:0,0:0:0:0:
366,335,205350,2,0,P|316:324|260:328,1,99.9999999999999,4|2,0:0|0:0,0:0:0:0:
184,272,206009,2,0,P|134:283|78:279,1,99.9999999999999,4|2,0:0|0:0,0:0:0:0:
0,228,206669,5,4,0:0:0:0:
256,192,206833,12,0,209306,0:0:0:0:
