osu file format v14

[General]
AudioFilename: 03. Renatus - Soleily 192kbps.mp3
AudioLeadIn: 0
PreviewTime: 164471
Countdown: 0
SampleSet: Soft
StackLeniency: 0.7
Mode: 3
LetterboxInBreaks: 0
SpecialStyle: 0
WidescreenStoryboard: 0

[Editor]
Bookmarks: 966,227777
DistanceSpacing: 0.8
BeatDivisor: 2
GridSize: 32
TimelineZoom: 0.6999998

[Metadata]
Title:Renatus
TitleUnicode:Renatus
Artist:Soleily
ArtistUnicode:Soleily
Creator:ExPew
Version:Normal
Source:
Tags:MBC7 Unisphere 地球ヤバイEP Chikyu Yabai
BeatmapID:557820
BeatmapSetID:241526

[Difficulty]
HPDrainRate:7
CircleSize:7
OverallDifficulty:7
ApproachRate:5
SliderMultiplier:1.4
SliderTickRate:1

[Events]
//Background and Video events
0,0,"machinetop_background.jpg",0,0
//Break Periods
//Storyboard Layer 0 (Background)
//Storyboard Layer 1 (Fail)
//Storyboard Layer 2 (Pass)
//Storyboard Layer 3 (Foreground)
//Storyboard Sound Samples

[TimingPoints]
956,329.67032967033,4,2,0,40,1,0
119637,659.340659340659,4,2,0,40,1,0
119637,-57.1428571428571,4,2,0,40,0,0
161834,329.67032967033,4,2,0,40,1,0
164471,-100,4,2,0,40,0,1
206669,659.340659340659,4,2,0,40,1,0
206669,-57.1428571428571,4,2,0,40,0,0

[HitObjects]
109,192,956,5,0,0:0:0:0:
475,192,956,1,4,0:0:0:0:
182,192,1120,1,0,0:0:0:0:
256,192,1285,1,0,0:0:0:0:
329,192,1450,1,0,0:0:0:0:
329,192,1780,1,0,0:0:0:0:
182,192,2109,1,0,0:0:0:0:
36,192,2274,1,0,0:0:0:100:Kick.wav
402,192,2604,1,0,0:0:0:70:Snare.wav
109,192,2769,1,0,0:0:0:100:Kick.wav
109,192,3098,1,0,0:0:0:100:Kick.wav
402,192,3263,1,0,0:0:0:70:Snare.wav
36,192,3593,1,0,0:0:0:100:Kick.wav
329,192,3923,1,0,0:0:0:70:Snare.wav
36,192,4417,1,0,0:0:0:100:Kick.wav
329,192,4582,1,0,0:0:0:70:Snare.wav
36,192,4912,1,0,0:0:0:100:Kick.wav
402,192,5241,1,0,0:0:0:70:Snare.wav
109,192,5406,1,0,0:0:0:100:Kick.wav
109,192,5736,1,0,0:0:0:100:Kick.wav
402,192,5901,1,0,0:0:0:70:Snare.wav
36,192,6230,1,0,0:0:0:100:Kick.wav
329,192,6560,1,0,0:0:0:70:Snare.wav
36,192,7054,1,0,0:0:0:100:Kick.wav
329,192,7219,1,0,0:0:0:70:Snare.wav
36,192,7549,1,0,0:0:0:100:Kick.wav
402,192,7879,1,0,0:0:0:70:Snare.wav
109,192,8043,1,0,0:0:0:100:Kick.wav
109,192,8373,1,0,0:0:0:100:Kick.wav
402,192,8538,1,0,0:0:0:70:Snare.wav
36,192,8868,1,0,0:0:0:100:Kick.wav
329,192,9197,1,0,0:0:0:70:Snare.wav
36,192,9692,1,0,0:0:0:100:Kick.wav
329,192,9857,1,0,0:0:0:70:Snare.wav
36,192,10186,1,0,0:0:0:100:Kick.wav
402,192,10516,1,0,0:0:0:70:Snare.wav
109,192,10681,1,0,0:0:0:100:Kick.wav
109,192,11010,1,0,0:0:0:100:Kick.wav
402,192,11175,1,0,0:0:0:40:Snare.wav
256,192,11258,1,0,0:0:0:40:Snare.wav
402,192,11340,1,0,0:0:0:40:Snare.wav
475,192,11505,1,4,0:0:0:0:
109,192,11505,1,0,0:0:0:0:
182,192,11670,1,0,0:0:0:0:
256,192,11835,1,0,0:0:0:0:
402,192,11999,1,0,0:0:0:0:
402,192,12329,1,0,0:0:0:0:
329,192,12494,1,0,0:0:0:0:
256,192,12659,1,0,0:0:0:0:
36,192,12824,1,0,0:0:0:100:Kick.wav
402,192,13153,1,0,0:0:0:70:Snare.wav
109,192,13318,1,0,0:0:0:100:Kick.wav
109,192,13648,1,0,0:0:0:100:Kick.wav
402,192,13813,1,0,0:0:0:70:Snare.wav
36,192,14142,1,0,0:0:0:100:Kick.wav
329,192,14472,1,0,0:0:0:70:Snare.wav
36,192,14966,1,0,0:0:0:100:Kick.wav
329,192,15131,1,0,0:0:0:70:Snare.wav
36,192,15461,1,0,0:0:0:100:Kick.wav
402,192,15791,1,0,0:0:0:70:Snare.wav
109,192,15956,1,0,0:0:0:100:Kick.wav
109,192,16285,1,0,0:0:0:100:Kick.wav
402,192,16450,1,0,0:0:0:70:Snare.wav
36,192,16780,1,0,0:0:0:100:Kick.wav
329,192,17109,1,0,0:0:0:70:Snare.wav
36,192,17604,1,0,0:0:0:100:Kick.wav
329,192,17769,1,0,0:0:0:70:Snare.wav
36,192,18098,1,0,0:0:0:100:Kick.wav
402,192,18428,1,0,0:0:0:70:Snare.wav
109,192,18593,1,0,0:0:0:100:Kick.wav
109,192,18923,1,0,0:0:0:100:Kick.wav
402,192,19087,1,0,0:0:0:70:Snare.wav
36,192,19417,1,0,0:0:0:100:Kick.wav
329,192,19747,1,0,0:0:0:70:Snare.wav
36,192,20241,1,0,0:0:0:100:Kick.wav
329,192,20406,1,0,0:0:0:70:Snare.wav
109,192,20736,1,0,0:0:0:100:Kick.wav
402,192,20736,1,0,0:0:0:0:
109,192,21230,1,0,0:0:0:100:Kick.wav
402,192,21230,1,0,0:0:0:0:
109,192,21560,1,0,0:0:0:100:Kick.wav
402,192,21560,1,0,0:0:0:0:
109,192,22054,1,0,0:0:0:0:
475,192,22054,1,4,0:0:0:0:
182,192,22219,1,0,0:0:0:0:
256,192,22384,1,0,0:0:0:0:
329,192,22549,1,0,0:0:0:0:
329,192,22879,1,0,0:0:0:0:
182,192,23208,1,0,0:0:0:0:
109,192,23538,1,0,0:0:0:0:
256,192,23703,1,0,0:0:0:0:
36,192,23868,1,0,0:0:0:0:
109,192,24197,1,0,0:0:0:0:
182,192,24362,1,0,0:0:0:0:
256,192,24527,1,0,0:0:0:0:
329,192,24692,1,0,0:0:0:0:
329,192,24857,1,0,0:0:0:0:
402,192,25021,1,0,0:0:0:0:
256,192,25186,1,0,0:0:0:0:
182,192,25516,1,0,0:0:0:0:
329,192,25846,1,0,0:0:0:0:
256,192,26175,1,0,0:0:0:0:
329,192,26340,1,0,0:0:0:0:
402,192,26505,1,0,0:0:0:0:
329,192,26835,1,0,0:0:0:0:
256,192,27164,1,0,0:0:0:0:
182,192,27494,1,0,0:0:0:0:
36,192,27659,1,0,0:0:0:0:
182,192,27824,1,0,0:0:0:0:
329,192,28318,128,2,28648:0:0:0:0:
256,192,28977,128,2,29307:0:0:0:0:
402,192,29472,1,0,0:0:0:0:
329,192,29637,1,0,0:0:0:0:
256,192,29802,1,0,0:0:0:0:
182,192,29966,1,0,0:0:0:0:
182,192,30296,1,0,0:0:0:0:
329,192,30461,1,0,0:0:0:0:
109,192,30791,1,0,0:0:0:0:
256,192,30956,1,0,0:0:0:0:
256,192,31285,1,0,0:0:0:0:
402,192,31450,1,0,0:0:0:0:
182,192,31780,1,0,0:0:0:0:
402,192,32109,1,0,0:0:0:0:
329,192,32274,1,0,0:0:0:0:
256,192,32439,1,0,0:0:0:0:
109,192,32604,1,0,0:0:0:0:
475,192,32604,1,4,0:0:0:0:
182,192,32769,1,0,0:0:0:0:
256,192,32934,1,0,0:0:0:0:
329,192,33098,1,0,0:0:0:0:
329,192,33428,1,0,0:0:0:0:
182,192,33758,1,0,0:0:0:0:
36,192,34087,1,0,0:0:0:0:
182,192,34252,1,0,0:0:0:0:
36,192,34417,1,0,0:0:0:0:
109,192,34747,1,0,0:0:0:0:
182,192,34912,1,0,0:0:0:0:
256,192,35076,1,0,0:0:0:0:
329,192,35241,1,0,0:0:0:0:
329,192,35406,1,0,0:0:0:0:
475,192,35571,1,0,0:0:0:0:
256,192,35736,1,0,0:0:0:0:
109,192,36065,1,0,0:0:0:0:
256,192,36395,1,0,0:0:0:0:
256,192,36725,1,0,0:0:0:0:
329,192,36890,1,0,0:0:0:0:
402,192,37054,1,0,0:0:0:0:
256,192,37384,1,0,0:0:0:0:
182,192,37714,1,0,0:0:0:0:
109,192,38043,1,0,0:0:0:0:
36,192,38208,1,0,0:0:0:0:
256,192,38373,1,0,0:0:0:0:
329,192,38868,128,2,39197:0:0:0:0:
256,192,39527,128,2,39857:0:0:0:0:
475,192,40021,1,0,0:0:0:0:
36,192,40021,1,0,0:0:0:0:
182,192,40186,1,0,0:0:0:0:
329,192,40186,1,0,0:0:0:0:
256,192,40351,1,0,0:0:0:0:
36,192,40516,1,0,0:0:0:100:Kick.wav
475,192,40516,1,4,0:0:0:0:
109,192,41010,1,0,0:0:0:100:Kick.wav
402,192,41010,1,4,0:0:0:0:
36,192,41505,1,0,0:0:0:100:Kick.wav
475,192,41505,1,4,0:0:0:0:
182,192,41835,1,0,0:0:0:0:
329,192,41999,1,0,0:0:0:0:
36,192,42329,1,0,0:0:0:0:
182,192,42329,1,2,3:0:0:0:
329,192,42494,1,2,3:0:0:0:
475,192,42659,1,2,3:0:0:0:
329,192,42824,1,2,3:0:0:0:
182,192,42988,1,2,3:0:0:0:
36,192,43153,1,0,0:0:0:100:Kick.wav
475,192,43153,1,4,0:0:0:0:
329,192,43483,1,0,0:0:0:70:Snare.wav
36,192,43977,1,0,0:0:0:100:Kick.wav
329,192,44142,1,0,0:0:0:70:Snare.wav
36,192,44472,1,0,0:0:0:100:Kick.wav
402,192,44802,1,0,0:0:0:70:Snare.wav
109,192,44966,1,0,0:0:0:100:Kick.wav
109,192,45296,1,0,0:0:0:100:Kick.wav
402,192,45461,1,0,0:0:0:70:Snare.wav
36,192,45791,1,0,0:0:0:100:Kick.wav
329,192,46120,1,0,0:0:0:70:Snare.wav
36,192,46615,1,0,0:0:0:100:Kick.wav
329,192,46780,1,0,0:0:0:70:Snare.wav
36,192,47109,1,0,0:0:0:100:Kick.wav
402,192,47439,1,0,0:0:0:70:Snare.wav
109,192,47604,1,0,0:0:0:100:Kick.wav
109,192,47934,1,0,0:0:0:100:Kick.wav
402,192,48098,1,0,0:0:0:70:Snare.wav
475,192,48428,1,0,0:0:0:0:
36,192,48428,1,0,0:0:0:80:Kick.wav
329,192,48758,1,0,0:0:0:40:Snare.wav
36,192,49252,1,0,0:0:0:80:Kick.wav
329,192,49417,1,0,0:0:0:40:Snare.wav
475,192,49747,1,0,0:0:0:0:
36,192,49747,1,0,0:0:0:80:Kick.wav
402,192,50076,1,0,0:0:0:40:Snare.wav
109,192,50241,1,0,0:0:0:80:Kick.wav
109,192,50571,1,0,0:0:0:80:Kick.wav
402,192,50736,1,0,0:0:0:40:Snare.wav
36,192,51065,1,0,0:0:0:70:Kick.wav
475,192,51065,1,0,0:0:0:0:
402,192,51395,1,0,0:0:0:40:Snare.wav
109,192,51890,1,0,0:0:0:70:Kick.wav
402,192,52054,1,0,0:0:0:40:Snare.wav
36,192,52384,1,0,0:0:0:70:Kick.wav
182,192,52549,1,0,0:0:0:70:Kick.wav
329,192,52714,1,0,0:0:0:70:Kick.wav
475,192,52714,1,0,0:0:0:40:Snare.wav
36,192,52879,1,0,0:0:0:70:Kick.wav
36,192,53208,1,0,0:0:0:70:Kick.wav
256,192,53373,128,0,53703:0:0:0:0:
475,192,53703,1,4,0:0:0:0:
109,192,53703,1,0,0:0:0:0:
329,192,53868,1,0,0:0:0:0:
182,192,54032,1,0,0:0:0:0:
329,192,54362,1,0,0:0:0:0:
475,192,54445,1,0,0:0:0:0:
329,192,54527,1,0,0:0:0:0:
182,192,54692,1,0,0:0:0:0:
109,192,54857,1,0,0:0:0:0:
36,192,55021,1,0,0:0:0:0:
256,192,55186,1,0,0:0:0:0:
109,192,55269,1,0,0:0:0:0:
256,192,55351,1,0,0:0:0:0:
329,192,55516,1,0,0:0:0:0:
402,192,55681,1,0,0:0:0:0:
182,192,55846,1,0,0:0:0:0:
256,192,56010,1,0,0:0:0:0:
329,192,56175,1,0,0:0:0:0:
182,192,56505,1,0,0:0:0:0:
36,192,56587,1,0,0:0:0:0:
182,192,56670,1,0,0:0:0:0:
256,192,56835,1,0,0:0:0:0:
329,192,56999,1,0,0:0:0:0:
182,192,57164,1,0,0:0:0:0:
329,192,57329,1,0,0:0:0:0:
475,192,57494,1,0,0:0:0:0:
256,192,57824,1,0,0:0:0:0:
109,192,57988,1,0,0:0:0:0:
256,192,58153,1,0,0:0:0:0:
109,192,58318,1,0,0:0:0:0:
36,192,58483,1,0,0:0:0:0:
182,192,58648,1,0,0:0:0:0:
109,192,58813,1,0,0:0:0:0:
256,192,58977,1,0,0:0:0:0:
329,192,59307,1,0,0:0:0:0:
109,192,59637,1,0,0:0:0:0:
182,192,59802,1,0,0:0:0:0:
329,192,59966,1,0,0:0:0:0:
402,192,60131,1,0,0:0:0:0:
329,192,60461,1,0,0:0:0:0:
182,192,60626,1,0,0:0:0:0:
329,192,60791,1,0,0:0:0:0:
402,192,60873,1,0,0:0:0:0:
475,192,60956,1,0,0:0:0:0:
329,192,61038,1,0,0:0:0:0:
256,192,61120,1,0,0:0:0:0:
182,192,61203,1,0,0:0:0:0:
36,192,61285,1,0,0:0:0:0:
256,192,61368,1,0,0:0:0:0:
109,192,61450,1,0,0:0:0:0:
329,192,61532,1,0,0:0:0:0:
36,192,61615,1,0,0:0:0:0:
475,192,61615,1,0,0:0:0:0:
329,192,61780,1,0,0:0:0:0:
109,192,61945,1,0,0:0:0:0:
256,192,62109,1,0,0:0:0:0:
182,192,62439,1,0,0:0:0:0:
256,192,62604,1,0,0:0:0:0:
329,192,62769,1,0,0:0:0:0:
402,192,63098,1,0,0:0:0:0:
475,192,63098,1,2,0:0:0:0:
402,192,63428,1,2,0:0:0:0:
329,192,63428,1,0,0:0:0:0:
329,192,63758,1,2,0:0:0:0:
256,192,63758,1,0,0:0:0:0:
256,192,64087,1,2,0:0:0:0:
182,192,64087,1,0,0:0:0:0:
402,192,64252,1,4,0:0:0:0:
36,192,64252,1,0,0:0:0:0:
182,192,64417,1,0,0:0:0:0:
329,192,64582,1,0,0:0:0:0:
182,192,64912,1,0,0:0:0:0:
329,192,64994,1,0,0:0:0:0:
182,192,65076,1,0,0:0:0:0:
36,192,65406,1,0,0:0:0:0:
256,192,65736,1,0,0:0:0:0:
109,192,65818,1,0,0:0:0:0:
256,192,65901,1,0,0:0:0:0:
329,192,66065,1,0,0:0:0:0:
402,192,66230,1,0,0:0:0:0:
182,192,66395,1,0,0:0:0:0:
256,192,66560,1,0,0:0:0:0:
329,192,66725,1,0,0:0:0:0:
402,192,67054,1,0,0:0:0:0:
256,192,67137,1,0,0:0:0:0:
402,192,67219,1,0,0:0:0:0:
329,192,67384,1,0,0:0:0:0:
475,192,67549,1,0,0:0:0:0:
109,192,67714,1,0,0:0:0:0:
256,192,67879,1,0,0:0:0:0:
402,192,68043,1,0,0:0:0:0:
256,192,68373,1,0,0:0:0:0:
402,192,68538,1,0,0:0:0:0:
256,192,68703,1,0,0:0:0:0:
402,192,68868,1,0,0:0:0:0:
182,192,69032,1,0,0:0:0:0:
329,192,69197,1,0,0:0:0:0:
402,192,69362,1,0,0:0:0:0:
256,192,69527,1,0,0:0:0:0:
402,192,69692,1,0,0:0:0:0:
182,192,69774,1,0,0:0:0:0:
109,192,69857,1,0,0:0:0:0:
329,192,69939,1,0,0:0:0:0:
402,192,70021,1,0,0:0:0:0:
182,192,70186,1,0,0:0:0:0:
329,192,70269,1,0,0:0:0:0:
402,192,70351,1,0,0:0:0:0:
475,192,70434,1,0,0:0:0:0:
36,192,70516,1,0,0:0:0:0:
182,192,70598,1,0,0:0:0:0:
256,192,70681,1,0,0:0:0:0:
329,192,70763,1,0,0:0:0:0:
475,192,70846,1,0,0:0:0:0:
182,192,71010,1,0,0:0:0:0:
402,192,71175,1,0,0:0:0:0:
109,192,71340,1,0,0:0:0:0:
475,192,71670,1,0,0:0:0:0:
402,192,71835,1,0,0:0:0:0:
329,192,71999,1,0,0:0:0:0:
256,192,72164,1,0,0:0:0:100:Kick.wav
475,192,72164,1,0,0:0:0:0:
109,192,72494,1,0,0:0:0:70:Snare.wav
256,192,72988,1,0,0:0:0:100:Kick.wav
109,192,73153,1,0,0:0:0:70:Snare.wav
36,192,73483,1,0,0:0:0:100:Kick.wav
182,192,73483,1,4,0:0:0:0:
36,192,73977,1,0,0:0:0:100:Kick.wav
182,192,73977,1,4,0:0:0:0:
182,192,74472,1,0,0:0:0:40:Snare.wav
36,192,74472,1,0,0:0:0:100:Kick.wav
329,192,74554,1,0,0:0:0:40:Snare.wav
256,192,74637,1,0,0:0:0:40:Snare.wav
182,192,74719,1,0,0:0:0:40:Snare.wav
329,192,74802,1,4,0:0:0:0:
475,192,74802,1,0,0:0:0:100:Kick.wav
402,192,75296,1,0,0:0:0:100:Kick.wav
256,192,75296,1,4,0:0:0:0:
182,192,76120,1,4,0:0:0:0:
36,192,76120,1,0,0:0:0:100:Kick.wav
256,192,76615,1,4,0:0:0:0:
402,192,76615,1,0,0:0:0:100:Kick.wav
475,192,77439,1,0,0:0:0:100:Kick.wav
36,192,77439,1,4,0:0:0:0:
329,192,77769,1,0,0:0:0:70:Snare.wav
182,192,78263,1,0,0:0:0:100:Kick.wav
329,192,78428,1,0,0:0:0:70:Snare.wav
475,192,78758,1,0,0:0:0:100:Kick.wav
36,192,78758,1,0,0:0:0:0:
329,192,79087,1,0,0:0:0:70:Snare.wav
182,192,79252,1,0,0:0:0:100:Kick.wav
182,192,79582,1,0,0:0:0:100:Kick.wav
402,192,79747,1,0,0:0:0:40:Snare.wav
109,192,79829,1,0,0:0:0:40:Snare.wav
402,192,79912,1,0,0:0:0:40:Snare.wav
475,192,80076,1,0,0:0:0:100:Kick.wav
36,192,80076,1,4,0:0:0:0:
109,192,80571,1,4,0:0:0:0:
402,192,80571,1,0,0:0:0:100:Kick.wav
402,192,81395,1,0,0:0:0:100:Kick.wav
109,192,81395,1,4,0:0:0:0:
36,192,81890,1,4,0:0:0:0:
475,192,81890,1,0,0:0:0:100:Kick.wav
475,192,82714,1,0,0:0:0:100:Kick.wav
36,192,82714,1,0,0:0:0:0:
402,192,83043,1,0,0:0:0:70:Snare.wav
109,192,83538,1,0,0:0:0:100:Kick.wav
402,192,83703,1,0,0:0:0:70:Snare.wav
475,192,84032,1,0,0:0:0:100:Kick.wav
36,192,84032,1,0,0:0:0:0:
402,192,84362,1,0,0:0:0:70:Snare.wav
109,192,84527,1,0,0:0:0:100:Kick.wav
109,192,84857,1,0,0:0:0:100:Kick.wav
329,192,85021,1,0,0:0:0:40:Snare.wav
182,192,85104,1,0,0:0:0:40:Snare.wav
329,192,85186,1,0,0:0:0:40:Snare.wav
36,192,85351,1,4,0:0:0:0:
475,192,85351,1,0,0:0:0:100:Kick.wav
109,192,85846,1,4,0:0:0:0:
182,192,85846,1,0,0:0:0:100:Kick.wav
329,192,86670,1,0,0:0:0:100:Kick.wav
256,192,86670,1,4,0:0:0:0:
475,192,87164,1,0,0:0:0:0:
402,192,87164,1,0,0:0:0:0:
475,192,87988,1,0,0:0:0:100:Kick.wav
256,192,87988,1,4,0:0:0:0:
109,192,88318,1,0,0:0:0:70:Snare.wav
402,192,88813,1,0,0:0:0:100:Kick.wav
109,192,88977,1,0,0:0:0:70:Snare.wav
256,192,89307,1,0,0:0:0:100:Kick.wav
36,192,89307,1,0,0:0:0:0:
109,192,89637,1,0,0:0:0:70:Snare.wav
475,192,89802,1,0,0:0:0:100:Kick.wav
475,192,90131,1,0,0:0:0:100:Kick.wav
109,192,90296,1,0,0:0:0:40:Snare.wav
329,192,90379,1,0,0:0:0:40:Snare.wav
109,192,90461,1,0,0:0:0:40:Snare.wav
36,192,90626,1,4,0:0:0:0:
182,192,90626,1,0,0:0:0:100:Kick.wav
109,192,91120,1,4,0:0:0:0:
256,192,91120,1,0,0:0:0:100:Kick.wav
256,192,91945,1,0,0:0:0:100:Kick.wav
109,192,91945,1,4,0:0:0:0:
182,192,92439,1,0,0:0:0:0:
329,192,92439,1,0,0:0:0:0:
256,192,93263,1,0,0:0:0:100:Kick.wav
36,192,93263,1,4,0:0:0:0:
402,192,93428,1,0,0:0:0:100:Kick.wav
256,192,93593,1,0,0:0:0:100:Kick.wav
109,192,93758,1,0,0:0:0:100:Kick.wav
256,192,93923,1,0,0:0:0:100:Kick.wav
402,192,94087,1,0,0:0:0:100:Kick.wav
256,192,94252,1,0,0:0:0:100:Kick.wav
109,192,94417,1,0,0:0:0:100:Kick.wav
402,192,94582,1,4,0:0:0:0:
475,192,94582,1,0,0:0:0:100:Kick.wav
109,192,94912,1,0,0:0:0:100:Kick.wav
256,192,94912,1,0,0:0:0:70:Snare.wav
182,192,95241,1,0,0:0:0:100:Kick.wav
329,192,95406,1,0,0:0:0:100:Kick.wav
475,192,95571,1,0,0:0:0:40:Snare.wav
256,192,95653,1,0,0:0:0:40:Snare.wav
329,192,95736,1,0,0:0:0:40:Snare.wav
402,192,95818,1,0,0:0:0:40:Snare.wav
36,192,95901,1,4,0:0:0:0:
182,192,95901,1,0,0:0:0:75:Kick.wav
329,192,96230,1,0,0:0:0:70:Snare.wav
109,192,96725,1,0,0:0:0:100:Kick.wav
329,192,96890,1,0,0:0:0:70:Snare.wav
182,192,97219,1,0,0:0:0:100:Kick.wav
402,192,97549,1,0,0:0:0:70:Snare.wav
109,192,97714,1,0,0:0:0:100:Kick.wav
109,192,98043,1,0,0:0:0:100:Kick.wav
402,192,98208,1,0,0:0:0:70:Snare.wav
182,192,98538,1,0,0:0:0:100:Kick.wav
329,192,98868,1,0,0:0:0:70:Snare.wav
109,192,99362,1,0,0:0:0:100:Kick.wav
329,192,99527,1,0,0:0:0:70:Snare.wav
182,192,99857,1,0,0:0:0:100:Kick.wav
402,192,100186,1,0,0:0:0:70:Snare.wav
109,192,100351,1,0,0:0:0:100:Kick.wav
109,192,100681,1,0,0:0:0:100:Kick.wav
402,192,100846,1,0,0:0:0:70:Snare.wav
36,192,101010,1,0,0:0:0:100:Kick.wav
36,192,101175,1,0,0:0:0:100:Kick.wav
475,192,101505,1,0,0:0:0:70:Snare.wav
109,192,101999,1,0,0:0:0:100:Kick.wav
402,192,102164,1,0,0:0:0:70:Snare.wav
36,192,102494,1,0,0:0:0:100:Kick.wav
475,192,102824,1,0,0:0:0:70:Snare.wav
109,192,102988,1,0,0:0:0:100:Kick.wav
109,192,103318,1,0,0:0:0:100:Kick.wav
475,192,103483,1,0,0:0:0:70:Snare.wav
36,192,103813,1,0,0:0:0:100:Kick.wav
475,192,104142,1,0,0:0:0:70:Snare.wav
109,192,104637,1,0,0:0:0:100:Kick.wav
402,192,104802,1,0,0:0:0:70:Snare.wav
36,192,105131,1,0,0:0:0:100:Kick.wav
475,192,105461,1,0,0:0:0:70:Snare.wav
109,192,105626,1,0,0:0:0:100:Kick.wav
109,192,105956,1,0,0:0:0:100:Kick.wav
475,192,106120,1,0,0:0:0:70:Snare.wav
329,192,106285,1,0,0:0:0:100:Kick.wav
329,192,106450,1,0,0:0:0:100:Kick.wav
475,192,106450,1,4,0:0:0:0:
182,192,106780,1,0,0:0:0:70:Snare.wav
402,192,107274,1,0,0:0:0:100:Kick.wav
182,192,107439,1,0,0:0:0:70:Snare.wav
329,192,107769,1,0,0:0:0:100:Kick.wav
109,192,108098,1,0,0:0:0:70:Snare.wav
402,192,108263,1,0,0:0:0:100:Kick.wav
402,192,108593,1,0,0:0:0:100:Kick.wav
109,192,108758,1,0,0:0:0:70:Snare.wav
329,192,109087,1,0,0:0:0:100:Kick.wav
182,192,109417,1,0,0:0:0:70:Snare.wav
402,192,109912,1,0,0:0:0:100:Kick.wav
182,192,110076,1,0,0:0:0:70:Snare.wav
329,192,110406,1,0,0:0:0:100:Kick.wav
109,192,110736,1,0,0:0:0:70:Snare.wav
402,192,110901,1,0,0:0:0:100:Kick.wav
402,192,111230,1,0,0:0:0:100:Kick.wav
109,192,111395,1,0,0:0:0:70:Snare.wav
475,192,111560,1,0,0:0:0:100:Kick.wav
475,192,111725,1,0,0:0:0:100:Kick.wav
256,192,111725,1,4,0:0:0:0:
36,192,112054,1,0,0:0:0:70:Snare.wav
402,192,112549,1,0,0:0:0:100:Kick.wav
109,192,112714,1,0,0:0:0:70:Snare.wav
475,192,113043,1,0,0:0:0:100:Kick.wav
36,192,113373,1,0,0:0:0:70:Snare.wav
402,192,113538,1,0,0:0:0:100:Kick.wav
402,192,113868,1,0,0:0:0:100:Kick.wav
36,192,114032,1,0,0:0:0:70:Snare.wav
256,192,114362,1,4,0:0:0:0:
475,192,114362,1,0,0:0:0:100:Kick.wav
36,192,114692,1,0,0:0:0:70:Snare.wav
402,192,115186,1,0,0:0:0:100:Kick.wav
109,192,115351,1,0,0:0:0:70:Snare.wav
256,192,115681,1,4,0:0:0:0:
475,192,115681,1,0,0:0:0:100:Kick.wav
36,192,116010,1,0,0:0:0:70:Snare.wav
402,192,116175,5,0,0:0:0:100:Kick.wav
402,192,116505,1,0,0:0:0:100:Kick.wav
36,192,116670,1,0,0:0:0:70:Snare.wav
256,192,116999,128,2,117329:0:0:0:0:
402,192,117329,128,2,117659:0:0:0:0:
109,192,117659,128,2,117988:0:0:0:0:
475,192,117988,1,2,0:0:0:0:
256,192,118153,1,2,0:0:0:0:
36,192,118318,1,0,0:0:0:80:Kick.wav
329,192,118483,1,0,0:0:0:80:Kick.wav
109,192,118648,1,0,0:0:0:80:Kick.wav
402,192,118813,1,0,0:0:0:80:Kick.wav
182,192,118977,1,0,0:0:0:80:Kick.wav
36,192,118977,128,0,119637:0:0:0:0:
256,192,119307,1,0,0:0:0:80:Kick.wav
475,192,119637,128,0,122274:0:0:0:0:
329,192,119637,1,4,0:0:0:0:
329,192,122274,128,0,124911:0:0:0:0:
182,192,124911,128,0,127549:0:0:0:0:
36,192,127549,128,0,130186:0:0:0:0:
402,192,130186,128,0,132823:0:0:0:0:
109,192,132823,128,0,135461:0:0:0:0:
329,192,135461,128,0,138098:0:0:0:0:
182,192,138098,128,0,140735:0:0:0:0:
36,192,140735,1,0,0:0:0:75:Kick.wav
475,192,140735,1,4,0:0:0:0:
329,192,141395,1,0,0:0:0:70:D_Clap.wav
109,192,142384,1,0,0:0:0:75:Kick.wav
402,192,142713,1,0,0:0:0:50:D_Snare.wav
36,192,143373,1,0,0:0:0:75:Kick.wav
402,192,144032,1,0,0:0:0:70:D_Clap.wav
109,192,145021,1,0,0:0:0:75:Kick.wav
475,192,145351,1,0,0:0:0:50:D_Snare.wav
182,192,146010,1,0,0:0:0:75:Kick.wav
402,192,146669,1,0,0:0:0:70:D_Clap.wav
109,192,147658,1,0,0:0:0:75:Kick.wav
475,192,147988,1,0,0:0:0:50:D_Snare.wav
36,192,148647,1,0,0:0:0:75:Kick.wav
402,192,149307,1,0,0:0:0:70:D_Clap.wav
36,192,150296,1,0,0:0:0:75:Kick.wav
402,192,150626,1,0,0:0:0:50:D_Snare.wav
109,192,151285,1,0,0:0:0:75:Kick.wav
475,192,151285,1,4,0:0:0:0:
109,192,153922,1,0,0:0:0:75:Kick.wav
475,192,153922,1,4,0:0:0:0:
109,192,156560,1,0,0:0:0:75:Kick.wav
475,192,156560,1,4,0:0:0:0:
329,192,156560,1,0,0:0:0:0:
256,192,157219,1,0,0:0:0:70:D_Clap.wav
256,192,158208,1,0,0:0:0:75:Kick.wav
402,192,158538,1,0,0:0:0:50:D_Snare.wav
36,192,159197,1,0,0:0:0:75:Kick.wav
329,192,159856,1,0,0:0:0:70:D_Clap.wav
36,192,160845,1,0,0:0:0:75:Kick.wav
329,192,161175,1,0,0:0:0:50:D_Snare.wav
182,192,161834,1,0,0:0:0:100:Kick.wav
329,192,161998,1,0,0:0:0:100:Kick.wav
182,192,162163,1,0,0:0:0:100:Kick.wav
36,192,162163,1,0,0:0:0:70:Snare.wav
475,192,162328,1,0,0:0:0:100:Kick.wav
329,192,162493,1,0,0:0:0:100:Kick.wav
182,192,162658,1,0,0:0:0:100:Kick.wav
329,192,162823,1,0,0:0:0:100:Kick.wav
475,192,162823,1,0,0:0:0:70:Snare.wav
36,192,162987,1,0,0:0:0:100:Kick.wav
329,192,163152,1,0,0:0:0:100:Kick.wav
475,192,163317,1,0,0:0:0:100:Kick.wav
182,192,163482,1,0,0:0:0:100:Kick.wav
329,192,163647,1,0,0:0:0:100:Kick.wav
36,192,163812,1,0,0:0:0:100:Kick.wav
182,192,163976,1,0,0:0:0:100:Kick.wav
329,192,164141,1,0,0:0:0:40:Snare.wav
475,192,164141,1,8,0:0:0:0:
109,192,164471,1,4,0:0:0:0:
256,192,164471,1,0,0:0:0:0:
475,192,164636,1,0,0:0:0:0:
329,192,164801,1,0,0:0:0:0:
182,192,164965,1,0,0:0:0:0:
36,192,165130,1,2,0:0:0:0:
256,192,165460,1,2,0:0:0:0:
36,192,165790,1,0,0:0:0:0:
475,192,165954,1,0,0:0:0:0:
329,192,166119,1,0,0:0:0:0:
182,192,166284,128,2,166779:0:0:0:0:
109,192,167108,1,0,0:0:0:0:
475,192,167273,1,0,0:0:0:0:
329,192,167438,1,0,0:0:0:0:
182,192,167603,1,0,0:0:0:0:
36,192,167768,1,2,0:0:0:0:
329,192,168097,1,2,0:0:0:0:
109,192,168427,1,0,0:0:0:0:
256,192,168592,1,0,0:0:0:0:
402,192,168757,1,0,0:0:0:0:
182,192,168921,128,2,169416:0:0:0:0:
36,192,169746,1,0,0:0:0:0:
475,192,169910,1,0,0:0:0:0:
329,192,170075,1,0,0:0:0:0:
182,192,170240,1,0,0:0:0:0:
36,192,170405,1,2,0:0:0:0:
256,192,170735,1,2,0:0:0:0:
109,192,171064,1,0,0:0:0:0:
475,192,171229,1,0,0:0:0:0:
329,192,171394,1,0,0:0:0:0:
182,192,171559,128,2,172053:0:0:0:0:
109,192,172383,1,0,0:0:0:0:
475,192,172548,1,0,0:0:0:0:
329,192,172713,1,0,0:0:0:0:
182,192,172877,1,0,0:0:0:0:
36,192,173042,1,2,0:0:0:0:
329,192,173372,1,2,0:0:0:0:
36,192,173702,1,0,0:0:0:0:
182,192,173866,1,0,0:0:0:0:
329,192,174031,1,0,0:0:0:0:
475,192,174196,1,2,0:0:0:0:
402,192,174526,1,2,0:0:0:0:
256,192,174691,1,2,0:0:0:0:
329,192,175020,1,0,0:0:0:0:
36,192,175185,1,0,0:0:0:0:
329,192,175350,1,0,0:0:0:0:
36,192,175515,1,0,0:0:0:0:
402,192,175680,1,2,0:0:0:0:
256,192,175844,1,0,0:0:0:0:
182,192,176009,1,2,0:0:0:0:
36,192,176174,1,0,0:0:0:0:
182,192,176339,1,0,0:0:0:0:
329,192,176504,1,0,0:0:0:0:
475,192,176669,1,0,0:0:0:0:
109,192,176834,128,2,177328:0:0:0:0:
475,192,177658,1,0,0:0:0:0:
182,192,177823,1,0,0:0:0:0:
475,192,177987,1,0,0:0:0:0:
182,192,178152,1,0,0:0:0:0:
36,192,178317,1,2,0:0:0:0:
402,192,178482,1,0,0:0:0:0:
256,192,178647,1,2,0:0:0:0:
109,192,178812,1,0,0:0:0:0:
475,192,178976,1,0,0:0:0:0:
36,192,179141,1,0,0:0:0:0:
182,192,179306,1,0,0:0:0:0:
329,192,179471,1,2,0:0:0:0:
182,192,179801,1,2,0:0:0:0:
182,192,180130,1,2,0:0:0:0:
402,192,180295,1,0,0:0:0:0:
256,192,180460,1,0,0:0:0:0:
109,192,180625,1,2,0:0:0:0:
329,192,180790,1,0,0:0:0:0:
109,192,180954,1,2,0:0:0:0:
256,192,181119,1,0,0:0:0:0:
402,192,181284,1,0,0:0:0:0:
182,192,181449,1,0,0:0:0:0:
475,192,181614,1,2,0:0:0:0:
256,192,181779,1,2,0:0:0:0:
36,192,182108,1,2,0:0:0:0:
402,192,182438,1,0,0:0:0:0:
36,192,182603,1,0,0:0:0:0:
182,192,182768,1,0,0:0:0:0:
402,192,182932,1,0,0:0:0:0:
109,192,183097,1,0,0:0:0:0:
329,192,183262,1,0,0:0:0:0:
475,192,183427,1,2,0:0:0:0:
329,192,183757,1,2,0:0:0:0:
109,192,183921,1,0,0:0:0:0:
402,192,184086,1,2,0:0:0:0:
182,192,184251,1,0,0:0:0:0:
36,192,184416,1,0,0:0:0:0:
475,192,184581,1,0,0:0:0:0:
329,192,184746,1,0,0:0:0:0:
182,192,184910,128,2,185570:0:0:0:0:
36,192,185570,1,4,0:0:0:0:
402,192,185570,1,0,0:0:0:0:
475,192,185735,1,0,0:0:0:0:
329,192,185899,1,0,0:0:0:0:
256,192,186064,1,0,0:0:0:0:
109,192,186229,1,2,0:0:0:0:
402,192,186559,1,2,0:0:0:0:
475,192,186888,1,0,0:0:0:0:
329,192,187053,1,0,0:0:0:0:
182,192,187218,1,0,0:0:0:0:
36,192,187383,128,2,187877:0:0:0:0:
36,192,188207,1,0,0:0:0:0:
475,192,188372,1,0,0:0:0:0:
329,192,188537,1,0,0:0:0:0:
256,192,188702,1,0,0:0:0:0:
109,192,188866,1,2,0:0:0:0:
402,192,189196,1,2,0:0:0:0:
36,192,189526,1,0,0:0:0:0:
182,192,189691,1,0,0:0:0:0:
329,192,189855,1,0,0:0:0:0:
182,192,190020,128,2,190515:0:0:0:0:
36,192,190844,1,0,0:0:0:0:
475,192,191009,1,0,0:0:0:0:
329,192,191174,1,0,0:0:0:0:
256,192,191339,1,0,0:0:0:0:
109,192,191504,1,2,0:0:0:0:
402,192,191834,1,2,0:0:0:0:
475,192,192163,1,0,0:0:0:0:
329,192,192328,1,0,0:0:0:0:
182,192,192493,1,0,0:0:0:0:
36,192,192658,128,2,193152:0:0:0:0:
36,192,193482,1,0,0:0:0:0:
475,192,193647,1,0,0:0:0:0:
329,192,193812,1,0,0:0:0:0:
256,192,193976,1,0,0:0:0:0:
109,192,194141,1,2,0:0:0:0:
402,192,194471,1,2,0:0:0:0:
36,192,194801,1,0,0:0:0:0:
182,192,194965,1,0,0:0:0:0:
256,192,195130,1,0,0:0:0:0:
402,192,195295,1,2,0:0:0:0:
182,192,195625,1,2,0:0:0:0:
36,192,195790,1,2,0:0:0:0:
329,192,196119,1,0,0:0:0:0:
475,192,196119,1,4,0:0:0:0:
182,192,196284,1,0,0:0:0:0:
329,192,196449,1,0,0:0:0:0:
182,192,196614,1,0,0:0:0:0:
475,192,196779,1,2,0:0:0:0:
402,192,196943,1,0,0:0:0:0:
256,192,197108,1,2,0:0:0:0:
182,192,197273,1,0,0:0:0:0:
36,192,197438,1,0,0:0:0:0:
256,192,197603,1,0,0:0:0:0:
402,192,197768,1,0,0:0:0:0:
182,192,197932,128,2,198427:0:0:0:0:
402,192,198757,1,0,0:0:0:0:
256,192,198921,1,0,0:0:0:0:
402,192,199086,1,0,0:0:0:0:
256,192,199251,1,0,0:0:0:0:
475,192,199416,1,2,0:0:0:0:
329,192,199581,1,0,0:0:0:0:
182,192,199746,1,2,0:0:0:0:
36,192,199910,1,0,0:0:0:0:
109,192,200075,1,0,0:0:0:0:
256,192,200240,1,0,0:0:0:0:
329,192,200405,1,0,0:0:0:0:
475,192,200570,1,2,0:0:0:0:
475,192,200899,1,2,0:0:0:0:
256,192,201229,1,2,0:0:0:0:
475,192,201394,1,0,0:0:0:0:
329,192,201559,1,0,0:0:0:0:
182,192,201724,1,2,0:0:0:0:
402,192,201888,1,0,0:0:0:0:
109,192,202053,1,2,0:0:0:0:
329,192,202218,1,0,0:0:0:0:
182,192,202383,1,0,0:0:0:0:
36,192,202548,1,0,0:0:0:0:
475,192,202713,1,2,0:0:0:0:
329,192,202877,1,2,0:0:0:0:
256,192,203207,1,2,0:0:0:0:
109,192,203537,1,0,0:0:0:0:
109,192,203866,1,0,0:0:0:0:
256,192,204031,1,0,0:0:0:0:
402,192,204196,1,0,0:0:0:0:
109,192,204361,1,0,0:0:0:0:
256,192,204526,1,2,0:0:0:0:
402,192,204855,1,2,0:0:0:0:
109,192,205185,1,2,0:0:0:0:
402,192,205350,1,0,0:0:0:0:
256,192,205515,1,0,0:0:0:0:
109,192,205680,1,0,0:0:0:0:
475,192,205844,1,2,0:0:0:0:
256,192,206009,1,2,0:0:0:0:
36,192,206174,1,2,0:0:0:0:
402,192,206339,1,2,0:0:0:0:
256,192,206504,1,2,0:0:0:0:
109,192,206669,1,2,0:0:0:0:
475,192,206669,1,4,0:0:0:0:
329,192,207987,1,2,0:0:0:0:
329,192,210625,1,2,0:0:0:0:
329,192,213262,1,2,0:0:0:0:
329,192,215899,1,2,0:0:0:0:
182,192,218537,1,2,0:0:0:0:
182,192,221174,1,2,0:0:0:0:
182,192,223811,1,2,0:0:0:0:
182,192,226449,1,2,0:0:0:0:
256,192,227108,128,0,227767:0:0:0:0:
36,192,227767,1,0,0:0:0:100:Kick.wav
475,192,227767,1,0,0:0:0:0:
