osu file format v13

[General]
AudioFilename: 03. Renatus - Soleily 192kbps.mp3
AudioLeadIn: 0
PreviewTime: 164471
Countdown: 0
SampleSet: Normal
StackLeniency: 0.7
Mode: 2
LetterboxInBreaks: 0
WidescreenStoryboard: 0

[Editor]
DistanceSpacing: 1
BeatDivisor: 4
GridSize: 16
TimelineZoom: 3.799996

[Metadata]
Title:Renatus
TitleUnicode:Renatus
Artist:Soleily
ArtistUnicode:Soleily
Creator:Deif
Version:Rain
Source:
Tags:MBC7 Unisphere 地球ヤバイEP Chikyu Yabai
BeatmapID:557811
BeatmapSetID:241526

[Difficulty]
HPDrainRate:6
CircleSize:4
OverallDifficulty:9
ApproachRate:9
SliderMultiplier:2
SliderTickRate:2

[Events]
//Background and Video events
0,0,"machinetop_background.jpg",0,0
//Break Periods
2,119837,129586
//Storyboard Layer 0 (Background)
//Storyboard Layer 1 (Fail)
//Storyboard Layer 2 (Pass)
//Storyboard Layer 3 (Foreground)
//Storyboard Sound Samples

[TimingPoints]
956,329.67032967033,4,1,0,40,1,0
2274,-133.333333333333,4,3,0,40,0,0
11505,-100,4,1,0,40,0,0
12824,-133.333333333333,4,3,0,40,0,0
22054,-100,4,1,0,40,0,0
43153,-100,4,3,0,40,0,0
48428,-142.857142857143,4,3,0,20,0,0
49747,-125,4,3,0,25,0,0
51065,-111.111111111111,4,3,0,30,0,0
52384,-100,4,3,0,35,0,0
53703,-100,4,1,0,45,0,0
74802,-100,4,1,0,55,0,0
75626,-100,4,1,0,35,0,0
76120,-100,4,1,0,55,0,0
76945,-100,4,1,0,35,0,0
77439,-100,4,1,0,55,0,0
77604,-100,4,1,0,35,0,0
80076,-100,4,1,0,55,0,0
80901,-100,4,1,0,35,0,0
81395,-100,4,1,0,55,0,0
82219,-100,4,1,0,35,0,0
82714,-100,4,1,0,55,0,0
82879,-100,4,1,0,35,0,0
85351,-100,4,1,0,55,0,0
86175,-100,4,1,0,35,0,0
86670,-100,4,1,0,55,0,0
87494,-100,4,1,0,35,0,0
87988,-100,4,1,0,55,0,0
88153,-100,4,1,0,35,0,0
90626,-100,4,1,0,55,0,0
91450,-100,4,1,0,35,0,0
91945,-100,4,1,0,55,0,0
92769,-100,4,1,0,35,0,0
93263,-100,4,1,0,55,0,0
95901,-100,4,1,0,50,0,1
96395,-100,4,3,0,50,0,1
96890,-100,4,1,0,50,0,1
97714,-100,4,3,0,50,0,1
98208,-100,4,1,0,50,0,1
99032,-100,4,3,0,50,0,1
99527,-100,4,1,0,50,0,1
100351,-100,4,3,0,50,0,1
100846,-100,4,1,0,50,0,1
101670,-100,4,3,0,50,0,1
102164,-100,4,1,0,50,0,1
102988,-100,4,3,0,50,0,1
103483,-100,4,1,0,50,0,1
104307,-100,4,3,0,50,0,1
104802,-100,4,1,0,50,0,1
105626,-100,4,3,0,50,0,1
106120,-100,4,1,0,50,0,1
106945,-100,4,3,0,50,0,1
107439,-100,4,1,0,50,0,1
108263,-100,4,3,0,50,0,1
108758,-100,4,1,0,50,0,1
109582,-100,4,3,0,50,0,1
110076,-100,4,1,0,50,0,1
110901,-100,4,3,0,50,0,1
111395,-100,4,1,0,50,0,1
112219,-100,4,3,0,50,0,1
112714,-100,4,1,0,50,0,1
113538,-100,4,3,0,50,0,1
114032,-100,4,1,0,50,0,1
114857,-100,4,3,0,50,0,1
115351,-100,4,1,0,50,0,1
116175,-100,4,3,0,50,0,1
116670,-100,4,1,0,50,0,1
116999,-66.6666666666667,4,2,0,40,0,0
117659,-100,4,3,0,30,0,0
118318,-100,4,3,0,40,0,0
119637,659.340659340659,4,1,0,40,1,0
130186,-100,4,2,0,40,0,0
140735,-66.6666666666667,4,2,0,50,0,0
161834,329.67032967033,4,3,0,50,1,0
163152,-100,4,3,0,55,0,0
163482,-100,4,3,0,60,0,0
163812,-100,4,3,0,65,0,0
164141,-100,4,1,0,50,0,0
164471,-100,4,1,0,60,0,1
182026,-100,4,1,0,30,0,1
182108,-100,4,1,0,60,0,1
182355,-100,4,1,0,30,0,1
182438,-100,4,1,0,60,0,1
184910,-100,4,1,0,60,0,0
185570,-100,4,1,0,60,0,1
206669,659.340659340659,4,2,0,40,1,0
207987,-100,4,1,0,20,0,0
208152,-100,4,2,0,40,0,0
208647,-100,4,2,0,20,0,0
209306,-100,4,2,0,40,0,0
210625,-100,4,1,0,15,0,0
210789,-100,4,2,0,40,0,0
211284,-100,4,2,0,20,0,0
211943,-100,4,2,0,40,0,0
213262,-100,4,1,0,10,0,0
213427,-100,4,2,0,40,0,0
213921,-100,4,2,0,20,0,0
214581,-100,4,2,0,40,0,0
215899,-100,4,1,0,10,0,0
216064,-100,4,2,0,40,0,0
216559,-100,4,2,0,20,0,0
217218,-100,4,2,0,40,0,0
218537,-100,4,1,0,10,0,0
218701,-100,4,2,0,40,0,0
219196,-100,4,2,0,20,0,0
219855,-100,4,2,0,40,0,0
221174,-100,4,1,0,10,0,0
221339,-100,4,2,0,40,0,0
221833,-100,4,2,0,20,0,0
222493,-100,4,2,0,40,0,0
223811,-100,4,1,0,10,0,0
223976,-100,4,2,0,40,0,0
226449,-100,4,1,0,10,0,0
226614,-100,4,2,0,40,0,0
227108,-100,4,2,0,50,0,0
227932,-100,4,2,0,10,0,0

[Colours]
Combo1 : 128,255,255
Combo2 : 255,128,128
Combo3 : 255,255,128
Combo4 : 128,255,0

[HitObjects]
160,192,956,5,4,0:0:0:0:
256,192,1120,1,0,0:0:0:0:
144,192,1285,1,8,0:0:0:0:
320,192,1450,2,0,P|256:128|192:192,1,200,2|2,0:0|0:0,0:0:0:0:
420,192,1945,2,0,L|320:192,1,100,0|2,0:0|0:0,0:0:0:0:
96,192,2274,6,0,L|32:144,1,75.0000028610231,4|0,0:0|0:0,0:0:0:0:
144,144,2604,1,2,0:0:0:0:
256,127,2769,1,4,0:0:0:0:
304,128,2851,1,0,0:0:0:0:
336,128,2933,1,0,0:0:0:0:
352,128,3016,1,0,0:0:0:0:
288,192,3098,1,4,0:0:0:0:
64,192,3263,2,0,L|48:272,1,75.0000028610231,2|0,0:0|0:0,0:0:0:0:
192,272,3593,6,0,L|240:272,2,37.5000014305115,4|0|0,0:0|0:0|0:0,0:0:0:0:
336,272,3923,1,2,0:0:0:0:
192,272,4087,1,0,0:0:0:0:
144,273,4169,1,0,0:0:0:0:
112,273,4251,1,0,0:0:0:0:
96,273,4334,1,0,0:0:0:0:
160,208,4417,1,4,0:0:0:0:
384,208,4582,2,0,L|400:288,1,75.0000028610231,2|0,0:0|0:0,0:0:0:0:
288,272,4912,6,0,L|240:272,2,37.5000014305115,4|0|0,0:0|0:0|0:0,0:0:0:0:
432,272,5241,1,2,0:0:0:0:
304,272,5406,1,4,0:0:0:0:
288,238,5488,1,0,0:0:0:0:
294,202,5570,1,0,0:0:0:0:
320,175,5653,1,0,0:0:0:0:
384,176,5736,1,4,0:0:0:0:
160,176,5901,2,0,L|208:112,1,75.0000028610231,2|0,0:0|0:0,0:0:0:0:
352,208,6230,6,0,L|304:272,1,75.0000028610231,4|0,0:0|0:0,0:0:0:0:
64,176,6560,2,0,L|80:96,1,75.0000028610231,2|0,0:0|0:0,0:0:0:0:
112,96,6807,1,0,0:0:0:0:
160,96,6890,1,0,0:0:0:0:
208,96,6972,1,0,0:0:0:0:
272,112,7054,1,4,0:0:0:0:
48,112,7219,2,0,L|96:176,1,75.0000028610231,2|0,0:0|0:0,0:0:0:0:
224,176,7549,5,4,0:0:0:0:
288,176,7631,1,0,0:0:0:0:
336,176,7714,1,0,0:0:0:0:
96,192,7879,1,2,0:0:0:0:
336,208,8043,1,4,0:0:0:0:
288,208,8126,1,0,0:0:0:0:
256,208,8208,1,0,0:0:0:0:
288,208,8291,1,0,0:0:0:0:
336,208,8373,1,4,0:0:0:0:
112,208,8538,2,0,L|96:128,1,75.0000028610231,2|0,0:0|0:0,0:0:0:0:
208,128,8868,5,4,0:0:0:0:
240,128,8950,1,0,0:0:0:0:
208,128,9032,1,0,0:0:0:0:
336,128,9197,2,0,L|400:176,1,75.0000028610231,2|0,0:0|0:0,0:0:0:0:
432,176,9445,1,0,0:0:0:0:
464,176,9527,1,0,0:0:0:0:
432,176,9609,1,0,0:0:0:0:
368,176,9692,1,4,0:0:0:0:
144,176,9857,2,0,L|192:240,1,75.0000028610231,2|0,0:0|0:0,0:0:0:0:
320,240,10186,6,0,L|368:240,2,37.5000014305115,4|0|0,0:0|0:0|0:0,0:0:0:0:
176,240,10516,1,2,0:0:0:0:
304,240,10681,1,4,0:0:0:0:
338,227,10763,1,0,0:0:0:0:
351,193,10845,1,0,0:0:0:0:
336,160,10928,1,0,0:0:0:0:
288,160,11010,1,4,0:0:0:0:
64,160,11175,2,0,L|16:160,2,37.5000014305115,2|0|8,0:0|0:0|0:0,0:0:0:0:
352,192,11505,5,4,0:0:0:0:
256,192,11669,1,0,0:0:0:0:
368,192,11834,1,8,0:0:0:0:
192,192,11999,2,0,P|256:256|320:192,1,200,2|2,0:0|0:0,0:0:0:0:
96,192,12494,1,8,0:0:0:0:
256,192,12659,1,2,0:0:0:0:
416,192,12824,6,0,L|480:240,1,75.0000028610231,4|0,0:0|0:0,0:0:0:0:
368,240,13154,1,2,0:0:0:0:
256,257,13319,1,4,0:0:0:0:
208,256,13401,1,0,0:0:0:0:
176,256,13483,1,0,0:0:0:0:
160,256,13566,1,0,0:0:0:0:
224,192,13648,1,4,0:0:0:0:
448,192,13813,2,0,L|464:112,1,75.0000028610231,2|0,0:0|0:0,0:0:0:0:
320,112,14143,6,0,L|272:112,2,37.5000014305115,4|0|0,0:0|0:0|0:0,0:0:0:0:
176,112,14473,1,2,0:0:0:0:
320,112,14637,1,0,0:0:0:0:
368,111,14719,1,0,0:0:0:0:
400,111,14801,1,0,0:0:0:0:
416,111,14884,1,0,0:0:0:0:
352,176,14967,1,4,0:0:0:0:
128,176,15132,2,0,L|112:96,1,75.0000028610231,2|0,0:0|0:0,0:0:0:0:
224,112,15462,6,0,L|272:112,2,37.5000014305115,4|0|0,0:0|0:0|0:0,0:0:0:0:
80,112,15791,1,2,0:0:0:0:
208,112,15956,1,4,0:0:0:0:
224,146,16038,1,0,0:0:0:0:
218,182,16120,1,0,0:0:0:0:
192,209,16203,1,0,0:0:0:0:
128,208,16286,1,4,0:0:0:0:
352,208,16451,2,0,L|304:272,1,75.0000028610231,2|0,0:0|0:0,0:0:0:0:
160,176,16780,6,0,L|208:112,1,75.0000028610231,4|0,0:0|0:0,0:0:0:0:
448,208,17110,2,0,L|432:288,1,75.0000028610231,2|0,0:0|0:0,0:0:0:0:
400,288,17357,1,0,0:0:0:0:
352,288,17440,1,0,0:0:0:0:
304,288,17522,1,0,0:0:0:0:
240,272,17604,1,4,0:0:0:0:
464,272,17769,2,0,L|416:208,1,75.0000028610231,2|0,0:0|0:0,0:0:0:0:
288,208,18099,5,4,0:0:0:0:
224,208,18181,1,0,0:0:0:0:
176,208,18264,1,0,0:0:0:0:
416,192,18429,1,2,0:0:0:0:
176,176,18593,1,4,0:0:0:0:
224,176,18676,1,0,0:0:0:0:
256,176,18758,1,0,0:0:0:0:
224,176,18841,1,0,0:0:0:0:
176,176,18923,1,4,0:0:0:0:
400,176,19088,2,0,L|416:256,1,75.0000028610231,2|0,0:0|0:0,0:0:0:0:
304,256,19418,5,4,0:0:0:0:
272,256,19500,1,0,0:0:0:0:
304,256,19582,1,0,0:0:0:0:
176,256,19747,2,0,L|112:208,1,75.0000028610231,2|0,0:0|0:0,0:0:0:0:
80,208,19995,1,0,0:0:0:0:
48,208,20077,1,0,0:0:0:0:
80,208,20159,5,0,0:0:0:0:
144,208,20242,1,4,0:0:0:0:
368,208,20407,2,0,L|320:144,1,75.0000028610231,2|0,0:0|0:0,0:0:0:0:
64,128,20736,5,4,0:0:0:0:
101,97,20818,1,0,0:0:0:0:
147,81,20900,1,4,0:0:0:0:
195,82,20983,1,0,0:0:0:0:
352,192,21065,2,0,L|304:192,1,37.5000014305115,2|0,0:0|0:0,0:0:0:0:
195,302,21230,1,4,0:0:0:0:
147,303,21313,1,0,0:0:0:0:
101,287,21395,1,4,0:0:0:0:
64,256,21477,1,0,0:0:0:0:
160,224,21560,2,0,L|208:224,1,37.5000014305115,4|0,0:0|0:0,0:0:0:0:
288,192,21725,2,0,L|240:192,1,37.5000014305115,10|0,0:0|0:0,0:0:0:0:
176,160,21890,2,0,L|224:160,1,37.5000014305115,10|0,0:0|0:0,0:0:0:0:
384,160,22054,6,0,L|480:192,2,100,4|0|8,0:0|0:0|0:0,0:0:0:0:
192,160,22549,2,0,L|177:61,1,100,2|0,0:0|0:0,0:0:0:0:
334,61,22879,2,0,L|320:160,1,100,10|8,0:0|0:0,0:0:0:0:
144,160,23208,1,2,0:0:0:0:
256,160,23373,6,0,P|288:192|256:224,1,100,0|0,0:0|0:0,0:0:0:0:
144,224,23703,1,8,0:0:0:0:
256,224,23868,2,0,L|352:256,1,100,0|0,0:0|0:0,0:0:0:0:
176,256,24197,1,8,0:0:0:0:
416,256,24362,2,0,L|448:160,1,100,10|2,0:0|0:0,0:0:0:0:
176,128,24692,6,0,L|144:224,1,100,0|0,0:0|0:0,0:0:0:0:
383,222,25021,2,0,L|352:128,1,100,10|2,0:0|0:0,0:0:0:0:
32,128,25516,2,0,L|63:222,1,100,10|8,0:0|0:0,0:0:0:0:
256,224,25846,1,2,0:0:0:0:
128,224,26010,5,0,0:0:0:0:
256,224,26175,1,2,0:0:0:0:
80,224,26340,1,10,0:0:0:0:
383,145,26505,2,0,L|320:224,1,100,2|0,0:0|0:0,0:0:0:0:
192,224,26835,2,0,L|128:144,1,100,10|8,0:0|0:0,0:0:0:0:
256,144,27164,1,2,0:0:0:0:
128,144,27329,5,0,0:0:0:0:
320,144,27494,2,0,L|384:224,1,100,2|8,0:0|0:0,0:0:0:0:
192,224,27824,2,0,L|256:304,1,100,2|0,0:0|0:0,0:0:0:0:
384,224,28153,2,0,L|288:192,2,100,10|10|2,0:0|0:0|0:0,0:0:0:0:
256,192,28648,5,0,0:0:0:0:
128,224,28813,2,0,L|224:192,1,100,2|10,0:0|0:0,0:0:0:0:
96,160,29142,2,0,L|192:128,1,100,2|0,0:0|0:0,0:0:0:0:
400,160,29445,1,0,0:0:0:0:
416,160,29472,2,0,L|320:128,1,100,10|8,0:0|0:0,0:0:0:0:
96,160,29802,1,2,0:0:0:0:
352,160,29966,6,0,L|384:256,1,100,2|0,0:0|0:0,0:0:0:0:
128,192,30296,1,8,0:0:0:0:
288,160,30461,2,0,L|320:255,1,100,2|0,0:0|0:0,0:0:0:0:
64,192,30791,1,8,0:0:0:0:
352,160,30956,2,0,L|384:255,1,100,8|0,0:0|0:0,0:0:0:0:
128,256,31285,5,10,0:0:0:0:
64,256,31368,1,0,0:0:0:0:
112,256,31450,1,2,0:0:0:0:
352,256,31615,2,0,L|416:176,2,100,8|2|0,0:0|0:0|0:0,0:0:0:0:
128,256,32109,1,10,0:0:0:0:
384,256,32274,1,10,0:0:0:0:
448,256,32357,1,0,0:0:0:0:
400,256,32439,1,2,0:0:0:0:
128,224,32604,6,0,L|32:192,2,100,4|0|8,0:0|0:0|0:0,0:0:0:0:
320,224,33099,2,0,L|335:323,1,100,2|0,0:0|0:0,0:0:0:0:
178,323,33429,2,0,L|192:224,1,100,10|8,0:0|0:0,0:0:0:0:
368,224,33758,1,2,0:0:0:0:
256,224,33923,6,0,P|224:192|256:160,1,100,0|0,0:0|0:0,0:0:0:0:
368,160,34253,1,8,0:0:0:0:
256,160,34418,2,0,L|160:128,1,100,0|0,0:0|0:0,0:0:0:0:
336,128,34747,1,8,0:0:0:0:
96,128,34912,2,0,L|64:224,1,100,10|2,0:0|0:0,0:0:0:0:
336,256,35242,6,0,L|368:160,1,100,0|0,0:0|0:0,0:0:0:0:
129,162,35571,2,0,L|160:256,1,100,10|2,0:0|0:0,0:0:0:0:
480,256,36066,2,0,L|449:162,1,100,10|8,0:0|0:0,0:0:0:0:
256,160,36396,1,2,0:0:0:0:
384,160,36560,5,0,0:0:0:0:
256,160,36725,1,2,0:0:0:0:
432,160,36890,1,10,0:0:0:0:
129,239,37055,2,0,L|192:160,1,100,2|0,0:0|0:0,0:0:0:0:
320,160,37385,2,0,L|384:240,1,100,10|8,0:0|0:0,0:0:0:0:
256,240,37714,1,2,0:0:0:0:
384,240,37879,5,0,0:0:0:0:
192,240,38044,2,0,L|128:160,1,100,2|8,0:0|0:0,0:0:0:0:
320,160,38374,2,0,L|256:80,1,100,2|0,0:0|0:0,0:0:0:0:
128,160,38703,2,0,L|224:192,2,100,10|10|2,0:0|0:0|0:0,0:0:0:0:
256,192,39198,5,0,0:0:0:0:
384,160,39363,2,0,L|288:192,1,100,2|10,0:0|0:0,0:0:0:0:
416,224,39692,2,0,L|320:256,1,100,2|0,0:0|0:0,0:0:0:0:
112,224,39995,1,0,0:0:0:0:
96,224,40022,2,0,L|192:256,1,100,10|8,0:0|0:0,0:0:0:0:
416,224,40352,1,2,0:0:0:0:
160,192,40516,5,6,0:0:0:0:
96,192,40598,1,0,0:0:0:0:
48,192,40681,2,0,L|128:128,1,100,0|8,0:0|0:0,0:0:0:0:
352,192,41010,1,6,0:0:0:0:
416,192,41092,1,0,0:0:0:0:
464,192,41175,2,0,L|384:128,1,100,0|8,0:0|0:0,0:0:0:0:
160,192,41505,1,12,0:0:0:0:
96,192,41587,1,0,0:0:0:0:
144,192,41670,1,0,0:0:0:0:
368,192,41835,5,14,0:0:0:0:
144,192,41999,2,0,L|128:144,1,50,2|0,0:0|0:0,0:0:0:0:
368,192,42247,2,0,L|384:144,1,50,0|2,0:0|0:0,0:0:0:0:
144,128,42494,1,4,0:0:0:0:
368,128,42659,1,14,0:0:0:0:
192,128,42824,1,14,0:0:0:0:
320,128,42988,1,6,0:0:0:0:
64,192,43153,5,4,0:1:0:0:
160,192,43318,1,0,0:0:0:0:
48,192,43483,1,2,0:0:0:0:
192,192,43648,1,0,0:0:0:0:
240,192,43730,1,0,0:0:0:0:
272,192,43813,1,0,0:0:0:0:
288,192,43895,1,0,0:0:0:0:
256,192,43977,1,4,0:0:0:0:
416,192,44142,2,0,L|448:96,1,100,2|0,0:0|0:0,0:0:0:0:
256,96,44472,5,4,0:0:0:0:
112,96,44637,2,0,L|48:96,2,50,0|0|2,0:0|0:0|0:0,0:0:0:0:
256,96,44966,2,0,L|320:96,2,50,4|0|0,0:0|0:0|0:0,0:0:0:0:
112,96,45296,1,4,0:0:0:0:
304,96,45461,2,0,L|240:176,1,100,2|0,0:0|0:0,0:0:0:0:
384,192,45791,6,0,L|448:192,2,50,4|0|0,0:0|0:0|0:0,0:0:0:0:
224,192,46120,1,2,0:0:0:0:
80,192,46285,1,0,0:0:0:0:
128,192,46367,1,0,0:0:0:0:
160,192,46450,1,0,0:0:0:0:
176,192,46532,1,0,0:0:0:0:
144,192,46614,1,4,0:0:0:0:
304,192,46780,2,0,P|320:144|304:96,1,100,2|0,0:0|0:0,0:0:0:0:
128,192,47109,6,0,L|64:192,2,50,4|0|0,0:0|0:0|0:0,0:0:0:0:
288,192,47439,1,2,0:0:0:0:
432,192,47604,1,4,0:0:0:0:
384,192,47686,1,0,0:0:0:0:
352,192,47769,1,0,0:0:0:0:
336,192,47851,1,0,0:0:0:0:
368,192,47933,1,4,0:0:0:0:
208,192,48099,2,0,P|192:144|208:96,1,100,2|0,0:0|0:0,0:0:0:0:
432,96,48428,5,4,0:1:0:0:
368,96,48593,1,0,0:0:0:0:
448,96,48758,1,2,0:0:0:0:
352,96,48923,1,0,0:0:0:0:
361,129,49005,1,0,0:0:0:0:
377,160,49087,1,0,0:0:0:0:
397,189,49170,1,0,0:0:0:0:
352,192,49252,1,4,0:0:0:0:
448,192,49417,2,0,L|385:223,1,69.9999978637696,2|0,0:0|0:0,0:0:0:0:
112,224,49747,5,4,0:1:0:0:
224,224,49912,2,0,L|272:224,2,40,0|0|2,0:0|0:0|0:0,0:0:0:0:
112,224,50241,1,4,0:0:0:0:
103,191,50323,1,0,0:0:0:0:
87,160,50405,1,0,0:0:0:0:
67,131,50488,1,0,0:0:0:0:
112,128,50570,1,4,0:0:0:0:
16,128,50736,2,0,L|80:80,1,80,2|0,0:0|0:0,0:0:0:0:
384,80,51065,6,0,L|432:160,1,89.9999972534181,4|0,0:1|0:0,0:0:0:0:
368,160,51313,1,0,0:0:0:0:
304,160,51395,2,0,L|256:80,1,89.9999972534181,2|0,0:0|0:0,0:0:0:0:
320,80,51642,1,0,0:0:0:0:
384,80,51725,2,0,L|432:160,1,89.9999972534181,0|4,0:0|0:0,0:0:0:0:
256,192,52054,1,2,0:0:0:0:
222,190,52095,1,0,0:0:0:0:
191,177,52136,1,0,0:0:0:0:
167,154,52177,1,0,0:0:0:0:
152,124,52218,1,0,0:0:0:0:
148,91,52260,1,0,0:0:0:0:
156,58,52301,1,0,0:0:0:0:
176,31,52342,1,0,0:0:0:0:
224,32,52384,6,0,L|336:32,1,100,4|0,0:0|0:0,0:0:0:0:
480,80,52714,2,0,L|368:80,1,100,2|4,0:0|0:0,0:0:0:0:
224,80,53043,2,0,L|112:80,1,100,0|4,0:0|0:0,0:0:0:0:
400,192,53373,2,0,L|352:208,1,50,10|0,0:0|0:0,0:0:0:0:
240,208,53538,2,0,L|192:192,1,50,0|0,0:0|0:0,0:0:0:0:
48,192,53703,5,12,0:0:0:0:
176,192,53868,2,0,L|80:160,2,100,0|8|0,0:0|0:0|0:0,0:0:0:0:
336,192,54362,1,0,0:0:0:0:
384,192,54444,1,0,0:0:0:0:
416,192,54526,1,8,0:0:0:0:
256,192,54692,2,0,L|192:112,1,100,8|0,0:0|0:0,0:0:0:0:
352,112,55021,5,8,0:0:0:0:
160,112,55186,1,0,0:0:0:0:
112,112,55268,1,0,0:0:0:0:
80,112,55351,2,0,L|144:192,1,100,8|0,0:0|0:0,0:0:0:0:
320,192,55681,2,0,L|256:112,1,100,0|8,0:0|0:0,0:0:0:0:
48,112,56010,2,0,L|112:192,1,100,8|0,0:0|0:0,0:0:0:0:
400,192,56340,5,8,0:0:0:0:
176,192,56505,1,0,0:0:0:0:
128,192,56587,1,0,0:0:0:0:
96,192,56670,2,0,L|160:112,1,100,8|0,0:0|0:0,0:0:0:0:
352,112,56999,1,0,0:0:0:0:
96,112,57164,1,8,0:0:0:0:
416,112,57329,2,0,L|352:192,1,100,8|0,0:0|0:0,0:0:0:0:
128,192,57659,5,8,0:0:0:0:
320,192,57824,2,0,L|432:192,1,100,0|8,0:0|0:0,0:0:0:0:
92,192,58153,2,0,L|192:192,1,100,0|0,0:0|0:0,0:0:0:0:
420,192,58483,2,0,L|320:192,1,100,8|8,0:0|0:0,0:0:0:0:
192,192,58813,1,0,0:0:0:0:
351,97,58977,6,0,L|320:192,1,100,8|0,0:0|0:0,0:0:0:0:
160,97,59307,2,0,L|192:192,1,100,8|0,0:0|0:0,0:0:0:0:
320,192,59637,1,0,0:0:0:0:
192,192,59802,1,8,0:0:0:0:
368,192,59966,1,8,0:0:0:0:
144,192,60131,1,0,0:0:0:0:
256,192,60296,5,8,0:0:0:0:
16,192,60461,2,0,L|48:96,1,100,0|8,0:0|0:0,0:0:0:0:
192,96,60791,2,0,L|240:112,1,50,0|0,0:0|0:0,0:0:0:0:
384,112,60956,1,0,0:0:0:0:
444,126,61038,1,0,0:0:0:0:
466,184,61120,1,8,0:0:0:0:
429,234,61203,1,0,0:0:0:0:
288,240,61285,1,8,0:0:0:0:
228,226,61367,1,0,0:0:0:0:
206,168,61449,1,0,0:0:0:0:
243,118,61532,1,0,0:0:0:0:
160,96,61615,6,0,L|64:128,1,100,8|0,0:0|0:0,0:0:0:0:
192,144,61945,1,8,0:0:0:0:
352,96,62109,2,0,L|448:128,1,100,0|0,0:0|0:0,0:0:0:0:
320,144,62439,1,8,0:0:0:0:
192,144,62604,1,8,0:0:0:0:
320,144,62769,6,0,L|352:240,1,100,0|8,0:0|0:0,0:0:0:0:
160,238,63098,2,0,L|192:144,1,100,0|8,0:0|0:0,0:0:0:0:
320,144,63428,2,0,L|352:240,1,100,0|0,0:0|0:0,0:0:0:0:
160,240,63758,1,8,0:0:0:0:
400,240,63923,2,0,L|464:240,2,50,8|0|0,0:0|0:0|0:0,0:0:0:0:
112,240,64252,6,0,L|144:144,1,100,12|0,0:0|0:0,0:0:0:0:
320,144,64582,2,0,L|288:48,1,100,8|0,0:0|0:0,0:0:0:0:
112,240,64912,1,0,0:0:0:0:
64,240,64994,1,0,0:0:0:0:
32,240,65076,1,8,0:0:0:0:
192,240,65241,2,0,L|256:160,1,100,8|0,0:0|0:0,0:0:0:0:
112,160,65571,5,8,0:0:0:0:
256,160,65736,1,0,0:0:0:0:
304,160,65818,1,0,0:0:0:0:
336,160,65901,2,0,L|368:64,1,100,8|0,0:0|0:0,0:0:0:0:
176,160,66230,2,0,L|144:64,1,100,0|8,0:0|0:0,0:0:0:0:
367,65,66560,2,0,L|336:160,1,100,8|0,0:0|0:0,0:0:0:0:
112,192,66890,5,8,0:0:0:0:
304,192,67054,1,0,0:0:0:0:
352,192,67136,1,0,0:0:0:0:
384,192,67219,2,0,L|416:288,1,100,8|0,0:0|0:0,0:0:0:0:
160,288,67549,1,0,0:0:0:0:
352,288,67714,1,8,0:0:0:0:
96,286,67879,2,0,L|128:192,1,100,8|0,0:0|0:0,0:0:0:0:
288,192,68208,5,8,0:0:0:0:
64,192,68373,2,0,L|128:112,1,100,0|8,0:0|0:0,0:0:0:0:
448,192,68703,2,0,L|384:112,1,100,0|0,0:0|0:0,0:0:0:0:
128,112,69032,2,0,L|96:96,3,33.3333333333333,8|0|0|8,0:0|0:0|0:0|0:0,0:0:0:0:
336,112,69362,1,0,0:0:0:0:
176,112,69527,5,8,0:0:0:0:
336,112,69692,2,0,L|384:144,1,50,0|0,0:0|0:0,0:0:0:0:
304,144,69857,1,8,0:0:0:0:
256,144,69939,1,0,0:0:0:0:
224,144,70021,1,0,0:0:0:0:
64,144,70186,1,0,0:0:0:0:
79,191,70268,1,0,0:0:0:0:
111,228,70350,1,0,0:0:0:0:
155,251,70433,1,0,0:0:0:0:
240,256,70516,2,0,L|288:240,1,50,8|0,0:0|0:0,0:0:0:0:
368,240,70681,2,0,L|416:256,1,50,0|0,0:0|0:0,0:0:0:0:
192,192,70846,6,0,L|96:160,1,100,8|0,0:0|0:0,0:0:0:0:
414,160,71175,2,0,L|320:192,1,100,8|0,0:0|0:0,0:0:0:0:
192,192,71505,2,0,L|98:160,1,100,0|8,0:0|0:0,0:0:0:0:
256,48,71835,2,0,L|350:80,1,100,8|0,0:0|0:0,0:0:0:0:
160,80,72164,6,0,L|128:176,1,100,8|0,0:0|0:0,0:0:0:0:
256,192,72494,1,8,0:0:0:0:
383,174,72659,2,0,L|352:80,1,100,0|0,0:0|0:0,0:0:0:0:
176,80,72988,1,8,0:0:0:0:
336,80,73153,1,8,0:0:0:0:
176,80,73318,2,0,L|128:96,1,50,0|0,0:0|0:0,0:0:0:0:
320,192,73483,5,12,0:0:0:0:
368,200,73565,1,0,0:0:0:0:
415,183,73647,1,0,0:0:0:0:
447,145,73730,1,0,0:0:0:0:
368,144,73813,2,0,L|320:128,1,50,8|0,0:0|0:0,0:0:0:0:
224,48,73977,2,0,L|272:64,1,50,4|0,0:0|0:0,0:0:0:0:
368,64,74142,5,0,0:0:0:0:
336,102,74225,1,0,0:0:0:0:
289,119,74307,1,8,0:0:0:0:
241,111,74389,1,0,0:0:0:0:
160,112,74472,2,0,L|112:128,1,50,12|0,0:0|0:0,0:0:0:0:
16,208,74636,2,0,L|64:192,1,50,8|0,0:0|0:0,0:0:0:0:
256,192,74802,5,4,0:0:0:0:
400,192,74966,1,0,0:0:0:0:
256,192,75131,1,8,0:0:0:0:
33,190,75296,2,0,L|96:112,1,100,4|0,0:0|0:0,0:0:0:0:
144,112,75543,1,0,0:0:0:0:
192,112,75626,2,0,L|129:190,2,100,8|8|8,0:0|0:0|0:0,0:0:0:0:
368,112,76120,5,4,0:0:0:0:
144,112,76285,2,0,L|112:208,1,100,8|8,0:0|0:0,0:0:0:0:
399,206,76615,2,0,L|368:112,1,100,4|0,0:0|0:0,0:0:0:0:
256,112,76945,1,8,0:0:0:0:
368,112,77109,1,8,0:0:0:0:
480,112,77274,1,8,0:0:0:0:
144,112,77439,5,12,0:0:0:0:
97,100,77521,1,0,0:0:0:0:
63,134,77603,1,0,0:0:0:0:
75,180,77686,1,0,0:0:0:0:
121,193,77768,1,8,0:0:0:0:
75,203,77851,1,0,0:0:0:0:
63,249,77934,1,0,0:0:0:0:
97,283,78016,1,0,0:0:0:0:
144,272,78098,1,0,0:0:0:0:
192,272,78181,1,0,0:0:0:0:
272,272,78263,2,0,L|224:256,1,50,8|0,0:0|0:0,0:0:0:0:
144,240,78428,2,0,L|192:224,1,50,8|0,0:0|0:0,0:0:0:0:
272,208,78593,1,0,0:0:0:0:
448,224,78758,5,8,0:0:0:0:
415,187,78840,1,0,0:0:0:0:
367,175,78922,1,0,0:0:0:0:
320,191,79005,1,0,0:0:0:0:
240,208,79087,2,0,L|272:168,1,50,8|0,0:0|0:0,0:0:0:0:
191,192,79252,1,8,0:0:0:0:
144,208,79334,1,0,0:0:0:0:
96,196,79416,1,0,0:0:0:0:
63,159,79499,1,0,0:0:0:0:
144,144,79582,2,0,L|192:128,1,50,8|0,0:0|0:0,0:0:0:0:
368,128,79747,1,8,0:0:0:0:
432,128,79829,1,0,0:0:0:0:
480,128,79912,1,8,0:0:0:0:
112,128,80076,5,4,0:0:0:0:
256,128,80240,1,0,0:0:0:0:
112,128,80405,1,8,0:0:0:0:
479,194,80571,2,0,L|416:272,1,100,4|0,0:0|0:0,0:0:0:0:
368,272,80818,1,0,0:0:0:0:
320,272,80901,2,0,L|383:194,2,100,8|8|8,0:0|0:0|0:0,0:0:0:0:
144,272,81395,5,4,0:0:0:0:
368,272,81560,2,0,L|400:176,1,100,8|8,0:0|0:0,0:0:0:0:
113,178,81890,2,0,L|144:272,1,100,4|0,0:0|0:0,0:0:0:0:
256,272,82220,1,8,0:0:0:0:
144,272,82384,1,8,0:0:0:0:
32,272,82549,1,8,0:0:0:0:
368,272,82714,5,12,0:0:0:0:
414,253,82796,1,0,0:0:0:0:
424,224,82878,1,0,0:0:0:0:
376,211,82961,1,0,0:0:0:0:
327,198,83043,1,8,0:0:0:0:
356,176,83126,1,0,0:0:0:0:
405,165,83208,1,0,0:0:0:0:
431,139,83290,1,0,0:0:0:0:
386,119,83373,1,0,0:0:0:0:
340,98,83455,1,0,0:0:0:0:
240,112,83538,2,0,L|288:128,1,50,8|0,0:0|0:0,0:0:0:0:
368,144,83703,2,0,L|320:160,1,50,8|0,0:0|0:0,0:0:0:0:
240,176,83868,1,0,0:0:0:0:
64,160,84033,5,8,0:0:0:0:
97,197,84115,1,0,0:0:0:0:
145,209,84197,1,0,0:0:0:0:
192,193,84280,1,0,0:0:0:0:
272,176,84362,2,0,L|272:240,1,50,8|0,0:0|0:0,0:0:0:0:
191,192,84527,1,8,0:0:0:0:
144,176,84609,1,0,0:0:0:0:
96,188,84691,1,0,0:0:0:0:
63,225,84774,1,0,0:0:0:0:
144,240,84857,2,0,L|192:256,1,50,8|0,0:0|0:0,0:0:0:0:
368,256,85022,1,8,0:0:0:0:
432,256,85104,1,0,0:0:0:0:
400,240,85187,1,8,0:0:0:0:
112,128,85351,5,4,0:0:0:0:
256,128,85515,1,0,0:0:0:0:
112,128,85680,1,8,0:0:0:0:
479,190,85846,2,0,L|416:112,1,100,4|0,0:0|0:0,0:0:0:0:
368,112,86093,1,0,0:0:0:0:
320,112,86176,2,0,L|383:190,2,100,8|8|8,0:0|0:0|0:0,0:0:0:0:
144,112,86670,5,4,0:0:0:0:
368,112,86835,2,0,L|400:208,1,100,8|8,0:0|0:0,0:0:0:0:
113,206,87165,2,0,L|144:112,1,100,4|0,0:0|0:0,0:0:0:0:
256,112,87495,1,8,0:0:0:0:
144,112,87659,1,8,0:0:0:0:
32,112,87824,1,8,0:0:0:0:
320,112,87988,5,12,0:0:0:0:
349,152,88070,1,0,0:0:0:0:
370,197,88152,1,0,0:0:0:0:
382,246,88235,1,0,0:0:0:0:
320,256,88318,1,8,0:0:0:0:
335,209,88400,1,0,0:0:0:0:
373,178,88482,1,0,0:0:0:0:
422,173,88565,1,0,0:0:0:0:
480,176,88648,1,0,0:0:0:0:
464,129,88730,1,0,0:0:0:0:
416,96,88813,2,0,L|357:77,1,50,8|0,0:0|0:0,0:0:0:0:
304,96,88977,2,0,L|256:81,1,50,8|0,0:0|0:0,0:0:0:0:
320,80,89142,1,0,0:0:0:0:
160,80,89307,5,8,0:0:0:0:
111,89,89389,1,0,0:0:0:0:
68,114,89471,1,0,0:0:0:0:
36,152,89554,1,0,0:0:0:0:
112,160,89637,2,0,L|112:224,1,50,8|0,0:0|0:0,0:0:0:0:
36,231,89802,1,8,0:0:0:0:
68,269,89884,1,0,0:0:0:0:
111,294,89966,1,0,0:0:0:0:
159,304,90049,1,0,0:0:0:0:
240,304,90131,2,0,L|288:288,1,50,8|0,0:0|0:0,0:0:0:0:
128,192,90296,1,8,0:0:0:0:
81,176,90378,1,0,0:0:0:0:
51,137,90460,1,4,0:0:0:0:
400,256,90626,5,4,0:0:0:0:
256,256,90790,1,0,0:0:0:0:
400,256,90955,1,8,0:0:0:0:
33,194,91121,2,0,L|96:272,1,100,4|0,0:0|0:0,0:0:0:0:
144,272,91368,1,0,0:0:0:0:
192,272,91451,2,0,L|129:194,2,100,8|8|8,0:0|0:0|0:0,0:0:0:0:
368,272,91945,5,4,0:0:0:0:
144,272,92110,2,0,L|112:176,1,100,8|8,0:0|0:0,0:0:0:0:
399,178,92440,2,0,L|368:272,1,100,4|0,0:0|0:0,0:0:0:0:
256,272,92770,1,8,0:0:0:0:
368,272,92934,1,8,0:0:0:0:
480,272,93099,1,8,0:0:0:0:
144,272,93263,6,0,L|176:176,1,100,12|0,0:0|0:0,0:0:0:0:
336,272,93593,2,0,L|368:176,1,100,8|0,0:0|0:0,0:0:0:0:
112,272,93923,2,0,L|144:176,1,100,0|8,0:0|0:0,0:0:0:0:
368,272,94252,2,0,L|400:176,1,100,8|0,0:0|0:0,0:0:0:0:
80,192,94582,5,8,0:0:0:0:
128,192,94664,1,0,0:0:0:0:
192,192,94747,1,0,0:0:0:0:
240,192,94829,1,0,0:0:0:0:
304,192,94912,1,8,0:0:0:0:
352,192,94994,1,0,0:0:0:0:
416,192,95076,1,8,0:0:0:0:
464,192,95158,1,0,0:0:0:0:
416,144,95241,6,0,L|384:96,1,50,0|0,0:0|0:0,0:0:0:0:
304,144,95406,2,0,L|272:96,1,50,8|0,0:0|0:0,0:0:0:0:
192,144,95571,2,0,L|160:96,1,50,8|0,0:0|0:0,0:0:0:0:
80,144,95736,2,0,L|48:96,1,50,8|0,0:0|0:0,0:0:0:0:
192,128,95901,5,12,0:0:0:0:
336,128,96065,2,0,L|384:144,2,50,0|0|8,0:0|0:0|0:0,0:0:0:0:
192,128,96395,2,0,L|144:112,1,50,4|0,0:0|0:0,0:0:0:0:
336,128,96642,2,0,L|288:112,1,50,0|4,0:0|0:0,0:0:0:0:
144,112,96890,1,8,0:0:0:0:
288,112,97054,1,0,0:0:0:0:
160,112,97219,6,0,L|144:160,1,50,8|0,0:0|0:0,0:0:0:0:
224,160,97384,2,0,L|208:208,1,50,0|0,0:0|0:0,0:0:0:0:
288,208,97549,2,0,L|192:176,1,100,8|4,0:0|0:0,0:0:0:0:
144,160,97796,1,0,0:0:0:0:
112,144,97879,1,0,0:0:0:0:
96,128,97961,1,0,0:0:0:0:
112,112,98043,1,0,0:0:0:0:
400,112,98208,1,8,0:0:0:0:
144,112,98373,1,0,0:0:0:0:
304,96,98538,5,8,0:0:0:0:
256,96,98620,1,0,0:0:0:0:
224,96,98703,1,0,0:0:0:0:
400,112,98868,1,8,0:0:0:0:
416,128,98950,1,0,0:0:0:0:
400,144,99032,1,4,0:0:0:0:
368,160,99115,1,0,0:0:0:0:
318,176,99197,2,0,L|416:208,1,100,0|4,0:0|0:0,0:0:0:0:
368,224,99445,1,0,0:0:0:0:
272,224,99527,2,0,L|224:240,1,50,8|0,0:0|0:0,0:0:0:0:
304,240,99692,2,0,L|256:224,1,50,0|0,0:0|0:0,0:0:0:0:
176,224,99857,5,8,0:0:0:0:
127,217,99939,1,0,0:0:0:0:
90,184,100021,1,0,0:0:0:0:
79,136,100104,1,0,0:0:0:0:
160,128,100186,2,0,L|176:80,1,50,8|0,0:0|0:0,0:0:0:0:
256,128,100351,2,0,L|272:80,1,50,4|0,0:0|0:0,0:0:0:0:
352,128,100516,2,0,L|400:112,1,50,0|0,0:0|0:0,0:0:0:0:
480,128,100681,2,0,L|432:112,1,50,4|0,0:0|0:0,0:0:0:0:
336,128,100846,2,0,L|288:144,1,50,8|0,0:0|0:0,0:0:0:0:
192,144,101010,2,0,L|144:128,1,50,0|0,0:0|0:0,0:0:0:0:
320,192,101175,5,8,0:0:0:0:
416,192,101340,2,0,L|400:240,1,50,0|0,0:0|0:0,0:0:0:0:
304,240,101505,1,8,0:0:0:0:
240,240,101587,1,0,0:0:0:0:
190,200,101669,1,4,0:0:0:0:
175,138,101752,1,0,0:0:0:0:
202,81,101834,1,0,0:0:0:0:
260,53,101917,1,0,0:0:0:0:
352,48,101999,2,0,L|336:96,1,50,4|0,0:0|0:0,0:0:0:0:
240,96,102164,1,8,0:0:0:0:
190,100,102246,1,0,0:0:0:0:
141,90,102328,1,0,0:0:0:0:
98,65,102411,1,0,0:0:0:0:
192,32,102494,5,8,0:0:0:0:
241,27,102576,1,0,0:0:0:0:
290,37,102658,1,0,0:0:0:0:
333,62,102741,1,0,0:0:0:0:
432,64,102824,2,0,L|416:112,1,50,8|0,0:0|0:0,0:0:0:0:
320,112,102988,1,4,0:0:0:0:
270,116,103070,1,0,0:0:0:0:
221,106,103152,1,0,0:0:0:0:
178,81,103235,1,0,0:0:0:0:
80,80,103318,2,0,L|96:128,1,50,4|0,0:0|0:0,0:0:0:0:
192,128,103483,1,8,0:0:0:0:
242,124,103565,1,0,0:0:0:0:
291,134,103647,1,0,0:0:0:0:
334,159,103730,1,0,0:0:0:0:
432,192,103813,5,8,0:0:0:0:
272,192,103977,2,0,L|288:240,1,50,0|0,0:0|0:0,0:0:0:0:
64,192,104225,2,0,L|80:240,1,50,0|4,0:0|0:0,0:0:0:0:
304,192,104472,1,0,0:0:0:0:
144,192,104637,2,0,L|160:240,1,50,4|0,0:0|0:0,0:0:0:0:
256,240,104802,1,8,0:0:0:0:
304,248,104884,1,0,0:0:0:0:
351,231,104966,1,0,0:0:0:0:
383,193,105049,1,0,0:0:0:0:
256,192,105131,6,0,L|208:176,1,50,8|0,0:0|0:0,0:0:0:0:
288,176,105296,2,0,L|240:192,1,50,0|0,0:0|0:0,0:0:0:0:
160,192,105461,1,8,0:0:0:0:
320,256,105626,5,4,0:0:0:0:
384,256,105708,1,0,0:0:0:0:
320,256,105791,1,0,0:0:0:0:
281,259,105845,1,0,0:0:0:0:
241,256,105900,1,0,0:0:0:0:
204,244,105955,1,4,0:0:0:0:
168,224,106010,1,0,0:0:0:0:
138,198,106065,1,0,0:0:0:0:
112,160,106120,2,0,L|146:143,1,33.3333333333333,8|0,0:0|0:0,0:0:0:0:
176,160,106230,2,0,L|142:143,1,33.3333333333333,0|0,0:0|0:0,0:0:0:0:
112,128,106340,2,0,L|146:111,1,33.3333333333333,0|0,0:0|0:0,0:0:0:0:
208,128,106450,5,12,0:0:0:0:
336,128,106615,2,0,L|384:112,2,50,0|0|8,0:0|0:0|0:0,0:0:0:0:
208,128,106945,2,0,L|256:112,1,50,4|0,0:0|0:0,0:0:0:0:
304,112,107109,1,0,0:0:0:0:
352,112,107192,2,0,L|304:128,1,50,0|4,0:0|0:0,0:0:0:0:
160,112,107439,1,8,0:0:0:0:
336,112,107604,1,0,0:0:0:0:
160,112,107769,6,0,L|176:160,1,50,8|0,0:0|0:0,0:0:0:0:
112,160,107934,2,0,L|128:208,1,50,0|0,0:0|0:0,0:0:0:0:
64,208,108098,2,0,B|80:256|80:256|128:272,1,100,8|4,0:0|0:0,0:0:0:0:
176,272,108346,1,0,0:0:0:0:
128,272,108428,1,0,0:0:0:0:
96,272,108510,1,0,0:0:0:0:
80,272,108593,1,4,0:0:0:0:
432,272,108758,1,8,0:0:0:0:
176,272,108923,1,0,0:0:0:0:
336,272,109087,5,8,0:0:0:0:
400,272,109170,1,0,0:0:0:0:
448,272,109252,1,0,0:0:0:0:
272,192,109417,2,0,L|288:240,1,50,8|0,0:0|0:0,0:0:0:0:
368,192,109582,2,0,L|352:144,1,50,4|0,0:0|0:0,0:0:0:0:
256,144,109747,2,0,L|272:192,1,50,0|0,0:0|0:0,0:0:0:0:
368,144,109912,2,0,L|320:112,1,50,4|0,0:0|0:0,0:0:0:0:
240,144,110076,2,0,L|192:128,1,50,8|0,0:0|0:0,0:0:0:0:
112,144,110241,5,0,0:0:0:0:
75,176,110323,1,0,0:0:0:0:
63,224,110405,1,8,0:0:0:0:
79,271,110488,1,0,0:0:0:0:
176,272,110571,1,0,0:0:0:0:
212,239,110653,1,0,0:0:0:0:
224,191,110735,1,8,0:0:0:0:
208,144,110818,1,0,0:0:0:0:
112,144,110901,5,4,0:0:0:0:
75,176,110983,1,0,0:0:0:0:
63,224,111065,1,0,0:0:0:0:
80,272,111148,1,0,0:0:0:0:
224,272,111230,2,0,L|272:256,1,50,4|0,0:0|0:0,0:0:0:0:
352,240,111395,2,0,L|304:224,1,50,8|0,0:0|0:0,0:0:0:0:
224,208,111560,2,0,L|272:192,1,50,0|0,0:0|0:0,0:0:0:0:
416,192,111725,5,12,0:0:0:0:
288,192,111890,2,0,L|272:144,1,50,0|0,0:0|0:0,0:0:0:0:
320,144,112054,2,0,L|304:96,1,50,8|0,0:0|0:0,0:0:0:0:
352,96,112219,2,0,L|336:48,1,50,4|0,0:0|0:0,0:0:0:0:
384,48,112384,2,0,L|400:96,1,50,0|0,0:0|0:0,0:0:0:0:
496,96,112549,2,0,L|480:48,1,50,4|0,0:0|0:0,0:0:0:0:
384,48,112714,6,0,L|336:32,1,50,8|0,0:0|0:0,0:0:0:0:
240,48,112879,1,0,0:0:0:0:
201,79,112961,1,0,0:0:0:0:
183,125,113043,1,8,0:0:0:0:
191,174,113126,1,0,0:0:0:0:
224,208,113208,1,0,0:0:0:0:
400,208,113373,6,0,L|352:192,1,50,8|0,0:0|0:0,0:0:0:0:
240,336,113538,1,4,0:0:0:0:
201,304,113620,1,0,0:0:0:0:
183,258,113702,1,0,0:0:0:0:
191,209,113785,1,0,0:0:0:0:
224,176,113868,1,4,0:0:0:0:
416,336,114032,6,0,L|368:320,1,50,8|0,0:0|0:0,0:0:0:0:
288,320,114197,2,0,L|240:336,1,50,0|0,0:0|0:0,0:0:0:0:
64,336,114362,5,8,0:0:0:0:
192,64,114527,2,0,L|240:80,1,50,0|0,0:0|0:0,0:0:0:0:
320,64,114692,2,0,L|272:80,1,50,8|0,0:0|0:0,0:0:0:0:
192,112,114857,1,4,0:0:0:0:
221,151,114939,1,0,0:0:0:0:
221,200,115021,1,0,0:0:0:0:
192,239,115104,1,0,0:0:0:0:
112,240,115186,6,0,L|160:256,1,50,4|0,0:0|0:0,0:0:0:0:
240,240,115351,2,0,L|192:256,1,50,8|0,0:0|0:0,0:0:0:0:
112,272,115516,2,0,L|160:288,1,50,0|0,0:0|0:0,0:0:0:0:
304,240,115681,6,0,L|352:256,1,50,12|0,0:0|0:0,0:0:0:0:
432,240,115846,2,0,L|384:256,1,50,0|0,0:0|0:0,0:0:0:0:
304,240,116010,2,0,L|256:256,1,50,8|0,0:0|0:0,0:0:0:0:
176,240,116175,6,0,L|128:256,1,50,4|0,0:0|0:0,0:0:0:0:
52,336,116340,2,0,L|68:304,1,33.3333333333333,0|0,0:0|0:0,0:0:0:0:
112,336,116450,2,0,L|128:304,1,33.3333333333333,0|4,0:0|0:0,0:0:0:0:
172,336,116560,2,0,L|188:304,1,33.3333333333333,0|0,0:0|0:0,0:0:0:0:
232,336,116670,6,0,L|248:304,1,33.3333333333333,8|0,0:0|0:0,0:0:0:0:
292,336,116780,2,0,L|308:304,1,33.3333333333333,0|0,0:0|0:0,0:0:0:0:
352,336,116890,2,0,L|368:304,1,33.3333333333333,0|0,0:0|0:0,0:0:0:0:
416,336,116999,6,0,B|368:192|400:48|400:48|304:224|144:112,1,600.000022888185,0|0,0:0|0:0,0:0:0:0:
176,112,117741,1,0,0:0:0:0:
192,112,117824,1,8,0:0:0:0:
176,112,117906,1,0,0:0:0:0:
144,112,117988,1,0,0:0:0:0:
64,112,118153,1,8,0:0:0:0:
240,112,118318,5,4,0:0:0:0:
96,192,118483,1,0,0:0:0:0:
272,160,118648,1,4,0:0:0:0:
128,240,118813,1,0,0:0:0:0:
352,256,118977,5,2,0:0:0:0:
397,235,119059,1,0,0:0:0:0:
417,190,119141,1,2,0:0:0:0:
401,144,119224,1,0,0:0:0:0:
256,144,119307,1,2,0:0:0:0:
212,164,119389,1,0,0:0:0:0:
192,209,119471,1,2,0:0:0:0:
208,255,119554,1,0,0:0:0:0:
464,192,119637,5,4,0:0:0:0:
176,192,130186,6,0,B|256:80|336:192|336:192|256:304|176:192,1,400,2|2,0:0|0:0,0:0:0:0:
416,192,132164,2,0,B|464:176|464:176|416:192,1,100,2|2,0:0|0:0,0:0:0:0:
256,192,132823,6,0,B|176:368|48:288|96:192|96:192|48:96|176:16|256:192,1,600,2|2,0:0|0:0,0:0:0:0:
144,192,135131,1,2,0:0:0:0:
256,192,135461,12,2,137439,0:0:0:0:
256,192,138098,12,6,139417,0:0:0:0:
128,192,140735,5,14,0:0:0:0:
384,192,140900,2,0,L|464:192,2,75.0000028610231,0|0|0,0:0|0:0|0:0,0:0:0:0:
160,192,141395,2,0,P|96:192|48:128,1,150.000005722046,8|8,0:0|0:0,0:0:0:0:
320,192,142054,6,0,L|336:112,1,75.0000028610231,10|0,0:0|0:0,0:0:0:0:
177,118,142384,2,0,L|192:192,1,75.0000028610231,8|0,0:0|0:0,0:0:0:0:
320,192,142713,1,10,0:0:0:0:
192,192,142878,1,8,0:0:0:0:
256,192,143043,1,0,0:0:0:0:
384,192,143373,5,10,0:0:0:0:
128,192,143538,2,0,L|48:192,2,75.0000028610231,0|0|0,0:0|0:0|0:0,0:0:0:0:
352,192,144033,2,0,P|416:192|464:128,1,150.000005722046,10|0,0:0|0:0,0:0:0:0:
160,192,144691,6,0,L|235:192,2,75.0000028610231,10|0|0,0:0|0:0|0:0,0:0:0:0:
272,192,145186,1,0,0:0:0:0:
384,192,145351,2,0,P|304:192|256:144,1,150.000005722046,10|2,0:0|0:0,0:0:0:0:
384,192,146010,5,10,0:0:0:0:
128,192,146175,2,0,L|48:192,2,75.0000028610231,0|0|0,0:0|0:0|0:0,0:0:0:0:
352,192,146670,2,0,P|416:192|464:256,1,150.000005722046,8|8,0:0|0:0,0:0:0:0:
192,192,147329,6,0,L|176:272,1,75.0000028610231,10|0,0:0|0:0,0:0:0:0:
335,266,147659,2,0,L|320:192,1,75.0000028610231,8|0,0:0|0:0,0:0:0:0:
192,192,147988,1,10,0:0:0:0:
320,192,148153,1,8,0:0:0:0:
256,192,148318,1,0,0:0:0:0:
128,192,148648,5,10,0:0:0:0:
384,192,148813,2,0,L|464:192,2,75.0000028610231,0|0|0,0:0|0:0|0:0,0:0:0:0:
160,192,149308,2,0,P|96:192|48:256,1,150.000005722046,10|0,0:0|0:0,0:0:0:0:
352,192,149966,6,0,L|277:192,2,75.0000028610231,10|0|0,0:0|0:0|0:0,0:0:0:0:
224,192,150461,1,0,0:0:0:0:
96,192,150626,2,0,L|171:192,2,75.0000028610231,8|0|0,0:0|0:0|0:0,0:0:0:0:
224,192,151120,1,0,0:0:0:0:
480,192,151285,6,0,L|432:128,1,75.0000028610231,14|0,0:0|0:0,0:0:0:0:
304,192,151615,2,0,L|256:128,1,75.0000028610231,0|0,0:0|0:0,0:0:0:0:
96,192,151944,2,0,L|144:128,1,75.0000028610231,8|0,0:0|0:0,0:0:0:0:
272,192,152274,2,0,L|320:128,1,75.0000028610231,8|0,0:0|0:0,0:0:0:0:
480,192,152604,6,0,L|432:256,1,75.0000028610231,10|0,0:0|0:0,0:0:0:0:
288,192,152934,2,0,L|336:128,1,75.0000028610231,8|0,0:0|0:0,0:0:0:0:
480,192,153263,1,10,0:0:0:0:
352,192,153428,1,8,0:0:0:0:
288,192,153593,1,2,0:0:0:0:
32,192,153922,6,0,L|80:128,1,75.0000028610231,14|0,0:0|0:0,0:0:0:0:
208,192,154252,2,0,L|256:128,1,75.0000028610231,0|0,0:0|0:0,0:0:0:0:
416,192,154581,2,0,L|368:128,1,75.0000028610231,8|0,0:0|0:0,0:0:0:0:
240,192,154911,2,0,L|192:128,1,75.0000028610231,8|0,0:0|0:0,0:0:0:0:
32,192,155241,6,0,L|80:256,1,75.0000028610231,8|0,0:0|0:0,0:0:0:0:
224,192,155571,2,0,L|176:128,1,75.0000028610231,8|0,0:0|0:0,0:0:0:0:
288,128,155900,1,10,0:0:0:0:
400,128,156065,2,0,L|320:128,2,75.0000028610231,8|2|0,0:0|0:0|0:0,0:0:0:0:
112,128,156560,6,0,L|160:192,1,75.0000028610231,14|0,0:0|0:0,0:0:0:0:
400,128,156889,2,0,L|352:192,1,75.0000028610231,0|0,0:0|0:0,0:0:0:0:
208,192,157219,2,0,L|160:128,1,75.0000028610231,8|0,0:0|0:0,0:0:0:0:
416,192,157549,2,0,L|464:128,1,75.0000028610231,8|0,0:0|0:0,0:0:0:0:
96,192,157878,6,0,L|16:176,2,75.0000028610231,8|0|8,0:0|0:0|0:0,0:0:0:0:
256,192,158373,1,0,0:0:0:0:
416,192,158538,2,0,L|464:128,1,75.0000028610231,10|8,0:0|0:0,0:0:0:0:
304,192,158867,2,0,L|256:128,1,75.0000028610231,0|0,0:0|0:0,0:0:0:0:
416,192,159197,6,0,L|464:128,1,75.0000028610231,10|0,0:0|0:0,0:0:0:0:
256,128,159527,1,0,0:0:0:0:
51,132,159691,2,0,L|96:192,1,75.0000028610231,0|8,0:0|0:0,0:0:0:0:
256,192,160021,1,0,0:0:0:0:
416,192,160186,2,0,L|461:132,1,75.0000028610231,8|0,0:0|0:0,0:0:0:0:
211,132,160516,6,0,L|256:192,1,75.0000028610231,14|0,0:0|0:0,0:0:0:0:
416,192,160845,2,0,L|461:132,1,75.0000028610231,8|0,0:0|0:0,0:0:0:0:
288,128,161175,1,8,0:0:0:0:
416,128,161340,2,0,L|496:128,2,75.0000028610231,8|0|0,0:0|0:0|0:0,0:0:0:0:
144,128,161834,5,4,0:0:0:0:
288,128,161998,1,8,0:0:0:0:
112,128,162163,1,4,0:0:0:0:
256,128,162327,1,8,0:0:0:0:
432,128,162493,1,4,0:0:0:0:
288,128,162657,1,8,0:0:0:0:
464,128,162823,1,4,0:0:0:0:
320,128,162987,1,8,0:0:0:0:
144,128,163152,5,6,0:0:0:0:
127,173,163234,1,0,0:0:0:0:
136,223,163316,1,8,0:0:0:0:
168,261,163399,1,0,0:0:0:0:
368,128,163482,1,6,0:0:0:0:
385,173,163564,1,0,0:0:0:0:
376,223,163646,1,8,0:0:0:0:
344,261,163729,1,0,0:0:0:0:
112,128,163812,1,6,0:0:0:0:
82,165,163894,1,0,0:0:0:0:
73,214,163976,1,8,0:0:0:0:
90,261,164059,1,0,0:0:0:0:
400,128,164141,5,10,0:0:0:0:
416,128,164471,5,12,0:0:0:0:
96,128,164636,2,0,L|160:208,1,100,2|10,0:0|0:0,0:0:0:0:
416,128,164965,2,0,L|352:208,1,100,2|0,0:0|0:0,0:0:0:0:
304,208,165213,1,0,0:0:0:0:
352,208,165295,1,8,0:0:0:0:
208,208,165460,2,0,L|112:176,1,100,10|0,0:0|0:0,0:0:0:0:
256,48,165790,6,0,L|352:80,1,100,10|0,0:0|0:0,0:0:0:0:
208,112,166119,2,0,L|288:176,1,100,10|8,0:0|0:0,0:0:0:0:
224,176,166366,1,0,0:0:0:0:
160,176,166449,2,0,L|192:272,1,100,0|8,0:0|0:0,0:0:0:0:
352,208,166779,2,0,L|320:112,1,100,8|0,0:0|0:0,0:0:0:0:
96,112,167108,5,8,0:0:0:0:
400,112,167273,2,0,L|336:192,1,100,2|10,0:0|0:0,0:0:0:0:
96,272,167603,2,0,L|160:192,1,100,2|0,0:0|0:0,0:0:0:0:
208,192,167850,1,0,0:0:0:0:
159,193,167932,1,8,0:0:0:0:
304,192,168097,2,0,L|208:160,1,100,10|0,0:0|0:0,0:0:0:0:
352,144,168427,5,10,0:0:0:0:
192,144,168592,1,0,0:0:0:0:
384,144,168757,1,10,0:0:0:0:
224,144,168921,1,8,0:0:0:0:
320,144,169004,1,0,0:0:0:0:
416,144,169086,2,0,L|448:240,1,100,0|8,0:0|0:0,0:0:0:0:
360,264,169334,1,0,0:0:0:0:
272,288,169416,2,0,L|240:192,1,100,8|0,0:0|0:0,0:0:0:0:
65,238,169746,5,8,0:0:0:0:
336,272,169910,2,0,L|416:208,1,100,2|10,0:0|0:0,0:0:0:0:
256,192,170240,2,0,L|336:128,1,100,2|0,0:0|0:0,0:0:0:0:
288,128,170487,1,0,0:0:0:0:
240,128,170570,1,8,0:0:0:0:
80,128,170735,2,0,L|160:64,1,100,10|0,0:0|0:0,0:0:0:0:
354,65,171064,6,0,L|432:128,1,100,10|0,0:0|0:0,0:0:0:0:
288,128,171394,2,0,L|320:224,1,100,10|8,0:0|0:0,0:0:0:0:
256,192,171641,1,0,0:0:0:0:
192,192,171724,2,0,L|160:288,1,100,0|8,0:0|0:0,0:0:0:0:
288,192,172053,2,0,L|320:96,1,100,8|0,0:0|0:0,0:0:0:0:
480,96,172383,5,8,0:0:0:0:
176,96,172548,2,0,L|256:160,1,100,2|10,0:0|0:0,0:0:0:0:
480,96,172877,2,0,L|400:160,1,100,2|0,0:0|0:0,0:0:0:0:
448,160,173125,1,0,0:0:0:0:
496,160,173207,1,8,0:0:0:0:
352,192,173372,2,0,L|447:223,1,100,10|0,0:0|0:0,0:0:0:0:
176,224,173702,5,10,0:0:0:0:
112,224,173784,1,0,0:0:0:0:
64,224,173866,1,8,0:0:0:0:
304,192,174031,1,10,0:0:0:0:
64,160,174196,1,8,0:0:0:0:
112,160,174278,1,0,0:0:0:0:
176,160,174360,1,0,0:0:0:0:
448,192,174526,1,10,0:0:0:0:
176,192,174691,1,8,0:0:0:0:
112,192,174773,1,0,0:0:0:0:
64,192,174855,1,0,0:0:0:0:
320,192,175020,6,0,L|384:112,1,100,8|2,0:0|0:0,0:0:0:0:
130,113,175350,2,0,L|192:192,1,100,8|2,0:0|0:0,0:0:0:0:
336,192,175680,2,0,L|368:96,1,100,0|10,0:0|0:0,0:0:0:0:
176,96,176009,1,10,0:0:0:0:
336,96,176174,1,0,0:0:0:0:
208,96,176339,6,0,L|112:128,1,100,10|0,0:0|0:0,0:0:0:0:
304,96,176669,2,0,L|400:128,1,100,10|8,0:0|0:0,0:0:0:0:
304,144,176916,1,0,0:0:0:0:
208,144,176998,1,0,0:0:0:0:
304,144,177163,1,8,0:0:0:0:
208,144,177328,1,8,0:0:0:0:
304,144,177493,1,0,0:0:0:0:
48,144,177658,6,0,L|112:224,1,100,8|2,0:0|0:0,0:0:0:0:
464,240,177987,2,0,L|400:160,1,100,8|2,0:0|0:0,0:0:0:0:
96,144,178317,1,0,0:0:0:0:
97,193,178399,1,0,0:0:0:0:
123,235,178481,1,10,0:0:0:0:
416,240,178647,1,10,0:0:0:0:
256,240,178812,1,0,0:0:0:0:
96,240,178976,6,0,L|128:144,1,100,10|0,0:0|0:0,0:0:0:0:
256,144,179306,1,10,0:0:0:0:
416,144,179471,1,8,0:0:0:0:
376,112,179553,1,0,0:0:0:0:
337,81,179636,2,0,L|432:112,1,100,0|8,0:0|0:0,0:0:0:0:
96,160,179965,2,0,L|192:128,1,100,8|0,0:0|0:0,0:0:0:0:
416,160,180295,6,0,L|448:256,1,100,8|2,0:0|0:0,0:0:0:0:
256,160,180625,2,0,L|288:254,1,100,8|2,0:0|0:0,0:0:0:0:
416,160,180954,2,0,L|448:256,1,100,0|10,0:0|0:0,0:0:0:0:
96,160,181284,2,0,L|128:254,1,100,10|0,0:0|0:0,0:0:0:0:
416,160,181614,5,10,0:0:0:0:
256,160,181779,2,0,L|96:160,1,150,2|0,0:0|0:0,0:0:0:0:
32,128,182108,2,0,L|192:128,1,150,8|0,0:0|0:0,0:0:0:0:
256,160,182438,1,10,0:0:0:0:
416,160,182603,1,10,0:0:0:0:
256,160,182768,1,2,0:0:0:0:
432,192,182932,5,8,0:0:0:0:
256,192,183097,1,2,0:0:0:0:
432,192,183262,1,10,0:0:0:0:
176,192,183427,2,0,L|128:208,2,50,2|0|0,0:0|0:0|0:0,0:0:0:0:
352,192,183757,1,10,0:0:0:0:
160,192,183921,1,10,0:0:0:0:
336,192,184086,1,0,0:0:0:0:
64,256,184251,5,14,0:0:0:0:
112,256,184334,1,0,0:0:0:0:
176,256,184416,1,0,0:0:0:0:
448,256,184581,1,10,0:0:0:0:
176,256,184746,2,0,L|128:240,1,50,12|0,0:0|0:0,0:0:0:0:
272,240,184910,5,0,0:0:0:0:
321,232,184992,1,0,0:0:0:0:
360,203,185074,1,8,0:0:0:0:
383,159,185157,1,0,0:0:0:0:
240,240,185240,1,12,0:0:0:0:
191,232,185322,1,0,0:0:0:0:
152,203,185404,1,0,0:0:0:0:
129,159,185487,1,0,0:0:0:0:
320,176,185570,5,12,0:0:0:0:
480,176,185735,2,0,L|400:112,1,100,2|10,0:0|0:0,0:0:0:0:
240,112,186064,2,0,L|320:176,1,100,2|0,0:0|0:0,0:0:0:0:
272,176,186312,1,0,0:0:0:0:
320,176,186394,1,8,0:0:0:0:
176,176,186559,2,0,L|276:176,1,100,10|0,0:0|0:0,0:0:0:0:
128,176,186888,6,0,L|192:96,1,100,10|0,0:0|0:0,0:0:0:0:
384,176,187218,2,0,L|320:96,1,100,10|8,0:0|0:0,0:0:0:0:
224,112,187465,1,0,0:0:0:0:
128,176,187548,2,0,P|96:224|80:272,1,100,0|8,0:0|0:0,0:0:0:0:
384,176,187877,2,0,P|416:224|432:272,1,100,8|0,0:0|0:0,0:0:0:0:
272,272,188207,5,8,0:0:0:0:
496,272,188372,2,0,L|416:208,1,100,2|10,0:0|0:0,0:0:0:0:
256,208,188702,2,0,L|336:272,1,100,2|0,0:0|0:0,0:0:0:0:
288,272,188949,1,0,0:0:0:0:
240,272,189031,1,8,0:0:0:0:
80,272,189196,2,0,L|16:192,1,100,10|0,0:0|0:0,0:0:0:0:
160,192,189526,5,10,0:0:0:0:
32,192,189691,1,0,0:0:0:0:
192,192,189855,1,10,0:0:0:0:
64,192,190020,1,8,0:0:0:0:
152,192,190103,1,0,0:0:0:0:
240,192,190185,2,0,P|288:192|320:144,1,100,0|8,0:0|0:0,0:0:0:0:
248,120,190432,1,0,0:0:0:0:
176,80,190515,2,0,P|128:80|96:128,1,100,8|0,0:0|0:0,0:0:0:0:
384,128,190844,5,8,0:0:0:0:
128,128,191009,2,0,L|183:211,1,100,2|10,0:0|0:0,0:0:0:0:
328,211,191339,2,0,L|384:128,1,100,2|0,0:0|0:0,0:0:0:0:
336,128,191586,1,0,0:0:0:0:
384,128,191669,1,8,0:0:0:0:
240,128,191834,2,0,L|144:96,1,100,10|0,0:0|0:0,0:0:0:0:
304,256,192163,6,0,L|400:288,1,100,10|0,0:0|0:0,0:0:0:0:
256,288,192493,2,0,L|176:224,1,100,10|8,0:0|0:0,0:0:0:0:
240,224,192740,1,0,0:0:0:0:
304,224,192823,2,0,L|336:128,1,100,0|8,0:0|0:0,0:0:0:0:
208,160,193152,2,0,L|176:256,1,100,8|0,0:0|0:0,0:0:0:0:
432,256,193482,5,8,0:0:0:0:
128,256,193647,2,0,L|48:192,1,100,2|10,0:0|0:0,0:0:0:0:
192,48,193976,2,0,L|272:112,1,100,2|0,0:0|0:0,0:0:0:0:
224,112,194224,1,0,0:0:0:0:
176,112,194306,1,8,0:0:0:0:
336,112,194471,2,0,L|416:176,1,100,10|0,0:0|0:0,0:0:0:0:
176,224,194801,5,10,0:0:0:0:
112,224,194883,1,0,0:0:0:0:
64,224,194965,1,8,0:0:0:0:
304,192,195130,1,10,0:0:0:0:
64,160,195295,1,8,0:0:0:0:
112,160,195377,1,0,0:0:0:0:
176,160,195459,1,0,0:0:0:0:
448,192,195625,1,10,0:0:0:0:
176,192,195790,1,8,0:0:0:0:
224,192,195872,1,0,0:0:0:0:
288,192,195954,1,0,0:0:0:0:
32,192,196119,6,0,L|64:288,1,100,12|2,0:0|0:0,0:0:0:0:
320,192,196449,2,0,L|288:96,1,100,8|2,0:0|0:0,0:0:0:0:
32,192,196779,2,0,L|128:224,1,100,0|10,0:0|0:0,0:0:0:0:
256,224,197108,1,10,0:0:0:0:
112,224,197273,1,0,0:0:0:0:
240,224,197438,6,0,L|336:192,1,100,10|0,0:0|0:0,0:0:0:0:
176,224,197768,2,0,L|80:192,1,100,10|8,0:0|0:0,0:0:0:0:
144,192,198015,1,0,0:0:0:0:
208,192,198097,1,0,0:0:0:0:
80,192,198262,1,8,0:0:0:0:
224,192,198427,1,8,0:0:0:0:
64,192,198592,1,0,0:0:0:0:
480,192,198757,6,0,L|448:96,1,100,8|2,0:0|0:0,0:0:0:0:
192,192,199087,2,0,L|224:288,1,100,8|2,0:0|0:0,0:0:0:0:
480,192,199417,2,0,L|384:160,1,100,0|10,0:0|0:0,0:0:0:0:
256,160,199746,1,10,0:0:0:0:
400,160,199911,1,0,0:0:0:0:
272,160,200076,6,0,L|176:192,1,100,10|0,0:0|0:0,0:0:0:0:
336,160,200406,2,0,L|432:192,1,100,10|8,0:0|0:0,0:0:0:0:
368,192,200653,1,0,0:0:0:0:
304,192,200735,1,0,0:0:0:0:
432,192,200900,5,8,0:0:0:0:
208,192,201065,1,8,0:0:0:0:
448,192,201230,1,0,0:0:0:0:
80,192,201394,5,8,0:0:0:0:
224,192,201559,1,2,0:0:0:0:
48,192,201724,1,8,0:0:0:0:
192,192,201889,1,2,0:0:0:0:
432,192,202053,5,8,0:0:0:0:
288,192,202218,1,10,0:0:0:0:
464,192,202383,1,10,0:0:0:0:
320,192,202548,1,0,0:0:0:0:
48,192,202713,6,0,L|112:112,1,100,10|2,0:0|0:0,0:0:0:0:
289,113,203042,2,0,L|352:192,1,100,10|8,0:0|0:0,0:0:0:0:
160,192,203372,2,0,L|222:113,1,100,8|10,0:0|0:0,0:0:0:0:
401,113,203702,2,0,L|464:192,1,100,10|2,0:0|0:0,0:0:0:0:
176,256,204031,5,12,0:0:0:0:
160,209,204113,1,0,0:0:0:0:
174,162,204195,1,2,0:0:0:0:
208,128,204278,1,0,0:0:0:0:
304,128,204361,1,10,0:0:0:0:
337,162,204444,1,0,0:0:0:0:
351,209,204526,1,2,0:0:0:0:
336,256,204608,1,0,0:0:0:0:
116,222,204691,5,12,0:0:0:0:
125,174,204773,1,0,0:0:0:0:
161,140,204855,1,10,0:0:0:0:
208,128,204938,1,0,0:0:0:0:
304,128,205020,1,10,0:0:0:0:
351,140,205103,1,0,0:0:0:0:
387,174,205185,1,0,0:0:0:0:
396,222,205267,1,0,0:0:0:0:
64,192,205350,6,0,L|16:176,2,50,14|0|0,0:0|0:0|0:0,0:0:0:0:
208,192,205597,2,0,L|256:208,2,50,0|10|0,0:0|0:0|0:0,0:0:0:0:
64,192,205844,2,0,L|16:176,1,50,12|0,0:0|0:0,0:0:0:0:
160,176,206009,1,0,0:0:0:0:
209,180,206091,1,0,0:0:0:0:
256,176,206173,1,8,0:0:0:0:
288,144,206256,1,0,0:0:0:0:
224,144,206339,1,12,0:0:0:0:
256,176,206422,1,0,0:0:0:0:
302,180,206504,1,0,0:0:0:0:
352,176,206586,1,0,0:0:0:0:
160,240,206669,5,12,0:0:0:0:
32,240,206833,2,0,L|80:224,1,50,2|0,0:0|0:0,0:0:0:0:
208,192,207163,2,0,L|160:208,2,50,2|2|0,0:0|0:0|0:0,0:0:0:0:
112,224,207658,2,0,L|160:208,1,50,2|0,0:0|0:0,0:0:0:0:
352,192,207987,6,0,L|416:192,1,50,10|0,0:0|0:0,0:0:0:0:
270,192,208317,2,0,L|320:192,2,50,2|2|0,0:0|0:0|0:0,0:0:0:0:
352,144,209306,5,0,0:0:0:0:
480,144,209471,2,0,L|432:160,1,50,2|0,0:0|0:0,0:0:0:0:
304,192,209800,2,0,L|352:176,2,50,2|2|0,0:0|0:0|0:0,0:0:0:0:
400,160,210295,2,0,L|352:176,1,50,2|0,0:0|0:0,0:0:0:0:
160,192,210624,6,0,L|96:192,1,50,10|0,0:0|0:0,0:0:0:0:
242,192,210954,2,0,L|304:192,2,50,2|2|0,0:0|0:0|0:0,0:0:0:0:
160,240,211943,5,0,0:0:0:0:
320,240,212108,2,0,L|272:224,1,50,2|0,0:0|0:0,0:0:0:0:
112,240,212438,2,0,L|160:224,2,50,2|2|0,0:0|0:0|0:0,0:0:0:0:
208,208,212932,2,0,L|160:224,1,50,2|0,0:0|0:0,0:0:0:0:
352,224,213262,6,0,L|304:208,1,50,10|0,0:0|0:0,0:0:0:0:
416,208,213592,2,0,L|368:224,2,50,2|2|0,0:0|0:0|0:0,0:0:0:0:
352,144,214581,5,0,0:0:0:0:
192,144,214745,2,0,L|240:160,1,50,2|0,0:0|0:0,0:0:0:0:
400,144,215076,2,0,L|352:160,2,50,2|2|0,0:0|0:0|0:0,0:0:0:0:
304,176,215570,2,0,L|352:160,1,50,2|0,0:0|0:0,0:0:0:0:
160,160,215900,6,0,L|208:176,1,50,10|0,0:0|0:0,0:0:0:0:
96,176,216230,2,0,L|144:160,2,50,2|2|0,0:0|0:0|0:0,0:0:0:0:
143,160,216723,1,2,0:0:0:0:
256,160,216888,1,2,0:0:0:0:
143,160,217053,1,0,0:0:0:0:
256,160,217218,6,0,L|304:144,1,50,2|0,0:0|0:0,0:0:0:0:
432,160,217548,2,0,L|384:144,1,50,2|0,0:0|0:0,0:0:0:0:
272,160,217877,2,0,L|320:144,1,50,2|0,0:0|0:0,0:0:0:0:
416,160,218207,2,0,L|368:144,1,50,2|0,0:0|0:0,0:0:0:0:
176,144,218537,6,0,L|128:160,1,50,10|0,0:0|0:0,0:0:0:0:
240,160,218866,2,0,L|192:144,2,50,2|2|0,0:0|0:0|0:0,0:0:0:0:
256,224,219855,6,0,L|208:240,1,50,2|0,0:0|0:0,0:0:0:0:
80,224,220185,2,0,L|128:240,1,50,2|0,0:0|0:0,0:0:0:0:
240,224,220514,2,0,L|192:240,1,50,2|0,0:0|0:0,0:0:0:0:
96,224,220844,2,0,L|144:240,1,50,2|0,0:0|0:0,0:0:0:0:
336,240,221174,6,0,L|384:224,1,50,10|0,0:0|0:0,0:0:0:0:
272,224,221503,2,0,L|320:240,2,50,2|2|0,0:0|0:0|0:0,0:0:0:0:
352,224,221998,1,2,0:0:0:0:
272,192,222163,1,2,0:0:0:0:
352,192,222328,1,2,0:0:0:0:
224,160,222493,5,2,0:0:0:0:
304,160,222658,1,0,0:0:0:0:
352,160,222822,1,0,0:0:0:0:
192,128,222987,1,2,0:0:0:0:
272,128,223152,1,2,0:0:0:0:
320,128,223316,1,0,0:0:0:0:
160,96,223482,1,0,0:0:0:0:
288,96,223647,1,2,0:0:0:0:
112,64,223811,6,0,L|160:80,1,50,10|2,0:0|0:0,0:0:0:0:
352,64,224306,1,2,0:0:0:0:
128,64,224636,2,0,L|80:48,2,50,2|2|0,0:0|0:0|0:0,0:0:0:0:
256,64,225130,6,0,L|304:48,2,50,2|0|0,0:0|0:0|0:0,0:0:0:0:
96,80,225625,2,0,L|192:112,1,100,2|0,0:0|0:0,0:0:0:0:
288,112,226119,2,0,L|272:160,1,50,2|0,0:0|0:0,0:0:0:0:
112,160,226449,6,0,L|160:192,1,50,10|0,0:0|0:0,0:0:0:0:
272,192,226778,2,0,L|320:160,1,50,2|0,0:0|0:0,0:0:0:0:
432,192,227108,6,0,L|400:192,1,25,2|0,0:0|0:0,0:0:0:0:
192,272,227273,2,0,L|167:272,1,25,2|0,0:0|0:0,0:0:0:0:
345,112,227438,2,0,L|320:112,1,25,2|0,0:0|0:0,0:0:0:0:
105,192,227603,2,0,L|80:192,1,25,2|0,0:0|0:0,0:0:0:0:
256,192,227767,5,6,0:0:0:0:
256,192,227932,12,0,230405,0:0:0:0:
