osu file format v13

[General]
AudioFilename: 03. Renatus - Soleily 192kbps.mp3
AudioLeadIn: 0
PreviewTime: 164471
Countdown: 0
SampleSet: Normal
StackLeniency: 0.7
Mode: 2
LetterboxInBreaks: 0
WidescreenStoryboard: 0

[Editor]
Bookmarks: 42494,43153,53703,56505,93263,93593,93923,94417,94747,95076,95571,95736,119637,119966,129856,130186
DistanceSpacing: 1
BeatDivisor: 4
GridSize: 16
TimelineZoom: 1.399999

[Metadata]
Title:Renatus
TitleUnicode:Renatus
Artist:Soleily
ArtistUnicode:Soleily
Creator:Deif
Version:Salad
Source:
Tags:MBC7 Unisphere 地球ヤバイEP Chikyu Yabai
BeatmapID:557812
BeatmapSetID:241526

[Difficulty]
HPDrainRate:4
CircleSize:3
OverallDifficulty:7
ApproachRate:7
SliderMultiplier:1.5
SliderTickRate:2

[Events]
//Background and Video events
0,0,"machinetop_background.jpg",0,0
//Break Periods
2,119837,129286
//Storyboard Layer 0 (Background)
//Storyboard Layer 1 (Fail)
//Storyboard Layer 2 (Pass)
//Storyboard Layer 3 (Foreground)
//Storyboard Sound Samples

[TimingPoints]
956,329.67032967033,4,1,0,40,1,0
2274,-100,4,3,0,40,0,0
11505,-100,4,1,0,40,0,0
12824,-100,4,3,0,40,0,0
22054,-100,4,1,0,40,0,0
43153,-100,4,3,0,40,0,0
48428,-142.857142857143,4,3,0,20,0,0
49747,-125,4,3,0,25,0,0
51065,-111.111111111111,4,3,0,30,0,0
52384,-100,4,3,0,35,0,0
53703,-100,4,1,0,45,0,0
74802,-100,4,1,0,55,0,0
75626,-100,4,1,0,35,0,0
76120,-100,4,1,0,55,0,0
76945,-100,4,1,0,35,0,0
77439,-100,4,1,0,55,0,0
77604,-100,4,1,0,35,0,0
80076,-100,4,1,0,55,0,0
80901,-100,4,1,0,35,0,0
81395,-100,4,1,0,55,0,0
82219,-100,4,1,0,35,0,0
82714,-100,4,1,0,55,0,0
82879,-100,4,1,0,35,0,0
85351,-100,4,1,0,55,0,0
86175,-100,4,1,0,35,0,0
86670,-100,4,1,0,55,0,0
87494,-100,4,1,0,35,0,0
87988,-100,4,1,0,55,0,0
88153,-100,4,1,0,35,0,0
90626,-100,4,1,0,55,0,0
91450,-100,4,1,0,35,0,0
91945,-100,4,1,0,55,0,0
92769,-100,4,1,0,35,0,0
93263,-100,4,1,0,55,0,0
95901,-100,4,1,0,50,0,1
96395,-100,4,3,0,50,0,1
96890,-100,4,1,0,50,0,1
97714,-100,4,3,0,50,0,1
98208,-100,4,1,0,50,0,1
99032,-100,4,3,0,50,0,1
99527,-100,4,1,0,50,0,1
100351,-100,4,3,0,50,0,1
100846,-100,4,1,0,50,0,1
101670,-100,4,3,0,50,0,1
102164,-100,4,1,0,50,0,1
102988,-100,4,3,0,50,0,1
103483,-100,4,1,0,50,0,1
104307,-100,4,3,0,50,0,1
104802,-100,4,1,0,50,0,1
105626,-100,4,3,0,50,0,1
106120,-100,4,1,0,50,0,1
106945,-100,4,3,0,50,0,1
107439,-100,4,1,0,50,0,1
108263,-100,4,3,0,50,0,1
108758,-100,4,1,0,50,0,1
109582,-100,4,3,0,50,0,1
110076,-100,4,1,0,50,0,1
110901,-100,4,3,0,50,0,1
111395,-100,4,1,0,50,0,1
112219,-100,4,3,0,50,0,1
112714,-100,4,1,0,50,0,1
113538,-100,4,3,0,50,0,1
114032,-100,4,1,0,50,0,1
114857,-100,4,3,0,50,0,1
115351,-100,4,1,0,50,0,1
116175,-100,4,3,0,50,0,1
116670,-100,4,1,0,50,0,1
116999,-66.6666666666667,4,2,0,40,0,0
117659,-100,4,3,0,30,0,0
118318,-100,4,3,0,40,0,0
119637,659.340659340659,4,1,0,40,1,0
130186,-100,4,2,0,40,0,0
140735,-66.6666666666667,4,2,0,50,0,0
161834,329.67032967033,4,3,0,50,1,0
163152,-100,4,3,0,55,0,0
163482,-100,4,3,0,60,0,0
163812,-100,4,3,0,65,0,0
164141,-100,4,1,0,50,0,0
164471,-100,4,1,0,60,0,1
184910,-100,4,1,0,60,0,0
185570,-100,4,1,0,60,0,1
206669,659.340659340659,4,2,0,40,1,0
207987,-100,4,1,0,20,0,0
208152,-100,4,2,0,40,0,0
208647,-100,4,2,0,20,0,0
209306,-100,4,2,0,40,0,0
210625,-100,4,1,0,15,0,0
210789,-100,4,2,0,40,0,0
211284,-100,4,2,0,20,0,0
211943,-100,4,2,0,40,0,0
213262,-100,4,1,0,10,0,0
213427,-100,4,2,0,40,0,0
213921,-100,4,2,0,20,0,0
214581,-100,4,2,0,40,0,0
215899,-100,4,1,0,10,0,0
216064,-100,4,2,0,40,0,0
216559,-100,4,2,0,20,0,0
217218,-100,4,2,0,40,0,0
218537,-100,4,1,0,10,0,0
218701,-100,4,2,0,40,0,0
219196,-100,4,2,0,20,0,0
219855,-100,4,2,0,40,0,0
221174,-100,4,1,0,10,0,0
221339,-100,4,2,0,40,0,0
221833,-100,4,2,0,20,0,0
222493,-100,4,2,0,40,0,0
223811,-100,4,1,0,10,0,0
223976,-100,4,2,0,40,0,0
226449,-100,4,1,0,10,0,0
226614,-100,4,2,0,40,0,0
227108,-100,4,2,0,50,0,0
227932,-100,4,2,0,10,0,0

[Colours]
Combo1 : 128,255,255
Combo2 : 255,128,128
Combo3 : 255,255,128
Combo4 : 128,255,0

[HitObjects]
144,192,956,6,0,B|224:192|224:192|256:128,1,150,4|8,0:0|0:0,0:0:0:0:
144,128,1450,1,2,0:0:0:0:
352,128,1780,1,2,0:0:0:0:
144,128,2109,1,2,0:0:0:0:
255,129,2274,6,0,B|224:192|224:192|144:192,1,150,4|2,0:0|0:0,0:0:0:0:
256,256,2769,2,0,B|288:224|256:208|256:208|256:176|256:176|224:160|256:128,1,150,4|4,0:0|0:0,0:0:0:0:
367,192,3263,1,2,0:0:0:0:
128,192,3593,5,4,0:0:0:0:
384,192,3923,2,0,P|272:160|208:240,1,225,2|4,0:0|0:0,0:0:0:0:
336,192,4582,1,2,0:0:0:0:
176,192,4912,6,0,P|112:160|64:96,1,150,4|2,0:0|0:0,0:0:0:0:
192,48,5406,2,0,B|256:8|256:8|320:48,1,150,4|4,0:0|0:0,0:0:0:0:
447,98,5901,1,2,0:0:0:0:
256,96,6230,5,4,0:0:0:0:
32,96,6560,2,0,B|96:48|96:48|48:96|48:96|112:144,1,225,2|4,0:0|0:0,0:0:0:0:
224,144,7219,1,2,0:0:0:0:
416,144,7549,6,0,P|432:224|384:272,1,150,4|2,0:0|0:0,0:0:0:0:
272,240,8043,2,0,P|256:160|304:112,1,150,4|4,0:0|0:0,0:0:0:0:
416,144,8538,1,2,0:0:0:0:
224,144,8868,5,4,0:0:0:0:
416,144,9197,2,0,B|416:288|448:208|448:208|368:144,1,225,2|4,0:0|0:0,0:0:0:0:
480,224,9857,1,2,0:0:0:0:
288,223,10186,6,0,P|221:195|192:128,1,150,4|2,0:0|0:0,0:0:0:0:
320,127,10681,2,0,P|291:194|224:223,1,150,4|4,0:0|0:0,0:0:0:0:
96,224,11175,2,0,L|176:192,1,75,2|8,0:0|0:0,0:0:0:0:
32,192,11505,6,0,L|96:144,1,75,4|0,0:0|0:0,0:0:0:0:
192,144,11835,2,0,L|132:99,1,75,8|2,0:0|0:0,0:0:0:0:
324,147,12329,1,2,0:0:0:0:
448,144,12494,2,0,L|388:99,1,75,8|2,0:0|0:0,0:0:0:0:
256,96,12824,6,0,L|384:192,1,150,4|2,0:0|0:0,0:0:0:0:
256,288,13318,2,0,L|128:192,1,150,4|4,0:0|0:0,0:0:0:0:
256,192,13813,1,2,0:0:0:0:
64,144,14142,5,4,0:0:0:0:
288,144,14472,2,0,B|256:176|224:144|224:144|288:96|288:96|256:64|224:96,1,225,2|4,0:0|0:0,0:0:0:0:
112,128,15131,1,2,0:0:0:0:
320,128,15461,6,0,P|352:192|288:240,1,150,4|2,0:0|0:0,0:0:0:0:
192,256,15956,2,0,P|160:192|224:144,1,150,4|4,0:0|0:0,0:0:0:0:
320,128,16450,1,2,0:0:0:0:
128,128,16780,5,4,0:0:0:0:
320,192,17109,2,0,B|224:192|224:192|224:160|288:160|288:192|288:192|256:224,1,225,2|4,0:0|0:0,0:0:0:0:
144,224,17769,1,2,0:0:0:0:
368,224,18098,6,0,P|368:288|304:352,1,150,4|2,0:0|0:0,0:0:0:0:
199,348,18593,2,0,P|147:297|144:224,1,150,4|4,0:0|0:0,0:0:0:0:
256,192,19087,1,2,0:0:0:0:
64,192,19417,5,4,0:0:0:0:
256,224,19747,2,0,B|288:256|352:192|288:128|256:160|256:160|192:128,1,225,2|4,0:0|0:0,0:0:0:0:
320,128,20406,1,2,0:0:0:0:
64,256,20736,6,0,P|112:192|176:160,1,150,4|2,0:0|0:0,0:0:0:0:
338,160,21230,2,0,P|404:195|448:256,1,150,4|4,0:0|0:0,0:0:0:0:
320,256,21725,2,0,L|400:256,1,75,10|10,0:0|0:0,0:0:0:0:
272,256,22054,6,0,P|192:240|144:192,1,150,4|8,0:0|0:0,0:0:0:0:
272,192,22549,1,2,0:0:0:0:
32,192,22879,1,10,0:0:0:0:
256,192,23208,6,0,B|336:176|336:176|368:112,1,150,2|0,0:0|0:0,0:0:0:0:
240,112,23703,2,0,L|320:96,1,75,8|0,0:0|0:0,0:0:0:0:
144,112,24197,1,8,0:0:0:0:
272,112,24362,2,0,L|192:96,1,75,10|2,0:0|0:0,0:0:0:0:
320,96,24692,6,0,P|384:128|432:192,1,150,0|10,0:0|0:0,0:0:0:0:
320,192,25186,1,2,0:0:0:0:
96,192,25516,1,10,0:0:0:0:
320,192,25846,1,2,0:0:0:0:
352,240,26175,6,0,L|288:192,1,75,2|10,0:0|0:0,0:0:0:0:
160,240,26505,1,2,0:0:0:0:
384,272,26835,1,10,0:0:0:0:
192,272,27164,1,2,0:0:0:0:
352,240,27494,5,2,0:0:0:0:
224,240,27824,1,2,0:0:0:0:
320,208,28153,2,0,L|384:160,2,75,10|10|2,0:0|0:0|0:0,0:0:0:0:
96,176,28813,2,0,L|36:221,2,75,2|10|2,0:0|0:0|0:0,0:0:0:0:
320,176,29472,6,0,L|384:128,2,75,10|8|2,0:0|0:0|0:0,0:0:0:0:
192,208,29966,2,0,P|144:144|160:80,1,150,2|8,0:0|0:0,0:0:0:0:
320,208,30461,2,0,P|384:192|448:128,1,150,2|8,0:0|0:0,0:0:0:0:
320,160,30956,1,8,0:0:0:0:
416,192,31285,5,10,0:0:0:0:
272,208,31450,2,0,P|216:192|272:176,1,150,2|2,0:0|0:0,0:0:0:0:
480,192,32109,1,10,0:0:0:0:
400,192,32274,1,10,0:0:0:0:
320,192,32439,1,2,0:0:0:0:
240,128,32604,6,0,P|320:144|368:192,1,150,4|8,0:0|0:0,0:0:0:0:
240,192,33099,1,2,0:0:0:0:
480,192,33429,1,10,0:0:0:0:
256,192,33758,6,0,B|176:208|176:208|144:272,1,150,2|0,0:0|0:0,0:0:0:0:
272,272,34253,2,0,L|192:288,1,75,8|0,0:0|0:0,0:0:0:0:
368,272,34747,1,8,0:0:0:0:
240,272,34912,2,0,L|320:288,1,75,10|2,0:0|0:0,0:0:0:0:
192,288,35242,6,0,P|128:256|80:192,1,150,0|10,0:0|0:0,0:0:0:0:
192,192,35736,1,2,0:0:0:0:
416,192,36066,1,10,0:0:0:0:
192,192,36396,1,2,0:0:0:0:
160,144,36725,6,0,L|224:192,1,75,2|10,0:0|0:0,0:0:0:0:
352,144,37055,1,2,0:0:0:0:
128,112,37385,1,10,0:0:0:0:
320,112,37714,1,2,0:0:0:0:
160,144,38044,5,2,0:0:0:0:
288,144,38374,1,2,0:0:0:0:
192,176,38703,2,0,L|128:224,2,75,10|10|2,0:0|0:0|0:0,0:0:0:0:
416,208,39363,2,0,L|476:163,2,75,2|10|2,0:0|0:0|0:0,0:0:0:0:
192,208,40022,6,0,L|128:256,2,75,10|8|2,0:0|0:0|0:0,0:0:0:0:
304,176,40516,2,0,L|272:256,2,75,6|0|8,0:0|0:0|0:0,0:0:0:0:
208,176,41010,2,0,L|240:256,2,75,6|0|8,0:0|0:0|0:0,0:0:0:0:
320,224,41506,1,12,0:0:0:0:
96,192,41835,5,14,0:0:0:0:
224,192,41999,2,0,L|304:192,2,75,2|0|2,0:0|0:0|0:0,0:0:0:0:
96,192,42494,1,4,0:0:0:0:
192,192,42659,1,14,0:0:0:0:
288,192,42824,1,14,0:0:0:0:
192,192,42989,1,6,0:0:0:0:
272,192,43153,6,0,P|240:128|160:112,1,150,4|2,0:1|0:0,0:0:0:0:
416,112,43977,1,4,0:0:0:0:
304,112,44142,2,0,L|352:176,1,75,2|0,0:0|0:0,0:0:0:0:
448,176,44472,2,0,P|400:240|336:240,1,150,4|2,0:0|0:0,0:0:0:0:
240,224,44966,2,0,P|288:160|352:160,1,150,4|4,0:0|0:0,0:0:0:0:
448,176,45461,2,0,L|368:176,1,75,2|0,0:0|0:0,0:0:0:0:
240,192,45791,6,0,P|272:256|352:272,1,150,4|2,0:0|0:0,0:0:0:0:
96,272,46615,1,4,0:0:0:0:
208,272,46780,2,0,L|160:208,1,75,2|0,0:0|0:0,0:0:0:0:
64,208,47110,2,0,P|112:144|176:144,1,150,4|2,0:0|0:0,0:0:0:0:
272,160,47604,2,0,P|224:224|160:224,1,150,4|4,0:0|0:0,0:0:0:0:
64,208,48099,2,0,L|144:208,1,75,2|0,0:0|0:0,0:0:0:0:
256,208,48428,6,0,P|288:160|256:128,1,104.999996795654,4|2,0:1|0:0,0:0:0:0:
64,128,49252,2,0,L|64:192,1,52.4999983978272,4|2,0:0|0:0,0:0:0:0:
208,192,49747,6,0,P|256:224|304:192,1,120,4|2,0:1|0:0,0:0:0:0:
400,192,50241,2,0,P|352:160|304:192,1,120,4|4,0:0|0:0,0:0:0:0:
208,192,50736,1,2,0:0:0:0:
400,144,51065,6,0,P|432:192|400:256,1,134.999995880127,4|2,0:1|0:0,0:0:0:0:
176,192,51890,2,0,L|176:272,2,67.4999979400635,4|2|0,0:0|0:0|0:0,0:0:0:0:
80,192,52384,2,0,P|128:144|208:128,1,150,4|2,0:0|0:0,0:0:0:0:
305,127,52879,2,0,P|378:140|432:192,1,150,4|4,0:0|0:0,0:0:0:0:
336,192,53373,2,0,L|384:256,1,75,10|0,0:0|0:0,0:0:0:0:
256,192,53703,5,12,0:0:0:0:
144,192,53868,2,0,L|64:192,2,75,0|8|0,0:0|0:0|0:0,0:0:0:0:
256,192,54362,2,0,P|304:192|336:176,1,75,0|8,0:0|0:0,0:0:0:0:
208,64,54692,2,0,P|160:64|128:80,1,75,8|0,0:0|0:0,0:0:0:0:
256,192,55021,5,8,0:0:0:0:
368,192,55186,2,0,P|405:189|440:202,1,75,0|8,0:0|0:0,0:0:0:0:
319,320,55516,2,0,P|281:322|246:309,1,75,0|0,0:0|0:0,0:0:0:0:
384,160,55846,2,0,P|421:157|456:170,2,75,8|8|0,0:0|0:0|0:0,0:0:0:0:
256,192,56340,5,8,0:0:0:0:
176,192,56505,1,0,0:0:0:0:
256,192,56670,2,0,L|288:112,1,75,8|0,0:0|0:0,0:0:0:0:
160,192,56999,2,0,L|128:112,1,75,0|8,0:0|0:0,0:0:0:0:
272,192,57329,2,0,L|336:144,1,75,8|0,0:0|0:0,0:0:0:0:
256,192,57659,5,8,0:0:0:0:
352,192,57824,1,0,0:0:0:0:
256,192,57989,2,0,L|224:272,1,75,8|0,0:0|0:0,0:0:0:0:
352,192,58318,2,0,L|384:272,1,75,0|8,0:0|0:0,0:0:0:0:
256,192,58648,2,0,L|288:112,1,75,8|0,0:0|0:0,0:0:0:0:
400,192,58977,5,8,0:0:0:0:
256,192,59307,1,8,0:0:0:0:
112,192,59637,2,0,L|160:128,1,75,0|8,0:0|0:0,0:0:0:0:
272,128,59966,2,0,L|320:64,1,75,8|0,0:0|0:0,0:0:0:0:
256,192,60296,5,8,0:0:0:0:
144,192,60461,2,0,L|96:256,1,75,0|8,0:0|0:0,0:0:0:0:
208,272,60791,2,0,L|288:256,1,75,0|0,0:0|0:0,0:0:0:0:
416,272,61120,2,0,L|336:256,1,75,8|8,0:0|0:0,0:0:0:0:
256,192,61615,12,0,63428,0:0:0:0:
96,192,63758,5,8,0:0:0:0:
208,192,63923,2,0,L|128:192,1,75,8|0,0:0|0:0,0:0:0:0:
256,192,64252,5,12,0:0:0:0:
368,192,64417,2,0,L|448:192,2,75,0|8|0,0:0|0:0|0:0,0:0:0:0:
256,192,64911,2,0,P|208:192|176:208,1,75,0|8,0:0|0:0,0:0:0:0:
304,320,65241,2,0,P|352:320|384:304,1,75,8|0,0:0|0:0,0:0:0:0:
256,192,65571,5,8,0:0:0:0:
144,192,65736,2,0,P|107:195|72:182,1,75,0|8,0:0|0:0,0:0:0:0:
193,64,66066,2,0,P|231:62|266:75,1,75,0|0,0:0|0:0,0:0:0:0:
128,224,66396,2,0,P|91:227|56:214,2,75,8|8|0,0:0|0:0|0:0,0:0:0:0:
256,192,66890,5,8,0:0:0:0:
336,192,67055,1,0,0:0:0:0:
256,192,67220,2,0,L|224:272,1,75,8|0,0:0|0:0,0:0:0:0:
352,192,67549,2,0,L|384:272,1,75,0|8,0:0|0:0,0:0:0:0:
240,192,67879,2,0,L|176:240,1,75,8|0,0:0|0:0,0:0:0:0:
256,192,68209,5,8,0:0:0:0:
160,192,68374,1,0,0:0:0:0:
256,192,68539,2,0,L|288:112,1,75,8|0,0:0|0:0,0:0:0:0:
128,192,68868,2,0,L|160:112,1,75,0|8,0:0|0:0,0:0:0:0:
256,192,69198,2,0,L|224:272,1,75,8|0,0:0|0:0,0:0:0:0:
112,192,69527,5,8,0:0:0:0:
256,192,69857,1,8,0:0:0:0:
400,192,70187,2,0,L|352:256,1,75,0|0,0:0|0:0,0:0:0:0:
240,256,70516,2,0,L|288:320,1,75,8|0,0:0|0:0,0:0:0:0:
160,320,70846,5,8,0:0:0:0:
288,320,71011,2,0,L|352:272,1,75,0|8,0:0|0:0,0:0:0:0:
208,240,71341,2,0,L|128:256,1,75,0|0,0:0|0:0,0:0:0:0:
256,240,71670,2,0,L|336:256,1,75,8|8,0:0|0:0,0:0:0:0:
256,192,72164,12,8,73153,0:0:0:0:
176,192,73483,5,12,0:0:0:0:
368,192,73813,2,0,L|416:128,1,75,8|4,0:0|0:0,0:0:0:0:
176,192,74307,2,0,L|96:192,2,75,8|12|8,0:0|0:0|0:0,0:0:0:0:
336,192,74802,6,0,B|368:80|368:80|320:80,1,150,4|8,0:0|0:0,0:0:0:0:
176,80,75296,2,0,B|144:192|144:192|192:192,1,150,4|8,0:0|0:0,0:0:0:0:
320,192,75791,2,0,L|304:112,1,75,8|8,0:0|0:0,0:0:0:0:
192,80,76120,6,0,P|160:144|192:224,1,150,4|8,0:0|0:0,0:0:0:0:
320,304,76615,2,0,P|352:240|320:160,1,150,4|8,0:0|0:0,0:0:0:0:
208,80,77109,2,0,L|256:144,1,75,8|8,0:0|0:0,0:0:0:0:
112,144,77439,6,0,P|144:224|208:240,1,150,12|8,0:0|0:0,0:0:0:0:
320,240,77934,1,0,0:0:0:0:
192,240,78263,1,8,0:0:0:0:
312,240,78429,2,0,L|272:176,1,75,8|0,0:0|0:0,0:0:0:0:
400,144,78758,6,0,P|368:224|304:240,1,150,8|8,0:0|0:0,0:0:0:0:
192,240,79253,1,8,0:0:0:0:
320,240,79582,1,8,0:0:0:0:
200,240,79747,2,0,L|240:176,1,75,8|8,0:0|0:0,0:0:0:0:
112,144,80076,6,0,P|128:64|192:48,1,150,4|8,0:0|0:0,0:0:0:0:
325,46,80571,2,0,P|392:73|400:144,1,150,4|8,0:0|0:0,0:0:0:0:
288,144,81065,2,0,L|336:208,1,75,8|8,0:0|0:0,0:0:0:0:
192,208,81395,6,0,B|112:208|112:208|192:224,1,150,4|8,0:0|0:0,0:0:0:0:
320,208,81890,2,0,B|400:208|400:208|320:224,1,150,4|8,0:0|0:0,0:0:0:0:
208,208,82384,2,0,L|160:144,1,75,8|8,0:0|0:0,0:0:0:0:
320,144,82714,6,0,P|384:128|352:64,1,150,12|8,0:0|0:0,0:0:0:0:
256,64,83208,1,0,0:0:0:0:
96,144,83538,1,8,0:0:0:0:
192,143,83703,2,0,L|112:128,1,75,8|0,0:0|0:0,0:0:0:0:
224,128,84032,6,0,P|304:128|352:176,1,150,8|8,0:0|0:0,0:0:0:0:
256,192,84527,1,8,0:0:0:0:
480,192,84857,1,8,0:0:0:0:
379,192,85021,2,0,L|304:192,1,75,8|8,0:0|0:0,0:0:0:0:
176,192,85351,6,0,B|144:304|144:304|192:304,1,150,4|8,0:0|0:0,0:0:0:0:
320,304,85845,2,0,B|352:192|352:192|304:192,1,150,4|8,0:0|0:0,0:0:0:0:
192,192,86340,2,0,L|208:272,1,75,8|8,0:0|0:0,0:0:0:0:
320,304,86669,6,0,P|352:240|320:160,1,150,4|8,0:0|0:0,0:0:0:0:
192,80,87164,2,0,P|160:144|192:224,1,150,4|8,0:0|0:0,0:0:0:0:
304,304,87659,2,0,L|256:240,1,75,8|8,0:0|0:0,0:0:0:0:
400,240,87988,6,0,P|368:160|304:144,1,150,12|8,0:0|0:0,0:0:0:0:
192,144,88483,1,0,0:0:0:0:
320,144,88812,1,8,0:0:0:0:
200,144,88978,2,0,L|240:208,1,75,8|0,0:0|0:0,0:0:0:0:
112,240,89307,6,0,P|144:160|208:144,1,150,8|8,0:0|0:0,0:0:0:0:
320,144,89802,1,8,0:0:0:0:
192,144,90131,1,8,0:0:0:0:
312,144,90296,2,0,L|272:208,1,75,8|4,0:0|0:0,0:0:0:0:
400,240,90626,6,0,P|384:320|320:336,1,150,4|8,0:0|0:0,0:0:0:0:
187,338,91121,2,0,P|120:311|112:240,1,150,4|8,0:0|0:0,0:0:0:0:
224,240,91615,2,0,L|176:176,1,75,8|8,0:0|0:0,0:0:0:0:
320,176,91945,6,0,B|400:176|400:176|320:160,1,150,4|8,0:0|0:0,0:0:0:0:
192,176,92440,2,0,B|112:176|112:176|192:160,1,150,4|8,0:0|0:0,0:0:0:0:
304,176,92934,2,0,L|352:240,1,75,8|8,0:0|0:0,0:0:0:0:
208,240,93263,5,12,0:0:0:0:
384,240,93593,1,8,0:0:0:0:
128,240,93923,1,0,0:0:0:0:
304,240,94253,1,8,0:0:0:0:
48,240,94582,6,0,L|96:176,1,75,8|0,0:0|0:0,0:0:0:0:
208,192,94912,2,0,L|256:128,1,75,8|8,0:0|0:0,0:0:0:0:
384,144,95241,2,0,L|336:208,1,75,0|8,0:0|0:0,0:0:0:0:
224,192,95571,2,0,L|176:256,1,75,8|8,0:0|0:0,0:0:0:0:
48,192,95901,6,0,P|96:128|160:128,1,150,12|8,0:0|0:0,0:0:0:0:
272,160,96395,2,0,P|224:224|160:224,1,150,4|4,0:0|0:0,0:0:0:0:
48,192,96890,2,0,L|128:176,1,75,8|0,0:0|0:0,0:0:0:0:
256,192,97219,6,0,P|304:128|368:128,1,150,8|8,0:0|0:0,0:0:0:0:
480,160,97713,2,0,P|432:224|368:224,1,150,4|0,0:0|0:0,0:0:0:0:
256,192,98208,2,0,L|336:176,1,75,8|0,0:0|0:0,0:0:0:0:
192,176,98538,6,0,L|272:160,2,75,8|0|8,0:0|0:0|0:0,0:0:0:0:
80,192,99032,2,0,P|128:128|208:112,1,150,4|4,0:0|0:0,0:0:0:0:
304,112,99527,2,0,L|240:160,1,75,8|0,0:0|0:0,0:0:0:0:
128,160,99857,5,8,0:0:0:0:
384,160,100186,2,0,L|368:240,1,75,8|4,0:0|0:0,0:0:0:0:
128,160,100681,2,0,L|144:240,1,75,4|8,0:0|0:0,0:0:0:0:
256,240,101010,1,0,0:0:0:0:
368,240,101175,6,0,P|320:176|256:176,1,150,8|8,0:0|0:0,0:0:0:0:
144,208,101669,2,0,P|192:272|256:272,1,150,4|4,0:0|0:0,0:0:0:0:
368,240,102164,2,0,L|288:224,1,75,8|0,0:0|0:0,0:0:0:0:
144,208,102494,6,0,P|192:144|256:144,1,150,8|8,0:0|0:0,0:0:0:0:
368,176,102988,2,0,P|320:240|256:240,1,150,4|4,0:0|0:0,0:0:0:0:
144,208,103483,2,0,L|224:192,1,75,8|0,0:0|0:0,0:0:0:0:
352,176,103813,5,8,0:0:0:0:
160,208,104142,2,0,L|229:180,1,75,8|4,0:0|0:0,0:0:0:0:
352,208,104472,2,0,L|282:180,1,75,0|4,0:0|0:0,0:0:0:0:
160,208,104802,1,8,0:0:0:0:
416,192,105131,6,0,P|368:112|320:112,1,150,8|8,0:0|0:0,0:0:0:0:
191,111,105626,1,4,0:0:0:0:
64,112,105791,2,0,L|112:176,1,75,0|4,0:0|0:0,0:0:0:0:
224,160,106120,2,0,L|272:224,1,75,8|0,0:0|0:0,0:0:0:0:
384,192,106450,6,0,L|464:224,2,75,12|0|8,0:0|0:0|0:0,0:0:0:0:
224,208,107109,2,0,L|288:160,1,75,0|4,0:0|0:0,0:0:0:0:
96,192,107604,1,0,0:0:0:0:
288,160,107934,1,0,0:0:0:0:
96,192,108263,1,4,0:0:0:0:
288,160,108593,2,0,L|256:240,2,75,4|8|0,0:0|0:0|0:0,0:0:0:0:
400,224,109087,6,0,P|352:160|288:160,1,150,8|8,0:0|0:0,0:0:0:0:
96,192,109747,2,0,L|128:112,1,75,0|4,0:0|0:0,0:0:0:0:
235,122,110076,2,0,L|208:192,1,75,8|0,0:0|0:0,0:0:0:0:
432,128,110571,1,0,0:0:0:0:
224,128,110901,1,4,0:0:0:0:
416,128,111230,2,0,L|464:192,2,75,4|8|0,0:0|0:0|0:0,0:0:0:0:
256,192,111725,5,12,0:0:0:0:
384,192,111890,2,0,L|352:272,1,75,0|8,0:0|0:0,0:0:0:0:
255,319,112219,2,0,P|222:255|255:192,1,150,4|4,0:0|0:0,0:0:0:0:
384,192,112714,2,0,L|448:144,1,75,8|0,0:0|0:0,0:0:0:0:
256,144,113208,1,0,0:0:0:0:
448,144,113538,1,4,0:0:0:0:
256,144,113868,2,0,L|176:112,2,75,4|8|0,0:0|0:0|0:0,0:0:0:0:
400,144,114362,5,8,0:0:0:0:
192,144,114692,2,0,L|128:192,1,75,8|4,0:0|0:0,0:0:0:0:
320,144,115186,2,0,L|384:192,1,75,4|8,0:0|0:0,0:0:0:0:
160,192,115681,6,0,L|96:240,1,75,12|0,0:0|0:0,0:0:0:0:
224,192,116010,1,8,0:0:0:0:
352,192,116175,2,0,L|416:240,1,75,4|0,0:0|0:0,0:0:0:0:
288,192,116504,1,4,0:0:0:0:
160,192,116670,2,0,L|224:240,1,75,8|0,0:0|0:0,0:0:0:0:
400,304,116999,6,0,B|448:192|400:80|400:80|320:144|192:128,1,450.000017166138,0|0,0:0|0:0,0:0:0:0:
256,192,117824,1,8,0:0:0:0:
319,256,117988,1,0,0:0:0:0:
256,192,118153,1,8,0:0:0:0:
144,192,118318,6,0,L|160:272,1,75,4|0,0:0|0:0,0:0:0:0:
256,272,118648,2,0,L|240:192,1,75,4|0,0:0|0:0,0:0:0:0:
144,192,118977,2,0,L|208:144,1,75,2|2,0:0|0:0,0:0:0:0:
308,147,119307,2,0,L|368:192,1,75,2|2,0:0|0:0,0:0:0:0:
256,192,119637,1,4,0:0:0:0:
147,64,130186,6,0,B|272:80|240:272|87:195,1,300,2|2,0:0|0:0,0:0:0:0:
256,192,132164,1,2,0:0:0:0:
424,195,132823,6,0,B|272:272|240:80|368:64|368:64|288:112|256:16,1,450,2|2,0:0|0:0,0:0:0:0:
256,192,135461,12,2,137439,0:0:0:0:
256,192,138098,12,6,139417,0:0:0:0:
167,192,140735,6,0,P|256:251|344:192,2,225.000008583069,14|8|10,0:0|0:0|0:0,0:0:0:0:
432,192,142713,1,10,0:0:0:0:
176,192,143373,6,0,P|80:192|16:80,3,225.000008583069,10|10|10|10,0:0|0:0|0:0|0:0,0:0:0:0:
192,112,145680,1,2,0:0:0:0:
344,192,146010,6,0,P|256:132|167:192,2,225.000008583069,10|8|10,0:0|0:0|0:0,0:0:0:0:
80,192,147988,1,10,0:0:0:0:
336,192,148647,6,0,P|432:192|496:304,3,225.000008583069,10|10|10|8,0:0|0:0|0:0|0:0,0:0:0:0:
320,272,150954,1,0,0:0:0:0:
112,272,151285,6,0,P|48:192|112:96,1,225.000008583069,14|8,0:0|0:0,0:0:0:0:
256,32,152274,1,8,0:0:0:0:
402,97,152604,2,0,L|464:192,2,112.500004291535,10|8|10,0:0|0:0|0:0,0:0:0:0:
256,32,153593,1,2,0:0:0:0:
80,160,153922,6,0,L|192:160,1,112.500004291535,14|0,0:0|0:0,0:0:0:0:
322,158,154582,2,0,L|416:96,1,112.500004291535,8|8,0:0|0:0,0:0:0:0:
288,96,155241,2,0,L|320:208,1,112.500004291535,8|8,0:0|0:0,0:0:0:0:
193,204,155900,2,0,L|224:96,1,112.500004291535,10|2,0:0|0:0,0:0:0:0:
416,80,156560,6,0,B|416:192|416:192|416:272|352:272,1,225.000008583069,14|8,0:0|0:0,0:0:0:0:
208,272,157549,1,8,0:0:0:0:
336,272,157878,1,8,0:0:0:0:
192,272,158208,1,8,0:0:0:0:
320,272,158538,2,0,P|352:240|352:176,1,112.500004291535,10|0,0:0|0:0,0:0:0:0:
96,80,159197,6,0,B|96:192|96:192|96:272|160:272,1,225.000008583069,10|8,0:0|0:0,0:0:0:0:
304,272,160186,1,8,0:0:0:0:
176,272,160515,1,14,0:0:0:0:
320,272,160845,1,8,0:0:0:0:
192,272,161175,2,0,P|160:240|160:176,1,112.500004291535,8|0,0:0|0:0,0:0:0:0:
352,192,161834,5,4,0:0:0:0:
160,192,162163,1,4,0:0:0:0:
368,192,162493,1,4,0:0:0:0:
144,192,162822,1,4,0:0:0:0:
384,192,163152,6,0,L|368:112,1,75,6|8,0:0|0:0,0:0:0:0:
256,192,163482,2,0,L|240:112,1,75,6|8,0:0|0:0,0:0:0:0:
128,192,163812,2,0,L|112:112,1,75,6|8,0:0|0:0,0:0:0:0:
256,192,164141,5,10,0:0:0:0:
256,192,164471,5,12,0:0:0:0:
384,192,164636,2,0,L|464:160,2,75,2|10|2,0:0|0:0|0:0,0:0:0:0:
272,192,165130,2,0,P|192:176|144:128,1,150,0|10,0:0|0:0,0:0:0:0:
384,192,165790,6,0,L|464:224,2,75,10|0|10,0:0|0:0|0:0,0:0:0:0:
272,192,166284,2,0,P|352:176|400:128,1,150,8|8,0:0|0:0,0:0:0:0:
288,112,166779,1,8,0:0:0:0:
48,272,167108,5,8,0:0:0:0:
176,272,167273,2,0,L|256:240,2,75,2|10|2,0:0|0:0|0:0,0:0:0:0:
64,272,167768,2,0,P|80:208|160:176,1,150,0|10,0:0|0:0,0:0:0:0:
368,192,168427,6,0,L|448:160,2,75,10|0|10,0:0|0:0|0:0,0:0:0:0:
256,192,168921,1,8,0:0:0:0:
368,192,169086,2,0,P|416:144|368:96,1,150,0|8,0:0|0:0,0:0:0:0:
144,96,169746,5,8,0:0:0:0:
256,96,169910,2,0,L|320:144,2,75,2|10|2,0:0|0:0|0:0,0:0:0:0:
160,96,170405,2,0,P|96:128|48:192,1,150,0|10,0:0|0:0,0:0:0:0:
272,192,171064,6,0,L|336:240,2,75,10|0|10,0:0|0:0|0:0,0:0:0:0:
160,192,171559,2,0,P|208:144|288:144,1,150,8|8,0:0|0:0,0:0:0:0:
176,240,172053,1,8,0:0:0:0:
400,240,172383,5,8,0:0:0:0:
288,240,172547,2,0,L|224:192,2,75,2|10|2,0:0|0:0|0:0,0:0:0:0:
384,240,173042,2,0,P|448:208|496:144,1,150,0|10,0:0|0:0,0:0:0:0:
256,144,173702,6,0,L|176:144,1,75,10|8,0:0|0:0,0:0:0:0:
288,96,174031,2,0,L|213:96,1,75,10|8,0:0|0:0,0:0:0:0:
416,96,174526,1,10,0:0:0:0:
288,96,174691,2,0,L|368:96,1,75,8|0,0:0|0:0,0:0:0:0:
480,192,175020,6,0,L|448:272,1,75,8|2,0:0|0:0,0:0:0:0:
336,192,175350,2,0,L|304:272,1,75,8|2,0:0|0:0,0:0:0:0:
192,192,175680,2,0,L|224:112,1,75,0|10,0:0|0:0,0:0:0:0:
336,192,176010,2,0,L|368:112,1,75,10|0,0:0|0:0,0:0:0:0:
480,192,176339,6,0,L|448:272,1,75,10|0,0:0|0:0,0:0:0:0:
336,192,176669,1,10,0:0:0:0:
480,192,176834,2,0,P|448:128|368:112,1,150,8|8,0:0|0:0,0:0:0:0:
256,112,177328,1,8,0:0:0:0:
32,192,177658,6,0,L|64:272,1,75,8|2,0:0|0:0,0:0:0:0:
176,192,177988,2,0,L|208:272,1,75,8|2,0:0|0:0,0:0:0:0:
320,192,178318,2,0,L|288:112,1,75,0|10,0:0|0:0,0:0:0:0:
176,192,178648,2,0,L|144:112,1,75,10|0,0:0|0:0,0:0:0:0:
32,192,178977,6,0,L|64:272,1,75,10|0,0:0|0:0,0:0:0:0:
176,192,179307,1,10,0:0:0:0:
32,192,179472,2,0,P|64:128|144:112,1,150,8|8,0:0|0:0,0:0:0:0:
256,112,179965,2,0,L|192:160,1,75,8|0,0:0|0:0,0:0:0:0:
316,157,180295,6,0,L|256:112,2,75,8|2|8,0:0|0:0|0:0,0:0:0:0:
436,157,180790,2,0,L|496:112,2,75,2|0|10,0:0|0:0|0:0,0:0:0:0:
304,192,181284,2,0,L|336:272,1,75,10|0,0:0|0:0,0:0:0:0:
180,261,181614,6,0,L|208:192,1,75,10|2,0:0|0:0,0:0:0:0:
432,192,182108,1,8,0:0:0:0:
208,192,182438,2,0,L|128:192,2,75,10|10|2,0:0|0:0|0:0,0:0:0:0:
320,192,182932,6,0,L|400:192,1,75,8|2,0:0|0:0,0:0:0:0:
288,144,183262,1,10,0:0:0:0:
133,144,183427,2,0,P|176:96|256:64,1,150,2|10,0:0|0:0,0:0:0:0:
368,64,183921,2,0,L|304:112,1,75,10|0,0:0|0:0,0:0:0:0:
160,192,184251,6,0,L|80:192,2,75,14|0|10,0:0|0:0|0:0,0:0:0:0:
272,192,184746,1,12,0:0:0:0:
384,192,184910,2,0,L|464:192,1,75,0|8,0:0|0:0,0:0:0:0:
336,160,185240,2,0,L|416:160,1,75,12|0,0:0|0:0,0:0:0:0:
256,192,185570,5,12,0:0:0:0:
128,192,185735,2,0,L|48:224,2,75,2|10|2,0:0|0:0|0:0,0:0:0:0:
240,192,186229,2,0,P|320:208|368:256,1,150,0|10,0:0|0:0,0:0:0:0:
128,192,186888,6,0,L|48:160,2,75,10|0|10,0:0|0:0|0:0,0:0:0:0:
240,192,187383,2,0,P|160:208|112:256,1,150,8|8,0:0|0:0,0:0:0:0:
224,272,187877,1,8,0:0:0:0:
464,112,188206,5,8,0:0:0:0:
336,112,188372,2,0,L|256:144,2,75,2|10|2,0:0|0:0|0:0,0:0:0:0:
448,112,188866,2,0,P|432:176|352:208,1,150,0|10,0:0|0:0,0:0:0:0:
144,192,189525,6,0,L|64:224,2,75,10|0|10,0:0|0:0|0:0,0:0:0:0:
256,192,190019,1,8,0:0:0:0:
144,192,190185,2,0,P|96:240|144:288,1,150,0|8,0:0|0:0,0:0:0:0:
368,288,190844,5,8,0:0:0:0:
256,288,191009,2,0,L|192:240,2,75,2|10|2,0:0|0:0|0:0,0:0:0:0:
352,288,191504,2,0,P|416:256|464:192,1,150,0|10,0:0|0:0,0:0:0:0:
240,192,192163,6,0,L|176:144,2,75,10|0|10,0:0|0:0|0:0,0:0:0:0:
352,192,192657,2,0,P|304:240|224:240,1,150,8|8,0:0|0:0,0:0:0:0:
336,144,193151,1,8,0:0:0:0:
112,144,193482,5,8,0:0:0:0:
224,144,193647,2,0,L|288:192,2,75,0|10|2,0:0|0:0|0:0,0:0:0:0:
128,144,194141,2,0,P|64:176|16:240,1,150,0|10,0:0|0:0,0:0:0:0:
256,240,194800,6,0,L|336:240,1,75,10|8,0:0|0:0,0:0:0:0:
224,288,195130,2,0,L|299:288,1,75,10|8,0:0|0:0,0:0:0:0:
96,288,195624,1,10,0:0:0:0:
224,288,195789,2,0,L|144:288,1,75,8|0,0:0|0:0,0:0:0:0:
32,192,196119,6,0,L|64:112,1,75,12|2,0:0|0:0,0:0:0:0:
176,192,196449,2,0,L|208:112,1,75,8|2,0:0|0:0,0:0:0:0:
320,192,196778,2,0,L|288:272,1,75,0|10,0:0|0:0,0:0:0:0:
176,192,197108,2,0,L|144:272,1,75,10|0,0:0|0:0,0:0:0:0:
32,192,197438,6,0,L|64:112,1,75,10|0,0:0|0:0,0:0:0:0:
176,192,197767,1,10,0:0:0:0:
32,192,197932,2,0,P|64:256|144:272,1,150,8|8,0:0|0:0,0:0:0:0:
256,272,198426,1,8,0:0:0:0:
480,192,198756,6,0,L|448:112,1,75,8|2,0:0|0:0,0:0:0:0:
336,192,199086,2,0,L|304:112,1,75,8|2,0:0|0:0,0:0:0:0:
192,192,199416,2,0,L|224:272,1,75,0|10,0:0|0:0,0:0:0:0:
336,192,199746,2,0,L|368:272,1,75,10|0,0:0|0:0,0:0:0:0:
480,192,200075,6,0,L|448:112,1,75,10|0,0:0|0:0,0:0:0:0:
336,192,200405,1,10,0:0:0:0:
480,192,200570,2,0,P|448:256|368:272,1,150,8|8,0:0|0:0,0:0:0:0:
256,272,201064,2,0,L|320:224,1,75,8|0,0:0|0:0,0:0:0:0:
196,227,201394,6,0,L|256:272,2,75,8|2|8,0:0|0:0|0:0,0:0:0:0:
96,224,201888,2,0,L|32:176,2,75,2|8|10,0:0|0:0|0:0,0:0:0:0:
208,192,202383,2,0,L|176:112,1,75,10|0,0:0|0:0,0:0:0:0:
332,123,202712,6,0,L|304:192,1,75,10|2,0:0|0:0,0:0:0:0:
180,261,203042,2,0,L|192:176,1,75,10|8,0:0|0:0,0:0:0:0:
332,123,203372,2,0,L|320:208,1,75,8|10,0:0|0:0,0:0:0:0:
180,261,203702,2,0,L|208:192,1,75,10|2,0:0|0:0,0:0:0:0:
336,192,204031,6,0,L|416:192,1,75,12|2,0:0|0:0,0:0:0:0:
296,192,204360,1,10,0:0:0:0:
176,192,204526,2,0,L|96:192,1,75,2|12,0:0|0:0,0:0:0:0:
216,192,204856,1,10,0:0:0:0:
336,192,205020,2,0,L|256:192,1,75,10|0,0:0|0:0,0:0:0:0:
144,192,205350,6,0,L|64:192,2,75,14|0|10,0:0|0:0|0:0,0:0:0:0:
256,192,205844,1,12,0:0:0:0:
368,192,206009,2,0,L|448:192,1,75,0|8,0:0|0:0,0:0:0:0:
336,224,206339,2,0,L|416:224,1,75,12|0,0:0|0:0,0:0:0:0:
256,224,206669,6,0,P|208:176|256:128,1,150,12|2,0:0|0:0,0:0:0:0:
352,128,207658,1,2,0:0:0:0:
160,128,207987,2,0,P|112:176|160:224,1,150,10|0,0:0|0:0,0:0:0:0:
352,240,209306,6,0,P|432:224|448:160,1,150,0|2,0:0|0:0,0:0:0:0:
352,160,210295,1,2,0:0:0:0:
160,160,210625,2,0,P|96:160|48:224,1,150,10|0,0:0|0:0,0:0:0:0:
256,160,211943,6,0,P|304:208|256:256,1,150,0|2,0:0|0:0,0:0:0:0:
160,256,212932,1,2,0:0:0:0:
352,256,213261,2,0,P|400:208|352:160,1,150,10|0,0:0|0:0,0:0:0:0:
160,144,214581,6,0,P|80:160|64:224,1,150,0|2,0:0|0:0,0:0:0:0:
160,224,215570,1,2,0:0:0:0:
352,224,215900,2,0,P|416:224|448:192,1,112.5,10|2,0:0|0:0,0:0:0:0:
336,176,216723,2,0,L|352:128,1,37.5,2|2,0:0|0:0,0:0:0:0:
176,176,217218,6,0,P|160:144|176:112,1,75,2|2,0:0|0:0,0:0:0:0:
303,111,217877,2,0,P|320:143|304:176,1,75,2|2,0:0|0:0,0:0:0:0:
112,192,218537,2,0,P|64:240|112:288,1,150,10|0,0:0|0:0,0:0:0:0:
336,208,219855,6,0,P|352:240|336:272,1,75,2|2,0:0|0:0,0:0:0:0:
208,272,220514,2,0,P|191:240|208:208,1,75,2|2,0:0|0:0,0:0:0:0:
400,192,221174,2,0,P|448:144|432:112,1,112.5,10|2,0:0|0:0,0:0:0:0:
304,112,221998,2,0,L|352:176,1,75,2|2,0:0|0:0,0:0:0:0:
288,176,222493,6,0,L|336:240,1,75,2|0,0:0|0:0,0:0:0:0:
179,236,223152,2,0,L|224:176,1,75,2|0,0:0|0:0,0:0:0:0:
368,192,223811,1,10,0:0:0:0:
432,192,223976,2,0,L|480:128,2,75,2|2|2,0:0|0:0|0:0,0:0:0:0:
368,192,224800,1,2,0:0:0:0:
256,192,225130,6,0,L|192:144,1,75,2|0,0:0|0:0,0:0:0:0:
256,144,225625,2,0,L|320:192,1,75,2|0,0:0|0:0,0:0:0:0:
256,192,226119,1,2,0:0:0:0:
128,192,226449,6,0,L|192:144,1,75,10|2,0:0|0:0,0:0:0:0:
384,192,227108,2,0,L|324:147,1,75,2|2,0:0|0:0,0:0:0:0:
256,192,227767,12,0,230405,0:0:0:0:
