osu file format v13

[General]
AudioFilename: 03. Renatus - Soleily 192kbps.mp3
AudioLeadIn: 0
PreviewTime: 164471
Countdown: 0
SampleSet: Normal
StackLeniency: 0.7
Mode: 2
LetterboxInBreaks: 0
WidescreenStoryboard: 0

[Editor]
DistanceSpacing: 1
BeatDivisor: 4
GridSize: 16
TimelineZoom: 2.099999

[Metadata]
Title:Renatus
TitleUnicode:Renatus
Artist:Soleily
ArtistUnicode:Soleily
Creator:Deif
Version:Platter
Source:
Tags:MBC7 Unisphere 地球ヤバイEP Chikyu Yabai
BeatmapID:557810
BeatmapSetID:241526

[Difficulty]
HPDrainRate:5
CircleSize:3.5
OverallDifficulty:8
ApproachRate:8
SliderMultiplier:1.75
SliderTickRate:2

[Events]
//Background and Video events
0,0,"machinetop_background.jpg",0,0
//Break Periods
2,119837,129436
//Storyboard Layer 0 (Background)
//Storyboard Layer 1 (Fail)
//Storyboard Layer 2 (Pass)
//Storyboard Layer 3 (Foreground)
//Storyboard Sound Samples

[TimingPoints]
956,329.67032967033,4,1,0,40,1,0
2274,-133.333333333333,4,3,0,40,0,0
11505,-100,4,1,0,40,0,0
12824,-133.333333333333,4,3,0,40,0,0
22054,-100,4,1,0,40,0,0
43153,-100,4,3,0,40,0,0
48428,-142.857142857143,4,3,0,20,0,0
49747,-125,4,3,0,25,0,0
51065,-111.111111111111,4,3,0,30,0,0
52384,-100,4,3,0,35,0,0
53703,-100,4,1,0,45,0,0
74802,-100,4,1,0,55,0,0
75626,-100,4,1,0,35,0,0
76120,-100,4,1,0,55,0,0
76945,-100,4,1,0,35,0,0
77439,-100,4,1,0,55,0,0
77604,-100,4,1,0,35,0,0
80076,-100,4,1,0,55,0,0
80901,-100,4,1,0,35,0,0
81395,-100,4,1,0,55,0,0
82219,-100,4,1,0,35,0,0
82714,-100,4,1,0,55,0,0
82879,-100,4,1,0,35,0,0
85351,-100,4,1,0,55,0,0
86175,-100,4,1,0,35,0,0
86670,-100,4,1,0,55,0,0
87494,-100,4,1,0,35,0,0
87988,-100,4,1,0,55,0,0
88153,-100,4,1,0,35,0,0
90626,-100,4,1,0,55,0,0
91450,-100,4,1,0,35,0,0
91945,-100,4,1,0,55,0,0
92769,-100,4,1,0,35,0,0
93263,-100,4,1,0,55,0,0
95901,-100,4,1,0,50,0,1
96395,-100,4,3,0,50,0,1
96890,-100,4,1,0,50,0,1
97714,-100,4,3,0,50,0,1
98208,-100,4,1,0,50,0,1
99032,-100,4,3,0,50,0,1
99527,-100,4,1,0,50,0,1
100351,-100,4,3,0,50,0,1
100846,-100,4,1,0,50,0,1
101670,-100,4,3,0,50,0,1
102164,-100,4,1,0,50,0,1
102988,-100,4,3,0,50,0,1
103483,-100,4,1,0,50,0,1
104307,-100,4,3,0,50,0,1
104802,-100,4,1,0,50,0,1
105626,-100,4,3,0,50,0,1
106120,-100,4,1,0,50,0,1
106945,-100,4,3,0,50,0,1
107439,-100,4,1,0,50,0,1
108263,-100,4,3,0,50,0,1
108758,-100,4,1,0,50,0,1
109582,-100,4,3,0,50,0,1
110076,-100,4,1,0,50,0,1
110901,-100,4,3,0,50,0,1
111395,-100,4,1,0,50,0,1
112219,-100,4,3,0,50,0,1
112714,-100,4,1,0,50,0,1
113538,-100,4,3,0,50,0,1
114032,-100,4,1,0,50,0,1
114857,-100,4,3,0,50,0,1
115351,-100,4,1,0,50,0,1
116175,-100,4,3,0,50,0,1
116670,-100,4,1,0,50,0,1
116999,-66.6666666666667,4,2,0,40,0,0
117659,-100,4,3,0,30,0,0
118318,-100,4,3,0,40,0,0
119637,659.340659340659,4,1,0,40,1,0
130186,-100,4,2,0,40,0,0
140735,-66.6666666666667,4,2,0,50,0,0
161834,329.67032967033,4,3,0,50,1,0
163152,-100,4,3,0,55,0,0
163482,-100,4,3,0,60,0,0
163812,-100,4,3,0,65,0,0
164141,-100,4,1,0,50,0,0
164471,-100,4,1,0,60,0,1
184910,-100,4,1,0,60,0,0
185570,-100,4,1,0,60,0,1
206669,659.340659340659,4,2,0,40,1,0
207987,-100,4,1,0,20,0,0
208152,-100,4,2,0,40,0,0
210625,-100,4,1,0,15,0,0
210789,-100,4,2,0,40,0,0
213262,-100,4,1,0,10,0,0
213427,-100,4,2,0,40,0,0
215899,-100,4,1,0,10,0,0
216064,-100,4,2,0,40,0,0
216559,-100,4,2,0,20,0,0
217218,-100,4,2,0,40,0,0
218537,-100,4,1,0,10,0,0
218701,-100,4,2,0,40,0,0
221174,-100,4,1,0,10,0,0
221339,-100,4,2,0,40,0,0
221833,-100,4,2,0,20,0,0
222493,-100,4,2,0,40,0,0
223811,-100,4,1,0,10,0,0
223976,-100,4,2,0,40,0,0
226449,-100,4,1,0,10,0,0
226614,-100,4,2,0,40,0,0
227108,-100,4,2,0,50,0,0
227932,-100,4,2,0,10,0,0

[Colours]
Combo1 : 128,255,255
Combo2 : 255,128,128
Combo3 : 255,255,128
Combo4 : 128,255,0

[HitObjects]
80,192,956,6,0,L|144:128,1,87.5,4|0,0:0|0:0,0:0:0:0:
256,128,1285,2,0,L|168:128,1,87.5,8|2,0:0|0:0,0:0:0:0:
352,128,1780,1,2,0:0:0:0:
194,66,1945,2,0,L|256:128,1,87.5,0|2,0:0|0:0,0:0:0:0:
384,128,2274,6,0,P|416:176|416:256,1,131.25000500679,4|2,0:0|0:0,0:0:0:0:
288,256,2769,1,4,0:0:0:0:
267,230,2851,1,0,0:0:0:0:
253,200,2934,2,0,L|256:128,1,65.6250025033952,0|4,0:0|0:0,0:0:0:0:
384,128,3263,1,2,0:0:0:0:
256,96,3428,1,0,0:0:0:0:
128,128,3593,6,0,L|64:144,1,65.6250025033952,4|0,0:0|0:0,0:0:0:0:
176,144,3923,2,0,L|240:160,1,65.6250025033952,2|0,0:0|0:0,0:0:0:0:
272,160,4170,1,0,0:0:0:0:
240,160,4252,1,0,0:0:0:0:
128,160,4417,1,4,0:0:0:0:
320,208,4582,2,0,L|256:192,1,65.6250025033952,2|0,0:0|0:0,0:0:0:0:
128,192,4912,6,0,P|144:256|192:304,1,131.25000500679,4|2,0:0|0:0,0:0:0:0:
323,301,5406,1,4,0:0:0:0:
348,280,5488,1,0,0:0:0:0:
368,254,5571,2,0,L|384:176,1,65.6250025033952,0|4,0:0|0:0,0:0:0:0:
256,160,5901,1,2,0:0:0:0:
128,192,6065,1,0,0:0:0:0:
256,160,6230,6,0,L|320:144,1,65.6250025033952,4|0,0:0|0:0,0:0:0:0:
432,144,6560,2,0,L|368:160,1,65.6250025033952,2|0,0:0|0:0,0:0:0:0:
384,128,6807,1,0,0:0:0:0:
400,96,6890,1,0,0:0:0:0:
256,224,7054,1,4,0:0:0:0:
432,240,7219,2,0,L|384:192,1,65.6250025033952,2|0,0:0|0:0,0:0:0:0:
256,192,7549,6,0,L|112:192,1,131.25000500679,4|2,0:0|0:0,0:0:0:0:
256,112,8043,1,4,0:0:0:0:
223,112,8126,1,0,0:0:0:0:
190,112,8208,2,0,L|112:112,1,65.6250025033952,0|4,0:0|0:0,0:0:0:0:
256,64,8538,1,2,0:0:0:0:
387,112,8703,1,0,0:0:0:0:
256,160,8868,6,0,L|192:176,1,65.6250025033952,4|0,0:0|0:0,0:0:0:0:
80,240,9197,2,0,L|144:224,1,65.6250025033952,2|0,0:0|0:0,0:0:0:0:
176,224,9445,1,0,0:0:0:0:
208,224,9527,1,0,0:0:0:0:
96,176,9692,1,4,0:0:0:0:
224,192,9857,1,2,0:0:0:0:
96,208,10021,1,0,0:0:0:0:
208,192,10186,6,0,P|272:176|304:112,1,131.25000500679,4|2,0:0|0:0,0:0:0:0:
192,112,10681,1,4,0:0:0:0:
160,112,10763,1,0,0:0:0:0:
128,112,10846,2,0,P|112:144|128:176,1,65.6250025033952,0|4,0:0|0:0,0:0:0:0:
224,192,11175,1,2,0:0:0:0:
176,192,11258,1,0,0:0:0:0:
128,192,11340,1,8,0:0:0:0:
432,192,11505,6,0,L|368:128,1,87.5,4|0,0:0|0:0,0:0:0:0:
256,128,11835,2,0,L|344:128,1,87.5,8|2,0:0|0:0,0:0:0:0:
160,128,12329,1,2,0:0:0:0:
336,256,12494,1,8,0:0:0:0:
224,256,12659,1,2,0:0:0:0:
128,256,12824,6,0,P|96:208|96:128,1,131.25000500679,4|2,0:0|0:0,0:0:0:0:
224,128,13318,1,4,0:0:0:0:
245,154,13401,1,0,0:0:0:0:
259,184,13483,2,0,L|256:256,1,65.6250025033952,0|4,0:0|0:0,0:0:0:0:
128,256,13813,1,2,0:0:0:0:
256,288,13977,1,0,0:0:0:0:
384,256,14142,6,0,L|448:240,1,65.6250025033952,4|0,0:0|0:0,0:0:0:0:
336,240,14472,2,0,L|272:224,1,65.6250025033952,2|0,0:0|0:0,0:0:0:0:
240,224,14719,1,0,0:0:0:0:
272,224,14802,1,0,0:0:0:0:
384,224,14966,1,4,0:0:0:0:
192,176,15131,2,0,L|256:192,1,65.6250025033952,2|0,0:0|0:0,0:0:0:0:
384,192,15461,6,0,P|368:128|320:80,1,131.25000500679,4|2,0:0|0:0,0:0:0:0:
189,83,15956,1,4,0:0:0:0:
164,104,16038,1,0,0:0:0:0:
144,130,16120,2,0,L|128:208,1,65.6250025033952,0|4,0:0|0:0,0:0:0:0:
256,224,16450,1,2,0:0:0:0:
384,192,16615,1,0,0:0:0:0:
256,224,16780,6,0,L|192:240,1,65.6250025033952,4|0,0:0|0:0,0:0:0:0:
80,240,17109,2,0,L|144:224,1,65.6250025033952,2|0,0:0|0:0,0:0:0:0:
128,256,17357,1,0,0:0:0:0:
112,288,17439,1,0,0:0:0:0:
256,160,17604,1,4,0:0:0:0:
80,144,17769,2,0,L|128:192,1,65.6250025033952,2|0,0:0|0:0,0:0:0:0:
256,192,18098,6,0,L|400:192,1,131.25000500679,4|2,0:0|0:0,0:0:0:0:
256,272,18593,1,4,0:0:0:0:
289,272,18675,1,0,0:0:0:0:
322,272,18758,2,0,L|400:272,1,65.6250025033952,0|4,0:0|0:0,0:0:0:0:
256,320,19087,1,2,0:0:0:0:
125,272,19252,1,0,0:0:0:0:
256,224,19417,6,0,L|320:208,1,65.6250025033952,4|0,0:0|0:0,0:0:0:0:
432,144,19747,2,0,L|368:160,1,65.6250025033952,2|0,0:0|0:0,0:0:0:0:
336,160,19994,1,0,0:0:0:0:
304,160,20076,1,0,0:0:0:0:
416,208,20241,1,4,0:0:0:0:
288,192,20406,1,2,0:0:0:0:
432,176,20571,1,0,0:0:0:0:
176,176,20736,6,0,P|128:224|128:288,1,131.25000500679,4|2,0:0|0:0,0:0:0:0:
385,284,21230,1,4,0:0:0:0:
390,251,21313,1,0,0:0:0:0:
382,220,21395,1,4,0:0:0:0:
363,193,21477,1,0,0:0:0:0:
336,176,21560,1,4,0:0:0:0:
176,176,21725,2,0,L|240:160,1,65.6250025033952,10|10,0:0|0:0,0:0:0:0:
480,160,22054,6,0,L|416:96,1,87.5,4|0,0:0|0:0,0:0:0:0:
256,48,22384,2,0,L|352:48,1,87.5,8|2,0:0|0:0,0:0:0:0:
112,48,22879,1,10,0:0:0:0:
256,48,23043,1,8,0:0:0:0:
160,80,23208,6,0,P|216:143|304:144,1,175,2|0,0:0|0:0,0:0:0:0:
432,192,23703,1,8,0:0:0:0:
301,238,23868,2,0,P|216:240|160:304,1,175,0|8,0:0|0:0,0:0:0:0:
336,304,24362,2,0,L|432:304,1,87.5,10|2,0:0|0:0,0:0:0:0:
304,192,24692,6,0,L|368:128,1,87.5,0|0,0:0|0:0,0:0:0:0:
208,192,25021,2,0,L|144:128,1,87.5,10|2,0:0|0:0,0:0:0:0:
432,192,25516,2,0,L|368:128,1,87.5,10|8,0:0|0:0,0:0:0:0:
208,192,25846,2,0,P|192:160|208:112,1,87.5,2|0,0:0|0:0,0:0:0:0:
368,112,26175,6,0,L|384:208,1,87.5,2|10,0:0|0:0,0:0:0:0:
144,272,26505,2,0,L|128:176,1,87.5,2|0,0:0|0:0,0:0:0:0:
304,112,26835,2,0,L|320:208,1,87.5,10|8,0:0|0:0,0:0:0:0:
208,272,27164,2,0,L|192:176,1,87.5,2|0,0:0|0:0,0:0:0:0:
96,192,27494,6,0,L|160:128,2,87.5,2|8|2,0:0|0:0|0:0,0:0:0:0:
304,192,28153,2,0,L|224:144,2,87.5,10|10|2,0:0|0:0|0:0,0:0:0:0:
208,192,28648,1,0,0:0:0:0:
320,192,28813,2,0,L|304:96,1,87.5,2|10,0:0|0:0,0:0:0:0:
192,192,29142,2,0,L|208:96,1,87.5,2|0,0:0|0:0,0:0:0:0:
336,112,29472,1,10,0:0:0:0:
176,112,29637,1,8,0:0:0:0:
320,112,29802,1,2,0:0:0:0:
192,112,29966,6,0,P|128:160|160:240,1,175,2|8,0:0|0:0,0:0:0:0:
355,238,30461,2,0,P|384:162|320:112,1,175,2|8,0:0|0:0,0:0:0:0:
208,112,30956,1,8,0:0:0:0:
304,112,31120,1,0,0:0:0:0:
192,112,31285,1,10,0:0:0:0:
432,112,31450,2,0,P|448:151|432:191,1,87.5,2|8,0:0|0:0,0:0:0:0:
192,240,31780,6,0,P|132:192|192:144,1,175,2|10,0:0|0:0,0:0:0:0:
432,240,32274,1,10,0:0:0:0:
384,240,32357,1,0,0:0:0:0:
320,240,32439,1,2,0:0:0:0:
32,224,32604,6,0,L|96:288,1,87.5,4|0,0:0|0:0,0:0:0:0:
256,336,32934,2,0,L|160:336,1,87.5,8|2,0:0|0:0,0:0:0:0:
400,336,33428,1,10,0:0:0:0:
256,336,33593,1,8,0:0:0:0:
352,304,33758,6,0,P|296:241|208:240,1,175,2|0,0:0|0:0,0:0:0:0:
80,192,34252,1,8,0:0:0:0:
211,146,34417,2,0,P|296:144|352:80,1,175,0|8,0:0|0:0,0:0:0:0:
176,80,34912,2,0,L|80:80,1,87.5,10|2,0:0|0:0,0:0:0:0:
208,192,35242,6,0,L|144:256,1,87.5,0|0,0:0|0:0,0:0:0:0:
304,192,35571,2,0,L|368:256,1,87.5,10|2,0:0|0:0,0:0:0:0:
80,192,36065,2,0,L|144:256,1,87.5,10|8,0:0|0:0,0:0:0:0:
304,192,36395,2,0,P|320:224|304:272,1,87.5,2|0,0:0|0:0,0:0:0:0:
144,272,36725,6,0,L|128:176,1,87.5,2|10,0:0|0:0,0:0:0:0:
368,112,37054,2,0,L|384:208,1,87.5,2|0,0:0|0:0,0:0:0:0:
208,272,37384,2,0,L|192:176,1,87.5,10|8,0:0|0:0,0:0:0:0:
304,112,37714,2,0,L|320:208,1,87.5,2|0,0:0|0:0,0:0:0:0:
416,192,38043,6,0,L|352:256,2,87.5,2|8|2,0:0|0:0|0:0,0:0:0:0:
208,192,38703,2,0,L|288:240,2,87.5,10|10|2,0:0|0:0|0:0,0:0:0:0:
304,192,39197,1,0,0:0:0:0:
192,192,39362,2,0,L|208:288,1,87.5,2|10,0:0|0:0,0:0:0:0:
320,192,39692,2,0,L|304:288,1,87.5,2|0,0:0|0:0,0:0:0:0:
176,272,40021,1,10,0:0:0:0:
336,272,40186,1,8,0:0:0:0:
192,272,40351,1,2,0:0:0:0:
400,272,40516,6,0,L|448:288,2,43.75,6|0|0,0:0|0:0|0:0,0:0:0:0:
256,192,40846,1,8,0:0:0:0:
112,272,41010,2,0,L|64:288,2,43.75,6|0|0,0:0|0:0|0:0,0:0:0:0:
256,192,41340,1,8,0:0:0:0:
400,112,41505,2,0,L|448:96,2,43.75,12|0|0,0:0|0:0|0:0,0:0:0:0:
256,192,41835,5,14,0:0:0:0:
80,272,41999,2,0,L|64:224,1,43.75,2|0,0:0|0:0,0:0:0:0:
208,224,42247,2,0,L|224:176,1,43.75,0|2,0:0|0:0,0:0:0:0:
48,192,42494,1,4,0:0:0:0:
224,192,42659,1,14,0:0:0:0:
400,192,42824,2,0,L|352:112,1,87.5,14|6,0:0|0:0,0:0:0:0:
96,112,43153,6,0,L|32:176,2,87.5,4|0|2,0:1|0:0|0:0,0:0:0:0:
224,112,43648,1,0,0:0:0:0:
272,112,43730,1,0,0:0:0:0:
320,112,43813,2,0,L|224:112,1,87.5,0|4,0:0|0:0,0:0:0:0:
96,112,44142,2,0,L|192:112,1,87.5,2|0,0:0|0:0,0:0:0:0:
320,112,44472,6,0,L|352:208,1,87.5,4|0,0:0|0:0,0:0:0:0:
464,192,44802,1,2,0:0:0:0:
320,272,44966,1,4,0:0:0:0:
306,230,45049,1,0,0:0:0:0:
292,188,45131,1,0,0:0:0:0:
176,192,45296,1,4,0:0:0:0:
320,192,45461,2,0,P|288:160|272:112,1,87.5,2|0,0:0|0:0,0:0:0:0:
416,112,45791,6,0,L|480:176,2,87.5,4|0|2,0:0|0:0|0:0,0:0:0:0:
288,272,46285,1,0,0:0:0:0:
240,272,46368,1,0,0:0:0:0:
192,272,46450,2,0,L|288:272,1,87.5,0|4,0:0|0:0,0:0:0:0:
416,272,46780,2,0,L|320:272,1,87.5,2|0,0:0|0:0,0:0:0:0:
192,272,47109,6,0,L|160:176,1,87.5,4|0,0:0|0:0,0:0:0:0:
48,192,47439,1,2,0:0:0:0:
192,112,47604,1,4,0:0:0:0:
206,154,47686,1,0,0:0:0:0:
220,196,47769,1,0,0:0:0:0:
336,192,47934,1,4,0:0:0:0:
192,192,48098,2,0,L|256:256,1,87.5,2|0,0:0|0:0,0:0:0:0:
432,256,48428,6,0,P|432:192|400:144,1,122.499996261597,4|2,0:1|0:0,0:0:0:0:
304,144,48923,1,0,0:0:0:0:
272,144,49005,1,0,0:0:0:0:
240,144,49087,2,0,L|304:144,1,61.2499981307984,0|4,0:0|0:0,0:0:0:0:
400,144,49417,2,0,L|338:144,1,61.2499981307984,2|0,0:0|0:0,0:0:0:0:
160,144,49747,6,0,L|96:176,2,70,4|0|2,0:1|0:0|0:0,0:0:0:0:
304,144,50241,2,0,P|368:208|368:272,1,140,4|4,0:0|0:0,0:0:0:0:
240,272,50736,2,0,L|304:240,1,70,2|0,0:0|0:0,0:0:0:0:
96,272,51065,6,0,P|64:208|112:144,1,157.499995193482,4|2,0:1|0:0,0:0:0:0:
240,144,51560,1,0,0:0:0:0:
112,144,51725,2,0,L|176:96,1,78.7499975967408,0|4,0:0|0:0,0:0:0:0:
304,96,52054,2,0,L|320:144,3,39.3749987983704,2|0|0|0,0:0|0:0|0:0|0:0,0:0:0:0:
304,96,52384,6,0,L|400:96,1,87.5,4|0,0:0|0:0,0:0:0:0:
256,48,52714,1,2,0:0:0:0:
120,96,52879,2,0,B|208:96|208:96|256:176,1,175,4|4,0:0|0:0,0:0:0:0:
96,192,53373,5,10,0:0:0:0:
176,192,53456,1,0,0:0:0:0:
256,192,53538,1,0,0:0:0:0:
336,192,53620,1,0,0:0:0:0:
416,192,53703,5,12,0:0:0:0:
256,128,53868,2,0,L|160:112,2,87.5,0|8|0,0:0|0:0|0:0,0:0:0:0:
416,128,54362,1,0,0:0:0:0:
386,158,54445,1,0,0:0:0:0:
343,162,54527,1,8,0:0:0:0:
208,160,54692,2,0,L|304:144,2,87.5,8|0|8,0:0|0:0|0:0,0:0:0:0:
96,128,55186,5,0,0:0:0:0:
126,158,55269,1,0,0:0:0:0:
176,176,55351,2,0,L|256:224,1,87.5,8|0,0:0|0:0,0:0:0:0:
384,224,55681,2,0,L|304:272,1,87.5,0|8,0:0|0:0,0:0:0:0:
128,224,56010,2,0,L|208:272,1,87.5,8|0,0:0|0:0,0:0:0:0:
384,224,56340,1,8,0:0:0:0:
256,192,56505,5,0,0:0:0:0:
192,192,56587,1,0,0:0:0:0:
144,192,56670,2,0,L|208:128,1,87.5,8|0,0:0|0:0,0:0:0:0:
368,192,56999,2,0,L|304:128,1,87.5,0|8,0:0|0:0,0:0:0:0:
144,192,57329,2,0,L|96:112,1,87.5,8|0,0:0|0:0,0:0:0:0:
256,96,57659,1,8,0:0:0:0:
413,116,57824,6,0,L|368:192,1,87.5,0|8,0:0|0:0,0:0:0:0:
208,192,58153,2,0,L|253:116,1,87.5,0|0,0:0|0:0,0:0:0:0:
397,116,58483,2,0,L|352:192,1,87.5,8|8,0:0|0:0,0:0:0:0:
224,192,58813,1,0,0:0:0:0:
80,192,58977,5,8,0:0:0:0:
336,192,59307,1,8,0:0:0:0:
80,192,59637,2,0,L|128:112,1,87.5,0|8,0:0|0:0,0:0:0:0:
290,267,59966,2,0,L|336:192,1,87.5,8|0,0:0|0:0,0:0:0:0:
224,272,60296,1,8,0:0:0:0:
368,272,60461,6,0,L|304:208,1,87.5,0|8,0:0|0:0,0:0:0:0:
144,272,60791,2,0,L|96:256,1,43.75,0|0,0:0|0:0,0:0:0:0:
144,272,60956,2,0,L|224:224,1,87.5,0|8,0:0|0:0,0:0:0:0:
256,192,61203,1,0,0:0:0:0:
219,157,61285,2,0,L|144:112,1,87.5,8|0,0:0|0:0,0:0:0:0:
112,80,61532,1,0,0:0:0:0:
144,48,61615,1,8,0:0:0:0:
256,48,61780,6,0,L|336:96,1,87.5,0|8,0:0|0:0,0:0:0:0:
448,96,62109,1,0,0:0:0:0:
256,48,62439,2,0,L|176:96,1,87.5,8|8,0:0|0:0,0:0:0:0:
64,96,62769,2,0,L|64:192,1,87.5,0|8,0:0|0:0,0:0:0:0:
224,288,63098,6,0,L|224:192,1,87.5,0|8,0:0|0:0,0:0:0:0:
80,272,63428,2,0,L|80:176,1,87.5,0|0,0:0|0:0,0:0:0:0:
208,112,63758,1,8,0:0:0:0:
352,112,63923,1,8,0:0:0:0:
384,128,64005,1,0,0:0:0:0:
352,144,64087,1,0,0:0:0:0:
96,192,64252,5,12,0:0:0:0:
256,256,64417,2,0,L|352:272,2,87.5,0|8|0,0:0|0:0|0:0,0:0:0:0:
96,256,64912,1,0,0:0:0:0:
126,226,64994,1,0,0:0:0:0:
169,222,65076,1,8,0:0:0:0:
304,224,65241,2,0,L|208:240,2,87.5,8|0|8,0:0|0:0|0:0,0:0:0:0:
416,256,65736,5,0,0:0:0:0:
386,226,65818,1,0,0:0:0:0:
336,208,65901,2,0,L|256:160,1,87.5,8|0,0:0|0:0,0:0:0:0:
128,160,66230,2,0,L|208:112,1,87.5,0|8,0:0|0:0,0:0:0:0:
384,160,66560,2,0,L|304:112,1,87.5,8|0,0:0|0:0,0:0:0:0:
128,160,66890,1,8,0:0:0:0:
256,192,67054,5,0,0:0:0:0:
320,192,67137,1,0,0:0:0:0:
368,192,67219,2,0,L|304:256,1,87.5,8|0,0:0|0:0,0:0:0:0:
144,192,67549,2,0,L|208:256,1,87.5,0|8,0:0|0:0,0:0:0:0:
368,192,67879,2,0,L|416:272,1,87.5,8|0,0:0|0:0,0:0:0:0:
256,288,68208,1,8,0:0:0:0:
99,268,68373,6,0,L|144:192,1,87.5,0|8,0:0|0:0,0:0:0:0:
304,192,68703,2,0,L|259:268,1,87.5,0|0,0:0|0:0,0:0:0:0:
115,268,69032,2,0,L|64:192,1,87.5,8|8,0:0|0:0,0:0:0:0:
224,192,69362,1,0,0:0:0:0:
384,192,69527,5,8,0:0:0:0:
256,192,69692,2,0,L|224:160,1,43.75,0|0,0:0|0:0,0:0:0:0:
256,192,69857,2,0,L|304:192,2,43.75,8|0|0,0:0|0:0|0:0,0:0:0:0:
128,192,70186,2,0,L|48:144,1,87.5,0|0,0:0|0:0,0:0:0:0:
64,112,70434,1,0,0:0:0:0:
84,73,70516,1,8,0:0:0:0:
117,44,70598,1,0,0:0:0:0:
157,29,70681,1,0,0:0:0:0:
201,30,70763,1,0,0:0:0:0:
272,48,70846,6,0,L|336:112,1,87.5,8|0,0:0|0:0,0:0:0:0:
178,109,71175,2,0,L|240:48,1,87.5,8|0,0:0|0:0,0:0:0:0:
384,48,71505,2,0,L|336:128,1,87.5,0|8,0:0|0:0,0:0:0:0:
173,123,71835,2,0,L|128:48,1,87.5,8|0,0:0|0:0,0:0:0:0:
256,192,72164,5,8,0:0:0:0:
384,192,72329,2,0,L|464:144,1,87.5,0|8,0:0|0:0,0:0:0:0:
320,144,72659,1,0,0:0:0:0:
126,191,72988,2,0,L|52:146,1,87.5,8|8,0:0|0:0,0:0:0:0:
192,144,73318,1,0,0:0:0:0:
480,192,73483,5,12,0:0:0:0:
481,148,73565,1,0,0:0:0:0:
462,109,73648,1,0,0:0:0:0:
427,84,73730,1,0,0:0:0:0:
384,79,73813,1,8,0:0:0:0:
128,79,73977,5,4,0:0:0:0:
85,84,74060,1,0,0:0:0:0:
50,109,74142,1,0,0:0:0:0:
31,148,74225,1,0,0:0:0:0:
32,192,74307,1,8,0:0:0:0:
288,192,74472,5,12,0:0:0:0:
352,192,74554,1,0,0:0:0:0:
400,192,74637,1,8,0:0:0:0:
112,192,74802,6,0,L|16:208,2,87.5,4|0|8,0:0|0:0|0:0,0:0:0:0:
352,192,75296,1,4,0:0:0:0:
464,192,75461,2,0,L|400:128,1,87.5,0|8,0:0|0:0,0:0:0:0:
288,192,75791,2,0,L|352:128,1,87.5,8|8,0:0|0:0,0:0:0:0:
162,130,76120,6,0,L|224:192,2,87.5,4|8|8,0:0|0:0|0:0,0:0:0:0:
349,130,76615,2,0,L|288:192,1,87.5,4|0,0:0|0:0,0:0:0:0:
160,192,76945,2,0,L|224:128,2,87.5,8|8|8,0:0|0:0|0:0,0:0:0:0:
432,192,77439,6,0,L|384:272,1,87.5,12|0,0:0|0:0,0:0:0:0:
256,272,77769,2,0,L|176:224,2,87.5,8|0|0,0:0|0:0|0:0,0:0:0:0:
432,192,78263,2,0,L|336:160,1,87.5,8|8,0:0|0:0,0:0:0:0:
304,160,78510,1,0,0:0:0:0:
256,160,78593,1,0,0:0:0:0:
96,160,78758,6,0,L|179:187,1,87.5,8|0,0:0|0:0,0:0:0:0:
332,187,79087,2,0,L|416:160,1,87.5,8|8,0:0|0:0,0:0:0:0:
256,176,79417,2,0,L|336:128,1,87.5,0|8,0:0|0:0,0:0:0:0:
187,205,79747,1,8,0:0:0:0:
149,182,79829,1,0,0:0:0:0:
112,160,79912,1,8,0:0:0:0:
400,192,80076,6,0,L|496:208,2,87.5,4|0|8,0:0|0:0|0:0,0:0:0:0:
160,192,80571,1,4,0:0:0:0:
48,192,80736,2,0,L|112:128,1,87.5,0|8,0:0|0:0,0:0:0:0:
224,192,81065,2,0,L|160:128,1,87.5,8|8,0:0|0:0,0:0:0:0:
350,130,81395,6,0,L|288:192,2,87.5,4|8|8,0:0|0:0|0:0,0:0:0:0:
163,130,81890,2,0,L|224:192,1,87.5,4|0,0:0|0:0,0:0:0:0:
352,192,82219,2,0,L|288:128,2,87.5,8|8|8,0:0|0:0|0:0,0:0:0:0:
80,127,82714,6,0,P|63:167|79:207,1,87.5,12|0,0:0|0:0,0:0:0:0:
224,208,83043,2,0,L|288:144,2,87.5,8|0|0,0:0|0:0|0:0,0:0:0:0:
79,207,83538,2,0,P|63:167|80:127,1,87.5,8|8,0:0|0:0,0:0:0:0:
128,128,83785,1,0,0:0:0:0:
176,128,83868,1,0,0:0:0:0:
336,128,84032,6,0,P|384:128|416:96,1,87.5,8|0,0:0|0:0,0:0:0:0:
292,80,84362,2,0,P|256:56|220:80,1,87.5,8|8,0:0|0:0,0:0:0:0:
99,103,84692,2,0,P|133:129|176:128,1,87.5,0|8,0:0|0:0,0:0:0:0:
320,192,85021,1,8,0:0:0:0:
384,192,85104,1,0,0:0:0:0:
432,192,85186,1,8,0:0:0:0:
112,192,85351,6,0,L|16:176,2,87.5,4|0|8,0:0|0:0|0:0,0:0:0:0:
352,192,85846,1,4,0:0:0:0:
464,192,86010,2,0,L|400:256,1,87.5,0|8,0:0|0:0,0:0:0:0:
288,192,86340,2,0,L|352:256,1,87.5,8|8,0:0|0:0,0:0:0:0:
162,254,86670,6,0,L|224:192,2,87.5,4|8|8,0:0|0:0|0:0,0:0:0:0:
349,254,87164,2,0,L|288:192,1,87.5,4|0,0:0|0:0,0:0:0:0:
160,192,87494,2,0,L|224:256,2,87.5,8|8|8,0:0|0:0|0:0,0:0:0:0:
432,192,87988,6,0,L|384:112,1,87.5,12|0,0:0|0:0,0:0:0:0:
256,112,88318,2,0,L|176:160,2,87.5,8|0|0,0:0|0:0|0:0,0:0:0:0:
432,192,88813,2,0,L|336:224,1,87.5,8|8,0:0|0:0,0:0:0:0:
304,224,89060,1,0,0:0:0:0:
256,224,89142,1,0,0:0:0:0:
96,224,89307,6,0,L|179:197,1,87.5,8|0,0:0|0:0,0:0:0:0:
332,197,89637,2,0,L|416:224,1,87.5,8|8,0:0|0:0,0:0:0:0:
256,208,89966,2,0,L|336:256,1,87.5,0|8,0:0|0:0,0:0:0:0:
187,179,90296,1,8,0:0:0:0:
149,202,90379,1,0,0:0:0:0:
112,224,90461,1,4,0:0:0:0:
400,192,90626,6,0,L|496:176,2,87.5,4|0|8,0:0|0:0|0:0,0:0:0:0:
160,192,91120,1,4,0:0:0:0:
48,192,91285,2,0,L|112:256,1,87.5,0|8,0:0|0:0,0:0:0:0:
224,192,91615,2,0,L|160:256,1,87.5,8|8,0:0|0:0,0:0:0:0:
350,254,91945,6,0,L|288:192,2,87.5,4|8|8,0:0|0:0|0:0,0:0:0:0:
163,254,92439,2,0,L|224:192,1,87.5,4|0,0:0|0:0,0:0:0:0:
352,192,92769,2,0,L|288:256,2,87.5,8|8|8,0:0|0:0|0:0,0:0:0:0:
64,192,93263,6,0,L|112:112,1,87.5,12|0,0:0|0:0,0:0:0:0:
256,192,93593,2,0,L|304:112,1,87.5,8|0,0:0|0:0,0:0:0:0:
464,192,93923,2,0,L|416:112,1,87.5,0|8,0:0|0:0,0:0:0:0:
256,192,94252,2,0,L|208:112,1,87.5,8|0,0:0|0:0,0:0:0:0:
48,112,94582,5,8,0:0:0:0:
47,155,94664,1,0,0:0:0:0:
56,198,94747,1,0,0:0:0:0:
74,238,94829,1,0,0:0:0:0:
99,273,94912,1,8,0:0:0:0:
132,303,94994,1,0,0:0:0:0:
169,325,95076,1,8,0:0:0:0:
211,339,95159,1,0,0:0:0:0:
254,343,95241,5,0,0:0:0:0:
298,339,95324,1,0,0:0:0:0:
339,326,95406,1,8,0:0:0:0:
377,304,95488,1,0,0:0:0:0:
410,276,95571,1,8,0:0:0:0:
436,240,95653,1,0,0:0:0:0:
454,201,95736,1,8,0:0:0:0:
463,158,95818,1,0,0:0:0:0:
416,112,95901,5,12,0:0:0:0:
320,112,96065,2,0,B|352:80|352:80|352:128,1,87.5,0|0,0:0|0:0,0:0:0:0:
161,81,96395,2,0,L|192:112,1,43.75,4|0,0:0|0:0,0:0:0:0:
320,112,96642,2,0,L|352:80,1,43.75,0|4,0:0|0:0,0:0:0:0:
192,112,96890,1,8,0:0:0:0:
320,112,97054,1,0,0:0:0:0:
160,112,97219,5,8,0:0:0:0:
208,112,97302,1,0,0:0:0:0:
256,112,97384,1,0,0:0:0:0:
304,112,97466,1,0,0:0:0:0:
352,112,97549,1,8,0:0:0:0:
256,192,97714,1,4,0:0:0:0:
368,192,97879,2,0,L|320:272,1,87.5,0|0,0:0|0:0,0:0:0:0:
144,192,98208,2,0,L|189:116,1,87.5,8|0,0:0|0:0,0:0:0:0:
352,112,98538,6,0,L|400:112,2,43.75,8|0|0,0:0|0:0|0:0,0:0:0:0:
208,112,98868,2,0,L|160:112,1,43.75,8|0,0:0|0:0,0:0:0:0:
120,112,99032,2,0,L|168:112,1,43.75,4|0,0:0|0:0,0:0:0:0:
288,112,99280,1,0,0:0:0:0:
352,112,99362,2,0,L|448:112,2,87.5,4|8|0,0:0|0:0|0:0,0:0:0:0:
160,192,99857,6,0,L|128:224,1,43.75,8|0,0:0|0:0,0:0:0:0:
96,256,100021,2,0,L|128:224,1,43.75,0|0,0:0|0:0,0:0:0:0:
256,224,100269,2,0,L|256:176,1,43.75,0|4,0:0|0:0,0:0:0:0:
382,222,100516,2,0,L|416:192,1,43.75,0|0,0:0|0:0,0:0:0:0:
448,160,100681,2,0,L|414:190,1,43.75,4|0,0:0|0:0,0:0:0:0:
256,160,100928,2,0,L|256:208,1,43.75,0|0,0:0|0:0,0:0:0:0:
112,192,101175,5,8,0:0:0:0:
256,192,101340,2,0,L|272:144,1,43.75,0|0,0:0|0:0,0:0:0:0:
384,192,101587,2,0,L|432:176,2,43.75,0|4|0,0:0|0:0|0:0,0:0:0:0:
336,192,101835,2,0,P|288:192|240:176,1,87.5,0|4,0:0|0:0,0:0:0:0:
384,112,102164,2,0,P|432:112|480:128,1,87.5,8|0,0:0|0:0,0:0:0:0:
352,144,102494,6,0,L|320:112,2,43.75,8|0|0,0:0|0:0|0:0,0:0:0:0:
224,144,102824,2,0,L|192:112,2,43.75,8|0|4,0:0|0:0|0:0,0:0:0:0:
352,144,103153,2,0,L|368:240,1,87.5,0|4,0:0|0:0,0:0:0:0:
160,240,103483,2,0,L|144:144,1,87.5,8|0,0:0|0:0,0:0:0:0:
320,192,103813,5,8,0:0:0:0:
448,192,103977,2,0,L|416:160,1,43.75,0|0,0:0|0:0,0:0:0:0:
290,161,104225,2,0,L|320:192,1,43.75,0|4,0:0|0:0,0:0:0:0:
448,192,104472,1,0,0:0:0:0:
320,192,104637,1,4,0:0:0:0:
272,192,104719,1,0,0:0:0:0:
224,192,104802,2,0,L|320:160,1,87.5,8|0,0:0|0:0,0:0:0:0:
432,192,105131,6,0,L|336:224,2,87.5,8|0|8,0:0|0:0|0:0,0:0:0:0:
320,192,105626,1,4,0:0:0:0:
160,240,105791,1,0,0:0:0:0:
136,257,105846,1,0,0:0:0:0:
108,264,105901,1,0,0:0:0:0:
80,260,105956,1,4,0:0:0:0:
55,245,106010,1,0,0:0:0:0:
38,222,106065,1,0,0:0:0:0:
32,193,106120,1,8,0:0:0:0:
37,165,106175,1,0,0:0:0:0:
52,140,106230,1,0,0:0:0:0:
76,124,106285,1,0,0:0:0:0:
105,119,106340,1,0,0:0:0:0:
133,124,106395,1,0,0:0:0:0:
157,141,106450,6,0,L|224:208,2,87.5,12|0|8,0:0|0:0|0:0,0:0:0:0:
32,192,106945,1,4,0:0:0:0:
176,192,107109,1,0,0:0:0:0:
336,192,107274,2,0,L|272:128,1,87.5,4|8,0:0|0:0,0:0:0:0:
144,128,107604,6,0,L|208:64,1,87.5,0|8,0:0|0:0,0:0:0:0:
320,128,107934,2,0,L|256:64,1,87.5,0|8,0:0|0:0,0:0:0:0:
128,64,108263,2,0,L|80:48,2,43.75,4|0|0,0:0|0:0|0:0,0:0:0:0:
384,192,108593,6,0,L|384:288,1,87.5,4|8,0:0|0:0,0:0:0:0:
128,192,108923,2,0,L|32:176,1,87.5,0|8,0:0|0:0,0:0:0:0:
80,144,109170,1,0,0:0:0:0:
128,144,109252,1,0,0:0:0:0:
256,192,109417,2,0,L|256:240,2,43.75,8|0|4,0:0|0:0|0:0,0:0:0:0:
384,192,109747,2,0,L|448:128,1,87.5,0|4,0:0|0:0,0:0:0:0:
128,192,110076,2,0,L|64:256,1,87.5,8|0,0:0|0:0,0:0:0:0:
128,192,110406,5,8,0:0:0:0:
256,192,110571,2,0,L|208:112,1,87.5,0|8,0:0|0:0,0:0:0:0:
352,192,110901,2,0,L|304:272,1,87.5,4|0,0:0|0:0,0:0:0:0:
256,272,111148,1,0,0:0:0:0:
205,267,111230,2,0,L|288:240,1,87.5,4|8,0:0|0:0,0:0:0:0:
160,240,111560,1,0,0:0:0:0:
464,272,111725,6,0,L|464:176,1,87.5,12|0,0:0|0:0,0:0:0:0:
416,160,111972,1,0,0:0:0:0:
368,192,112054,2,0,L|288:144,2,87.5,8|4|0,0:0|0:0|0:0,0:0:0:0:
256,192,112549,1,4,0:0:0:0:
96,192,112714,1,8,0:0:0:0:
256,192,112879,6,0,L|176:144,1,87.5,0|8,0:0|0:0,0:0:0:0:
32,144,113208,2,0,L|112:192,1,87.5,0|8,0:0|0:0,0:0:0:0:
240,192,113538,2,0,L|320:144,1,87.5,4|0,0:0|0:0,0:0:0:0:
448,144,113868,1,4,0:0:0:0:
320,144,114032,2,0,L|384:208,1,87.5,8|0,0:0|0:0,0:0:0:0:
130,205,114362,6,0,L|192:144,1,87.5,8|0,0:0|0:0,0:0:0:0:
349,205,114692,2,0,L|288:144,2,87.5,8|4|0,0:0|0:0|0:0,0:0:0:0:
464,208,115186,2,0,L|403:146,2,87.5,4|8|0,0:0|0:0|0:0,0:0:0:0:
160,208,115681,2,0,L|99:147,2,87.5,12|0|8,0:0|0:0|0:0,0:0:0:0:
275,211,116175,2,0,L|214:149,2,87.5,4|0|4,0:0|0:0|0:0,0:0:0:0:
397,146,116670,2,0,L|336:208,1,87.5,8|0,0:0|0:0,0:0:0:0:
160,208,116999,6,0,B|192:272|160:336|160:336|128:272|160:208|160:208|224:112|400:112,1,525.000020027161,0|0,0:0|0:0,0:0:0:0:
416,112,117741,1,0,0:0:0:0:
432,112,117824,1,8,0:0:0:0:
416,112,117906,1,0,0:0:0:0:
389,112,117988,2,0,P|352:144|352:192,1,87.5,0|8,0:0|0:0,0:0:0:0:
224,192,118318,6,0,L|240:288,1,87.5,4|0,0:0|0:0,0:0:0:0:
112,192,118648,2,0,L|128:288,1,87.5,4|0,0:0|0:0,0:0:0:0:
304,288,118977,2,0,L|368:288,2,43.75,2|0|2,0:0|0:0|0:0,0:0:0:0:
128,288,119307,2,0,L|64:288,2,43.75,2|0|2,0:0|0:0|0:0,0:0:0:0:
384,288,119637,5,4,0:0:0:0:
208,192,130186,6,0,P|256:64|304:192,1,350,2|2,0:0|0:0,0:0:0:0:
96,208,132164,2,0,P|80:160|80:112,1,87.5,2|2,0:0|0:0,0:0:0:0:
224,112,132823,6,0,B|288:96|272:192|368:128|368:128|464:160|424:192|464:224|368:256|368:256|272:192|288:288|224:272,1,525,2|2,0:0|0:0,0:0:0:0:
96,192,135131,1,2,0:0:0:0:
256,192,135461,12,2,137439,0:0:0:0:
256,192,138098,12,6,139417,0:0:0:0:
160,192,140735,5,14,0:0:0:0:
464,192,141395,2,0,L|384:80,1,131.25000500679,8|8,0:0|0:0,0:0:0:0:
160,192,142054,2,0,L|240:304,1,131.25000500679,10|8,0:0|0:0,0:0:0:0:
464,192,142713,1,10,0:0:0:0:
425,138,142878,1,8,0:0:0:0:
387,85,143043,1,0,0:0:0:0:
160,192,143373,5,10,0:0:0:0:
464,192,144032,2,0,L|432:320,1,131.25000500679,10|0,0:0|0:0,0:0:0:0:
288,192,144691,2,0,L|256:320,1,131.25000500679,10|0,0:0|0:0,0:0:0:0:
112,192,145351,2,0,L|144:320,1,131.25000500679,10|2,0:0|0:0,0:0:0:0:
352,192,146010,5,10,0:0:0:0:
48,192,146669,2,0,L|128:304,1,131.25000500679,8|8,0:0|0:0,0:0:0:0:
352,192,147329,2,0,L|272:80,1,131.25000500679,10|8,0:0|0:0,0:0:0:0:
48,192,147988,1,10,0:0:0:0:
87,246,148153,1,8,0:0:0:0:
125,299,148318,1,0,0:0:0:0:
352,192,148647,5,10,0:0:0:0:
48,192,149307,2,0,L|80:64,1,131.25000500679,10|0,0:0|0:0,0:0:0:0:
224,192,149966,2,0,L|256:64,1,131.25000500679,10|0,0:0|0:0,0:0:0:0:
400,192,150626,2,0,L|368:64,1,131.25000500679,8|0,0:0|0:0,0:0:0:0:
160,192,151285,6,0,L|96:176,2,65.6250025033952,14|0|0,0:0|0:0|0:0,0:0:0:0:
352,192,151944,2,0,L|416:176,2,65.6250025033952,8|0|8,0:0|0:0|0:0,0:0:0:0:
160,192,152604,2,0,P|96:176|48:128,1,131.25000500679,10|8,0:0|0:0,0:0:0:0:
256,96,153263,1,10,0:0:0:0:
209,51,153428,1,8,0:0:0:0:
146,35,153593,1,2,0:0:0:0:
352,192,153922,6,0,L|416:208,2,65.6250025033952,14|0|0,0:0|0:0|0:0,0:0:0:0:
160,192,154582,2,0,L|96:208,2,65.6250025033952,8|0|8,0:0|0:0|0:0,0:0:0:0:
352,192,155241,2,0,P|416:208|464:256,1,131.25000500679,8|8,0:0|0:0,0:0:0:0:
256,288,155900,1,10,0:0:0:0:
303,333,156065,1,8,0:0:0:0:
366,349,156230,1,2,0:0:0:0:
303,333,156395,1,0,0:0:0:0:
176,320,156560,6,0,L|112:304,2,65.6250025033952,14|0|0,0:0|0:0|0:0,0:0:0:0:
384,320,157219,2,0,L|448:304,3,65.6250025033952,8|0|8|0,0:0|0:0|0:0|0:0,0:0:0:0:
352,320,157878,1,8,0:0:0:0:
256,320,158043,2,0,L|256:176,2,131.25000500679,2|2|10,0:0|0:0|0:0,0:0:0:0:
160,320,158867,1,0,0:0:0:0:
64,304,159032,1,0,0:0:0:0:
176,272,159197,6,0,L|224:224,2,65.6250025033952,10|0|2,0:0|0:0|0:0,0:0:0:0:
336,272,159691,2,0,P|384:240|416:176,1,131.25000500679,2|2,0:0|0:0,0:0:0:0:
336,176,160186,2,0,L|401:175,1,65.6250025033952,10|0,0:0|0:0,0:0:0:0:
272,176,160516,6,0,L|224:128,2,65.6250025033952,14|0|10,0:0|0:0|0:0,0:0:0:0:
400,176,161010,2,0,P|368:240|304:256,1,131.25000500679,2|10,0:0|0:0,0:0:0:0:
197,257,161505,2,0,L|128:224,1,65.6250025033952,2|0,0:0|0:0,0:0:0:0:
256,192,161834,6,0,L|304:112,1,87.5,4|8,0:0|0:0,0:0:0:0:
448,192,162163,2,0,L|400:112,1,87.5,4|8,0:0|0:0,0:0:0:0:
256,192,162493,2,0,L|208:272,1,87.5,4|8,0:0|0:0,0:0:0:0:
64,192,162823,2,0,L|112:272,1,87.5,4|8,0:0|0:0,0:0:0:0:
256,192,163152,6,0,L|288:160,3,43.75,6|0|8|0,0:0|0:0|0:0|0:0,0:0:0:0:
352,160,163482,2,0,L|384:128,3,43.75,6|0|8|0,0:0|0:0|0:0|0:0,0:0:0:0:
448,128,163812,2,0,L|480:96,3,43.75,6|0|8|0,0:0|0:0|0:0|0:0,0:0:0:0:
384,96,164141,5,10,0:0:0:0:
352,96,164471,5,12,0:0:0:0:
144,96,164636,2,0,L|224:144,1,87.5,2|10,0:0|0:0,0:0:0:0:
448,224,164965,2,0,L|368:176,1,87.5,2|0,0:0|0:0,0:0:0:0:
256,128,165295,1,8,0:0:0:0:
139,178,165460,2,0,L|64:224,1,87.5,10|0,0:0|0:0,0:0:0:0:
192,224,165790,6,0,L|112:272,2,87.5,10|0|10,0:0|0:0|0:0,0:0:0:0:
320,224,166284,2,0,B|400:272|400:272|480:240,1,175,8|8,0:0|0:0,0:0:0:0:
320,224,166779,2,0,L|416:192,1,87.5,8|0,0:0|0:0,0:0:0:0:
256,192,167108,5,8,0:0:0:0:
80,192,167273,2,0,L|144:128,1,87.5,2|10,0:0|0:0,0:0:0:0:
384,128,167603,2,0,L|288:160,1,87.5,2|0,0:0|0:0,0:0:0:0:
160,272,167932,1,8,0:0:0:0:
320,272,168097,2,0,L|237:300,1,87.5,10|0,0:0|0:0,0:0:0:0:
96,320,168427,6,0,L|179:347,1,87.5,10|0,0:0|0:0,0:0:0:0:
332,347,168757,2,0,L|416:320,1,87.5,10|8,0:0|0:0,0:0:0:0:
288,288,169086,2,0,B|384:256|384:256|432:192,1,175,0|8,0:0|0:0,0:0:0:0:
176,288,169746,5,8,0:0:0:0:
368,288,169911,2,0,L|288:240,1,87.5,2|10,0:0|0:0,0:0:0:0:
64,160,170240,2,0,L|144:208,1,87.5,2|0,0:0|0:0,0:0:0:0:
256,256,170570,1,8,0:0:0:0:
373,206,170735,2,0,L|448:160,1,87.5,10|0,0:0|0:0,0:0:0:0:
320,160,171065,6,0,L|400:112,2,87.5,10|0|10,0:0|0:0|0:0,0:0:0:0:
192,160,171559,2,0,B|112:112|112:112|32:144,1,175,8|8,0:0|0:0,0:0:0:0:
192,160,172054,2,0,L|96:192,1,87.5,8|0,0:0|0:0,0:0:0:0:
256,192,172383,5,8,0:0:0:0:
432,192,172548,2,0,L|368:256,1,87.5,2|10,0:0|0:0,0:0:0:0:
128,256,172878,2,0,L|224:224,1,87.5,2|0,0:0|0:0,0:0:0:0:
352,112,173207,1,8,0:0:0:0:
192,112,173372,2,0,L|275:84,1,87.5,10|0,0:0|0:0,0:0:0:0:
416,64,173702,5,10,0:0:0:0:
374,50,173784,1,0,0:0:0:0:
332,36,173866,1,8,0:0:0:0:
96,64,174032,2,0,L|180:37,1,87.5,10|8,0:0|0:0,0:0:0:0:
416,64,174526,5,10,0:0:0:0:
96,64,174691,1,8,0:0:0:0:
126,94,174773,1,0,0:0:0:0:
157,125,174855,1,0,0:0:0:0:
64,288,175020,6,0,L|80:192,1,87.5,8|2,0:0|0:0,0:0:0:0:
256,288,175350,2,0,L|240:192,1,87.5,8|2,0:0|0:0,0:0:0:0:
80,192,175680,2,0,L|96:96,1,87.5,0|10,0:0|0:0,0:0:0:0:
240,192,176010,2,0,L|224:96,1,87.5,10|0,0:0|0:0,0:0:0:0:
96,112,176339,6,0,L|20:157,2,87.5,10|0|10,0:0|0:0|0:0,0:0:0:0:
224,96,176834,2,0,P|288:96|320:192,1,175,8|8,0:0|0:0,0:0:0:0:
176,192,177328,2,0,L|256:240,1,87.5,8|0,0:0|0:0,0:0:0:0:
448,288,177658,6,0,L|432:192,1,87.5,8|2,0:0|0:0,0:0:0:0:
256,288,177988,2,0,L|272:192,1,87.5,8|2,0:0|0:0,0:0:0:0:
432,192,178318,2,0,L|416:96,1,87.5,0|0,0:0|0:0,0:0:0:0:
272,192,178648,2,0,L|288:96,1,87.5,10|0,0:0|0:0,0:0:0:0:
416,112,178976,6,0,L|492:157,2,87.5,10|0|10,0:0|0:0|0:0,0:0:0:0:
288,96,179471,2,0,P|224:96|192:192,1,175,8|8,0:0|0:0,0:0:0:0:
336,192,179965,2,0,L|416:240,1,87.5,8|0,0:0|0:0,0:0:0:0:
272,240,180295,6,0,L|352:288,2,87.5,8|2|8,0:0|0:0|0:0,0:0:0:0:
112,240,180790,2,0,L|32:288,2,87.5,2|0|10,0:0|0:0|0:0,0:0:0:0:
272,240,181284,2,0,L|352:192,1,87.5,10|0,0:0|0:0,0:0:0:0:
112,192,181614,5,10,0:0:0:0:
16,192,181779,2,0,P|64:112|144:96,2,175,2|8|10,0:0|0:0|0:0,0:0:0:0:
173,253,182603,2,0,L|112:192,1,87.5,10|2,0:0|0:0,0:0:0:0:
256,192,182932,6,0,L|317:253,1,87.5,8|2,0:0|0:0,0:0:0:0:
416,192,183262,1,10,0:0:0:0:
176,192,183427,2,0,P|256:160|336:192,1,175,2|10,0:0|0:0,0:0:0:0:
212,240,183921,2,0,L|300:240,1,87.5,10|0,0:0|0:0,0:0:0:0:
160,240,184251,6,0,L|96:176,2,87.5,14|0|10,0:0|0:0|0:0,0:0:0:0:
256,192,184746,1,12,0:0:0:0:
352,240,184910,1,0,0:0:0:0:
392,224,184992,1,0,0:0:0:0:
416,189,185074,1,8,0:0:0:0:
416,146,185157,1,0,0:0:0:0:
400,112,185240,2,0,L|307:124,1,87.5,12|0,0:0|0:0,0:0:0:0:
160,288,185570,5,12,0:0:0:0:
368,288,185735,2,0,L|288:240,1,87.5,2|10,0:0|0:0,0:0:0:0:
64,160,186064,2,0,L|144:208,1,87.5,2|0,0:0|0:0,0:0:0:0:
256,256,186394,1,8,0:0:0:0:
373,206,186559,2,0,L|448:160,1,87.5,10|0,0:0|0:0,0:0:0:0:
320,160,186889,6,0,L|400:112,2,87.5,10|0|10,0:0|0:0|0:0,0:0:0:0:
192,160,187383,2,0,B|112:112|112:112|32:144,1,175,8|8,0:0|0:0,0:0:0:0:
192,160,187878,2,0,L|96:192,1,87.5,8|0,0:0|0:0,0:0:0:0:
256,192,188207,5,8,0:0:0:0:
432,192,188372,2,0,L|368:256,1,87.5,2|10,0:0|0:0,0:0:0:0:
128,256,188702,2,0,L|224:224,1,87.5,2|0,0:0|0:0,0:0:0:0:
352,112,189031,1,8,0:0:0:0:
192,112,189196,2,0,L|275:84,1,87.5,10|0,0:0|0:0,0:0:0:0:
416,64,189526,6,0,L|333:37,1,87.5,10|0,0:0|0:0,0:0:0:0:
180,37,189856,2,0,L|96:64,1,87.5,10|8,0:0|0:0,0:0:0:0:
224,96,190185,2,0,B|128:128|128:128|80:192,1,175,0|8,0:0|0:0,0:0:0:0:
336,96,190845,5,8,0:0:0:0:
144,96,191010,2,0,L|224:144,1,87.5,2|10,0:0|0:0,0:0:0:0:
448,224,191339,2,0,L|368:176,1,87.5,2|0,0:0|0:0,0:0:0:0:
256,128,191669,1,8,0:0:0:0:
139,178,191834,2,0,L|64:224,1,87.5,10|0,0:0|0:0,0:0:0:0:
192,224,192164,6,0,L|112:272,2,87.5,10|0|10,0:0|0:0|0:0,0:0:0:0:
320,224,192658,2,0,B|400:272|400:272|480:240,1,175,8|8,0:0|0:0,0:0:0:0:
320,224,193153,2,0,L|416:192,1,87.5,8|0,0:0|0:0,0:0:0:0:
256,192,193482,5,8,0:0:0:0:
80,192,193647,2,0,L|144:128,1,87.5,2|10,0:0|0:0,0:0:0:0:
384,128,193977,2,0,L|288:160,1,87.5,2|0,0:0|0:0,0:0:0:0:
160,272,194306,1,8,0:0:0:0:
320,272,194471,2,0,L|237:300,1,87.5,10|0,0:0|0:0,0:0:0:0:
96,320,194801,5,10,0:0:0:0:
138,334,194883,1,0,0:0:0:0:
180,348,194965,1,8,0:0:0:0:
416,320,195131,2,0,L|332:347,1,87.5,10|8,0:0|0:0,0:0:0:0:
96,320,195625,5,10,0:0:0:0:
416,320,195790,1,8,0:0:0:0:
386,290,195872,1,0,0:0:0:0:
355,259,195954,1,0,0:0:0:0:
448,96,196119,6,0,L|432:192,1,87.5,12|2,0:0|0:0,0:0:0:0:
256,96,196449,2,0,L|272:192,1,87.5,8|2,0:0|0:0,0:0:0:0:
432,192,196779,2,0,L|416:288,1,87.5,0|10,0:0|0:0,0:0:0:0:
272,192,197109,2,0,L|288:288,1,87.5,10|0,0:0|0:0,0:0:0:0:
416,272,197438,6,0,L|492:227,2,87.5,10|0|10,0:0|0:0|0:0,0:0:0:0:
288,288,197933,2,0,P|224:288|192:192,1,175,8|8,0:0|0:0,0:0:0:0:
336,192,198427,2,0,L|256:144,1,87.5,8|0,0:0|0:0,0:0:0:0:
64,96,198757,6,0,L|80:192,1,87.5,8|2,0:0|0:0,0:0:0:0:
256,96,199087,2,0,L|240:192,1,87.5,8|2,0:0|0:0,0:0:0:0:
80,192,199417,2,0,L|96:288,1,87.5,0|10,0:0|0:0,0:0:0:0:
240,192,199747,2,0,L|224:288,1,87.5,10|0,0:0|0:0,0:0:0:0:
96,272,200075,6,0,L|20:227,2,87.5,10|0|10,0:0|0:0|0:0,0:0:0:0:
224,288,200570,2,0,P|288:288|320:192,1,175,8|8,0:0|0:0,0:0:0:0:
176,192,201064,2,0,L|96:144,1,87.5,8|0,0:0|0:0,0:0:0:0:
384,144,201394,6,0,L|400:240,1,87.5,8|2,0:0|0:0,0:0:0:0:
272,144,201724,2,0,L|288:240,1,87.5,8|2,0:0|0:0,0:0:0:0:
160,144,202053,2,0,L|176:240,1,87.5,8|10,0:0|0:0,0:0:0:0:
48,144,202383,2,0,L|64:240,1,87.5,10|0,0:0|0:0,0:0:0:0:
384,240,202713,6,0,L|400:144,1,87.5,10|2,0:0|0:0,0:0:0:0:
272,240,203043,2,0,L|288:144,1,87.5,10|8,0:0|0:0,0:0:0:0:
160,240,203372,2,0,L|176:144,1,87.5,8|10,0:0|0:0,0:0:0:0:
48,240,203702,2,0,L|64:144,1,87.5,10|2,0:0|0:0,0:0:0:0:
272,144,204031,6,0,L|304:176,3,43.75,12|0|2|0,0:0|0:0|0:0|0:0,0:0:0:0:
240,176,204361,2,0,L|208:208,3,43.75,10|0|2|0,0:0|0:0|0:0|0:0,0:0:0:0:
128,208,204691,2,0,L|160:240,3,43.75,12|0|10|0,0:0|0:0|0:0|0:0,0:0:0:0:
224,240,205021,2,0,L|256:272,3,43.75,10|0|0|0,0:0|0:0|0:0|0:0,0:0:0:0:
336,272,205350,6,0,L|304:304,2,43.75,14|0|0,0:0|0:0|0:0,0:0:0:0:
416,272,205597,2,0,L|448:240,2,43.75,0|10|0,0:0|0:0|0:0,0:0:0:0:
336,272,205844,2,0,L|304:304,1,43.75,12|0,0:0|0:0,0:0:0:0:
384,304,206009,2,0,L|432:304,2,43.75,0|0|8,0:0|0:0|0:0,0:0:0:0:
240,304,206339,1,12,0:0:0:0:
208,304,206421,1,0,0:0:0:0:
192,304,206504,1,0,0:0:0:0:
432,304,206669,6,0,L|464:272,2,43.75,12|2|0,0:0|0:0|0:0,0:0:0:0:
352,304,207163,1,2,0:0:0:0:
272,304,207328,2,0,P|256:272|272:224,1,87.5,2|2,0:0|0:0,0:0:0:0:
480,192,207987,2,0,L|496:144,1,43.75,10|0,0:0|0:0,0:0:0:0:
384,192,208317,2,0,L|400:144,1,43.75,2|2,0:0|0:0,0:0:0:0:
80,304,209306,6,0,L|48:272,2,43.75,0|2|0,0:0|0:0|0:0,0:0:0:0:
160,304,209800,1,2,0:0:0:0:
240,304,209965,2,0,P|288:304|320:272,1,87.5,2|2,0:0|0:0,0:0:0:0:
480,192,210625,2,0,L|448:160,1,43.75,10|0,0:0|0:0,0:0:0:0:
352,192,210955,2,0,L|384:224,1,43.75,2|2,0:0|0:0,0:0:0:0:
80,80,211943,6,0,L|48:112,2,43.75,0|2|0,0:0|0:0|0:0,0:0:0:0:
160,80,212437,1,2,0:0:0:0:
240,80,212602,2,0,P|256:112|240:160,1,87.5,2|2,0:0|0:0,0:0:0:0:
32,192,213262,2,0,L|16:240,1,43.75,10|0,0:0|0:0,0:0:0:0:
128,192,213591,2,0,L|112:240,1,43.75,2|2,0:0|0:0,0:0:0:0:
432,80,214580,6,0,L|464:112,2,43.75,0|2|0,0:0|0:0|0:0,0:0:0:0:
352,80,215074,1,0,0:0:0:0:
272,80,215240,2,0,P|224:80|192:112,1,87.5,2|2,0:0|0:0,0:0:0:0:
32,192,215899,2,0,L|64:224,1,43.75,10|0,0:0|0:0,0:0:0:0:
160,192,216229,2,0,L|128:160,1,43.75,2|2,0:0|0:0,0:0:0:0:
286,161,216723,2,0,L|256:192,1,43.75,2|2,0:0|0:0,0:0:0:0:
48,192,217218,6,0,L|48:144,1,43.75,2|0,0:0|0:0,0:0:0:0:
144,192,217548,2,0,L|144:144,1,43.75,2|0,0:0|0:0,0:0:0:0:
240,192,217877,2,0,L|240:144,1,43.75,2|0,0:0|0:0,0:0:0:0:
336,192,218207,2,0,L|336:144,1,43.75,2|0,0:0|0:0,0:0:0:0:
464,192,218537,6,0,L|416:192,3,43.75,10|0|2|2,0:0|0:0|0:0|0:0,0:0:0:0:
48,192,219855,6,0,L|48:240,1,43.75,2|0,0:0|0:0,0:0:0:0:
144,192,220185,2,0,L|144:240,1,43.75,2|0,0:0|0:0,0:0:0:0:
240,192,220514,2,0,L|240:240,1,43.75,2|0,0:0|0:0,0:0:0:0:
336,192,220844,2,0,L|336:240,1,43.75,2|0,0:0|0:0,0:0:0:0:
464,192,221174,6,0,L|416:192,3,43.75,10|0|2|2,0:0|0:0|0:0|0:0,0:0:0:0:
256,192,221998,2,0,L|304:192,2,43.75,2|2|2,0:0|0:0|0:0,0:0:0:0:
160,192,222493,6,0,L|160:144,1,43.75,2|0,0:0|0:0,0:0:0:0:
256,192,222822,2,0,L|256:144,1,43.75,0|2,0:0|0:0,0:0:0:0:
352,192,223152,2,0,L|352:240,1,43.75,2|0,0:0|0:0,0:0:0:0:
256,192,223482,2,0,L|256:240,1,43.75,0|2,0:0|0:0,0:0:0:0:
128,192,223811,5,10,0:0:0:0:
256,192,223976,2,0,P|304:176|336:144,2,87.5,2|2|2,0:0|0:0|0:0,0:0:0:0:
144,192,224800,2,0,L|176:160,1,43.75,2|0,0:0|0:0,0:0:0:0:
256,160,225130,6,0,L|304:160,2,43.75,2|0|0,0:0|0:0|0:0,0:0:0:0:
144,192,225625,2,0,P|128:144|144:112,1,87.5,2|0,0:0|0:0,0:0:0:0:
256,112,226119,2,0,L|304:112,1,43.75,2|0,0:0|0:0,0:0:0:0:
192,192,226449,6,0,L|208:144,1,43.75,10|0,0:0|0:0,0:0:0:0:
288,192,226778,2,0,L|304:144,1,43.75,2|0,0:0|0:0,0:0:0:0:
400,192,227108,5,2,0:0:0:0:
368,192,227190,1,0,0:0:0:0:
320,192,227273,1,2,0:0:0:0:
192,192,227438,1,2,0:0:0:0:
144,192,227520,1,0,0:0:0:0:
112,192,227603,1,2,0:0:0:0:
400,192,227767,5,6,0:0:0:0:
256,192,227932,12,0,230405,0:0:0:0:
