osu file format v5

[General]
AudioFilename: 09-sokol_and_pono-lubisz_hardcore-tet.mp3
AudioLeadIn: 0
PreviewTime: -1
Countdown: 1
SampleSet: Normal
StackLeniency: 0.7
Mode: 0

[Metadata]
Title:Lubisz Hardcore
Artist:Sokol & Pono
Creator:crazy_j0e
Version:Hard
Source:
Tags:

[Difficulty]
HPDrainRate:5
CircleSize:4
OverallDifficulty:7
SliderMultiplier:1.4
SliderTickRate:1

[Events]
//Background and Video events
0,0,"Sokol_Pono_Badzcie_rozne_2474757.jpg"
//Break Periods
2,56651,58976
2,88263,92445
//Storyboard Layer 0 (Background)
//Storyboard Layer 1 (Failing)
//Storyboard Layer 2 (Passing)
//Storyboard Layer 3 (Foreground)
//Storyboard Sound Samples
//Background Colour Transformations
3,100,163,162,255

[TimingPoints]
34109,465.128900000002,4,1,0,100

[Colours]
Combo1 : 130,221,225
Combo2 : 136,163,82
Combo3 : 38,36,38
Combo4 : 254,203,203

[HitObjects]
384,288,2920,1,0
256,224,3386,1,0
128,160,4084,5,0
160,160,4317,5,0
256,160,4782,1,0
352,160,5248,1,0
64,128,6179,1,0
192,128,6412,1,0
192,128,6528,1,0
192,128,6761,1,0
256,192,6877,1,0
320,192,7110,1,0
320,256,8972,1,0
256,224,9903,1,0
224,192,10252,1,0
224,192,10368,1,0
224,192,10601,1,0
224,192,11066,1,0
192,192,11299,1,0
128,256,11765,5,0
128,160,12230,1,0
128,128,12696,1,0
224,128,13627,1,0
256,128,14092,1,0
256,192,15023,1,0
256,128,15489,1,0
256,64,15954,1,0
256,192,16885,12,0,20144
192,128,21075,1,0
224,128,21540,1,0
256,128,22006,1,0
288,128,22471,1,0
320,128,22937,1,0
288,160,23402,1,0
256,192,23868,1,0
224,224,24333,1,0
256,224,24799,1,0
288,224,25264,1,0
320,224,25730,1,0
256,256,27126,1,0
256,224,27592,1,0
256,192,28523,1,0
256,160,28988,1,0
256,128,29454,1,0
224,288,30850,1,0
224,224,31316,1,0
224,160,32247,1,0
256,96,32712,1,0
320,128,33178,1,0
288,192,33643,1,0
256,160,34108,5,0
288,64,35969,1,0
288,192,36434,1,0
128,128,36899,1,0
160,160,37830,2,0,B|448:160|448:160|160:64,1,560
256,192,41085,5,0
256,192,41318,1,0
256,192,41551,1,0
256,192,42016,1,0
64,128,43411,1,0
192,128,43644,1,0
192,128,43760,1,0
192,128,43992,1,0
256,192,44109,1,0
320,192,44341,1,0
192,192,47132,2,0,B|320:192|416:32,1,280
160,160,48993,5,0
192,224,49458,1,0
256,96,51783,2,0,B|192:192|256:384,1,280
288,96,53179,2,0,B|320:192|224:384|256:384,1,280
384,352,54574,5,0
448,288,55039,1,0
416,320,55504,2,0,B|352:192|160:192,1,280
224,32,60156,5,0
256,64,60621,1,0
288,96,61086,1,0
256,128,62016,1,0
224,160,62481,1,0
192,192,62946,1,0
288,160,63877,5,0
256,192,64342,1,0
224,224,64807,1,0
256,256,65737,1,0
288,288,66202,1,0
320,320,66668,1,0
192,192,67540,1,0
256,160,68005,1,0
320,192,68412,1,0
192,192,69458,6,0,B|256:128|320:192,2,140
160,192,71319,5,0
160,224,72714,1,0
288,64,73179,1,0
256,192,74575,1,0
256,160,75040,1,0
128,96,75970,1,0
384,64,76900,5,0
256,288,77365,1,0
128,64,77831,1,0
256,192,78761,5,0
128,256,79691,5,0
192,192,80621,2,0,B|256:160|320:192|-32:96,1,280
64,128,82482,5,0
192,128,82947,1,0
320,160,83412,1,0
64,256,84342,5,0
192,256,84808,1,0
320,224,85273,1,0
0,192,86203,5,0
64,256,86668,1,0
32,224,87133,2,0,B|200:198|256:64,1,280
256,64,93645,6,0,B|128:192|256:320,1,280
288,64,95506,6,0,B|384:192|256:352,1,280
416,352,97366,5,0
480,288,97831,1,0
448,320,98296,2,0,B|384:160|64:224,1,420
128,192,101087,5,0
256,224,101552,1,0
192,288,102017,1,0
192,128,102482,1,0
224,224,102948,1,0
96,192,103413,1,0
224,160,103878,1,0
320,128,104343,1,0
384,32,104808,5,0
448,96,105273,1,0
416,64,105738,2,0,B|0:64|160:384,1,420
160,320,107599,1,0
224,352,108064,1,0
384,256,109925,1,0
480,192,111785,1,0
256,192,113180,1,0
256,192,113646,1,0
256,192,114111,12,0,115042
128,128,115971,1,0
384,128,116436,1,0
320,160,116901,2,0,B|192:224,1,140
128,256,117832,5,0
384,256,118297,1,0
256,192,118762,12,0,119227
256,192,120622,5,0
256,192,121088,1,0
256,192,121553,12,0,122484
192,192,123413,2,0,B|256:128|320:192,2,140
512,0,125274,1,0
352,128,125739,1,0
192,256,127134,1,0
0,384,127599,1,0
512,384,128995,1,0
384,256,129460,1,0
160,96,130855,1,0
0,0,131320,1,0
192,192,132716,2,0,B|320:64,1,140
192,192,133646,2,0,B|352:288,1,140
160,192,134576,1,0
352,192,135041,1,0
192,192,135507,2,0,B|352:192,1,140
32,160,136437,2,0,B|416:192,1,280
0,0,138297,1,0
256,384,138763,1,0
512,0,139693,1,0
96,64,141088,1,0
256,256,142018,1,0
416,64,142949,1,0
256,160,143879,1,0
64,224,144344,1,0
64,320,145274,2,0,B|416:96,1,280
256,192,147600,12,0,160169
256,192,162484,5,0
256,192,162949,1,0
256,192,166205,1,0
256,192,166670,1,0
256,192,168066,1,0
256,192,169926,5,0
256,192,171787,5,0
256,192,172717,5,0
256,192,173647,5,0
256,192,174577,5,0
256,192,175508,5,0
256,192,176438,5,0
256,192,178298,12,0,178764
256,128,179694,2,0,B|128:0|64:192|256:384|256:384|448:0|224:128,1,840
