osu file format v14

[General]
AudioFilename: Soilwork - Spectrum Of Eternity.mp3
AudioLeadIn: 0
PreviewTime: 110246
Countdown: 0
SampleSet: Normal
StackLeniency: 0.7
Mode: 0
LetterboxInBreaks: 1
WidescreenStoryboard: 0

[Editor]
DistanceSpacing: 0.6
BeatDivisor: 4
GridSize: 16
TimelineZoom: 1.5

[Metadata]
Title:Spectrum of Eternity
TitleUnicode:Spectrum of Eternity
Artist:Soilwork
ArtistUnicode:Soilwork
Creator:huono_tuuri
Version:Eternity
Source:
Tags:Spectrum of Eternity Soilwork The Living Infinite
BeatmapID:704055
BeatmapSetID:315880

[Difficulty]
HPDrainRate:5.5
CircleSize:4
OverallDifficulty:8.7
ApproachRate:9.9
SliderMultiplier:1.8
SliderTickRate:2

[Events]
//Background and Video events
0,0,"bg.jpg",0,0
//Break Periods
2,175196,176031
2,184696,191031
//Storyboard Layer 0 (Background)
//Storyboard Layer 1 (Fail)
//Storyboard Layer 2 (Pass)
//Storyboard Layer 3 (Foreground)
//Storyboard Sound Samples

[TimingPoints]
21496,250,4,1,0,55,1,0
22496,-100,4,1,0,55,0,1
28996,-133.333333333333,4,1,0,55,0,1
31996,-100,4,1,0,55,0,1
38246,-100,4,1,0,55,0,0
62496,-100,4,1,0,55,0,1
82496,-100,4,1,0,55,0,0
110246,-100,4,1,0,55,0,1
128496,-142.857142857143,4,1,0,55,0,0
131496,-111.111111111111,4,1,0,55,0,0
132496,-142.857142857143,4,1,0,55,0,0
134496,-111.111111111111,4,1,0,55,0,0
136496,-142.857142857143,4,1,0,55,0,0
139496,-111.111111111111,4,1,0,55,0,0
140496,-142.857142857143,4,1,0,55,0,0
142496,-100,4,1,0,55,0,0
145496,-133.333333333333,4,1,0,45,0,0
176496,-90.9090909090909,4,1,0,45,0,0
179496,-133.333333333333,4,1,0,45,0,0
180496,-100,4,1,0,45,0,0
183496,-133.333333333333,4,1,0,45,0,0
193496,-100,4,1,0,45,0,1
221496,-100,4,1,0,45,0,0
227496,-133.333333333333,4,1,0,45,0,0
228996,-100,4,1,0,45,0,0

[Colours]
Combo1 : 128,0,0
Combo2 : 255,255,255
Combo3 : 255,0,0
Combo4 : 128,128,128

[HitObjects]
368,128,21496,6,0,B|336:128|336:128|336:96|336:96|320:80|272:80|240:96|208:128,1,180
206,126,21808,1,0,0:0:0:0:
186,145,21871,1,0,0:0:0:0:
170,167,21933,1,0,0:0:0:0:
159,192,21996,1,0,0:0:0:0:
331,202,22496,5,0,0:0:0:0:
331,202,22558,1,0,0:0:0:0:
331,202,22621,1,0,0:0:0:0:
231,315,22746,1,0,0:0:0:0:
231,315,22808,1,0,0:0:0:0:
231,315,22871,1,0,0:0:0:0:
57,277,22996,5,0,0:0:0:0:
65,251,23058,1,0,0:0:0:0:
74,225,23121,1,0,0:0:0:0:
84,200,23183,1,0,0:0:0:0:
101,178,23246,1,0,0:0:0:0:
120,160,23308,1,0,0:0:0:0:
141,143,23371,1,0,0:0:0:0:
164,130,23433,1,0,0:0:0:0:
188,118,23496,1,0,0:0:0:0:
213,109,23558,1,0,0:0:0:0:
239,101,23621,1,0,0:0:0:0:
265,96,23683,1,0,0:0:0:0:
292,94,23746,1,0,0:0:0:0:
318,94,23808,1,0,0:0:0:0:
345,96,23871,1,0,0:0:0:0:
371,98,23933,1,0,0:0:0:0:
397,104,23996,6,0,P|406:173|337:273,1,180
247,217,24371,1,0,0:0:0:0:
87,152,24496,5,0,0:0:0:0:
87,152,24558,1,0,0:0:0:0:
87,152,24621,1,0,0:0:0:0:
217,174,24746,1,0,0:0:0:0:
217,174,24808,1,0,0:0:0:0:
217,174,24871,1,0,0:0:0:0:
311,44,24996,5,0,0:0:0:0:
335,53,25058,1,0,0:0:0:0:
357,67,25121,1,0,0:0:0:0:
374,86,25183,1,0,0:0:0:0:
390,107,25246,1,0,0:0:0:0:
402,130,25308,1,0,0:0:0:0:
410,155,25371,1,0,0:0:0:0:
415,181,25433,1,0,0:0:0:0:
416,208,25496,1,0,0:0:0:0:
413,234,25558,1,0,0:0:0:0:
406,260,25621,1,0,0:0:0:0:
393,283,25683,1,0,0:0:0:0:
376,304,25746,1,0,0:0:0:0:
352,316,25808,1,0,0:0:0:0:
325,322,25871,1,0,0:0:0:0:
298,325,25933,1,0,0:0:0:0:
270,327,25996,6,0,P|217:289|81:258,1,180
61,169,26371,1,0,0:0:0:0:
268,147,26496,5,0,0:0:0:0:
268,147,26558,1,0,0:0:0:0:
268,147,26621,1,0,0:0:0:0:
98,98,26746,1,0,0:0:0:0:
98,98,26808,1,0,0:0:0:0:
98,98,26871,1,0,0:0:0:0:
73,251,26996,5,0,0:0:0:0:
99,246,27058,1,0,0:0:0:0:
126,245,27121,1,0,0:0:0:0:
152,245,27183,1,0,0:0:0:0:
179,246,27246,1,0,0:0:0:0:
205,248,27308,1,0,0:0:0:0:
232,247,27371,1,0,0:0:0:0:
258,243,27433,1,0,0:0:0:0:
284,235,27496,1,0,0:0:0:0:
309,225,27558,1,0,0:0:0:0:
332,210,27621,1,0,0:0:0:0:
351,191,27683,1,0,0:0:0:0:
367,169,27746,1,0,0:0:0:0:
379,145,27808,1,0,0:0:0:0:
390,120,27871,1,0,0:0:0:0:
395,93,27933,1,0,0:0:0:0:
398,65,27996,6,0,B|444:49|444:49|494:87|466:181,1,180
484,276,28371,1,0,0:0:0:0:
376,288,28496,5,0,0:0:0:0:
352,274,28558,1,0,0:0:0:0:
328,260,28621,1,0,0:0:0:0:
304,246,28683,1,0,0:0:0:0:
280,232,28746,1,0,0:0:0:0:
256,218,28808,1,0,0:0:0:0:
232,204,28871,1,0,0:0:0:0:
208,191,28933,1,0,0:0:0:0:
185,175,28996,2,0,L|271:70,1,135
389,81,29371,1,0,0:0:0:0:
446,168,29496,5,0,0:0:0:0:
427,176,29558,1,0,0:0:0:0:
408,184,29621,1,0,0:0:0:0:
389,192,29683,1,0,0:0:0:0:
370,200,29746,1,0,0:0:0:0:
351,208,29808,1,0,0:0:0:0:
332,216,29871,1,0,0:0:0:0:
313,224,29933,1,0,0:0:0:0:
294,231,29996,2,0,L|206:106,1,135.000005149842
103,144,30371,1,0,0:0:0:0:
241,76,30496,5,0,0:0:0:0:
241,76,30558,1,0,0:0:0:0:
241,76,30621,1,0,0:0:0:0:
213,210,30746,1,0,0:0:0:0:
213,210,30808,1,0,0:0:0:0:
213,210,30871,1,0,0:0:0:0:
257,343,30996,5,0,0:0:0:0:
281,332,31058,1,0,0:0:0:0:
303,316,31121,1,0,0:0:0:0:
323,298,31183,1,0,0:0:0:0:
340,276,31246,1,0,0:0:0:0:
351,252,31308,1,0,0:0:0:0:
361,226,31371,1,0,0:0:0:0:
367,200,31433,1,0,0:0:0:0:
371,173,31496,1,0,0:0:0:0:
367,146,31558,1,0,0:0:0:0:
359,119,31621,1,0,0:0:0:0:
343,97,31683,1,0,0:0:0:0:
323,78,31746,1,0,0:0:0:0:
299,65,31808,1,0,0:0:0:0:
273,55,31871,1,0,0:0:0:0:
246,54,31933,1,0,0:0:0:0:
219,58,31996,6,0,P|148:82|63:153,1,180
188,181,32371,1,0,0:0:0:0:
123,264,32496,5,0,0:0:0:0:
123,264,32558,1,0,0:0:0:0:
123,264,32621,1,0,0:0:0:0:
243,325,32746,1,0,0:0:0:0:
243,325,32808,1,0,0:0:0:0:
243,325,32871,1,0,0:0:0:0:
203,158,32996,5,0,0:0:0:0:
227,147,33058,1,0,0:0:0:0:
252,136,33121,1,0,0:0:0:0:
276,125,33183,1,0,0:0:0:0:
301,114,33246,1,0,0:0:0:0:
325,104,33308,1,0,0:0:0:0:
351,97,33371,1,0,0:0:0:0:
377,93,33433,1,0,0:0:0:0:
403,98,33496,1,0,0:0:0:0:
423,115,33558,1,0,0:0:0:0:
436,138,33621,1,0,0:0:0:0:
442,163,33683,1,0,0:0:0:0:
446,189,33746,1,0,0:0:0:0:
448,215,33808,1,0,0:0:0:0:
450,242,33871,1,0,0:0:0:0:
452,268,33933,1,0,0:0:0:0:
454,295,33996,6,0,P|353:290|262:322,1,180
201,228,34371,1,0,0:0:0:0:
109,116,34496,5,0,0:0:0:0:
109,116,34558,1,0,0:0:0:0:
109,116,34621,1,0,0:0:0:0:
250,173,34746,1,0,0:0:0:0:
250,173,34808,1,0,0:0:0:0:
250,173,34871,1,0,0:0:0:0:
321,59,34996,5,0,0:0:0:0:
342,74,35058,1,0,0:0:0:0:
363,91,35121,1,0,0:0:0:0:
381,110,35183,1,0,0:0:0:0:
397,131,35246,1,0,0:0:0:0:
411,153,35308,1,0,0:0:0:0:
421,177,35371,1,0,0:0:0:0:
430,201,35433,1,0,0:0:0:0:
438,226,35496,1,0,0:0:0:0:
438,252,35558,1,0,0:0:0:0:
430,278,35621,1,0,0:0:0:0:
417,301,35683,1,0,0:0:0:0:
394,316,35746,1,0,0:0:0:0:
369,325,35808,1,0,0:0:0:0:
341,327,35871,1,0,0:0:0:0:
314,325,35933,1,0,0:0:0:0:
287,317,35996,6,0,P|217:293|101:308,1,180
13,325,36371,1,0,0:0:0:0:
53,214,36496,5,0,0:0:0:0:
79,209,36558,1,0,0:0:0:0:
105,204,36621,1,0,0:0:0:0:
131,199,36683,1,0,0:0:0:0:
157,194,36746,1,0,0:0:0:0:
183,189,36808,1,0,0:0:0:0:
209,184,36871,1,0,0:0:0:0:
235,179,36933,1,0,0:0:0:0:
261,175,36996,1,0,0:0:0:0:
287,171,37058,1,0,0:0:0:0:
313,167,37121,1,0,0:0:0:0:
339,163,37183,1,0,0:0:0:0:
366,159,37246,6,0,L|475:302,1,180
446,301,37558,1,0,0:0:0:0:
418,299,37621,1,0,0:0:0:0:
391,298,37683,1,0,0:0:0:0:
363,297,37746,1,0,0:0:0:0:
336,296,37808,1,0,0:0:0:0:
308,295,37871,1,0,0:0:0:0:
281,294,37933,1,0,0:0:0:0:
253,293,37996,1,0,0:0:0:0:
226,292,38058,1,0,0:0:0:0:
198,291,38121,1,0,0:0:0:0:
171,290,38183,1,0,0:0:0:0:
143,289,38246,1,0,0:0:0:0:
64,96,38496,5,0,0:0:0:0:
209,151,38621,1,0,0:0:0:0:
332,63,38746,1,0,0:0:0:0:
426,186,38871,1,0,0:0:0:0:
426,186,38933,1,0,0:0:0:0:
426,186,38996,1,0,0:0:0:0:
269,237,39121,1,0,0:0:0:0:
126,320,39246,1,0,0:0:0:0:
122,143,39371,1,0,0:0:0:0:
277,142,39496,6,0,P|355:119|386:91,1,90
389,249,39746,1,0,0:0:0:0:
258,216,39871,2,0,P|205:252|178:293,1,90
64,225,40121,1,0,0:0:0:0:
45,101,40246,2,0,P|121:114|239:64,1,180
327,68,40621,5,0,0:0:0:0:
406,114,40746,1,0,0:0:0:0:
449,195,40871,1,0,0:0:0:0:
435,286,40996,2,0,P|349:259|316:259,1,90
236,286,41246,1,0,0:0:0:0:
135,317,41371,1,0,0:0:0:0:
71,193,41496,5,0,0:0:0:0:
97,193,41558,1,0,0:0:0:0:
124,192,41621,1,0,0:0:0:0:
150,188,41683,1,0,0:0:0:0:
176,181,41746,1,0,0:0:0:0:
201,173,41808,1,0,0:0:0:0:
226,163,41871,1,0,0:0:0:0:
250,151,41933,1,0,0:0:0:0:
273,137,41996,2,0,L|297:173,1,22.5
296,118,42058,2,0,L|321:140,1,22.5
320,89,42121,2,0,L|346:102,1,22.5
337,60,42183,2,0,L|370:69,1,22.5
344,30,42246,2,0,B|424:43|424:43|430:91|467:137,1,180
398,223,42746,5,0,0:0:0:0:
308,235,42996,5,0,0:0:0:0:
218,247,43246,5,0,0:0:0:0:
128,258,43496,2,0,P|124:178|57:72,1,180
200,86,43871,2,0,P|279:110|403:91,1,180
459,63,44246,1,0,0:0:0:0:
432,262,44496,5,0,0:0:0:0:
404,247,44558,1,0,0:0:0:0:
373,239,44621,1,0,0:0:0:0:
342,231,44683,1,0,0:0:0:0:
314,228,44746,1,0,0:0:0:0:
287,229,44808,1,0,0:0:0:0:
260,233,44871,2,0,P|207:207|251:97,1,180
326,143,45246,6,0,B|377:103|377:103|330:42|266:29,1,180
259,35,45558,1,0,0:0:0:0:
233,43,45621,1,0,0:0:0:0:
209,56,45683,1,0,0:0:0:0:
189,75,45746,1,0,0:0:0:0:
176,98,45808,1,0,0:0:0:0:
170,124,45871,1,0,0:0:0:0:
171,150,45933,1,0,0:0:0:0:
178,176,45996,1,0,0:0:0:0:
187,201,46058,1,0,0:0:0:0:
203,222,46121,1,0,0:0:0:0:
222,240,46183,1,0,0:0:0:0:
242,257,46246,1,0,0:0:0:0:
264,272,46308,1,0,0:0:0:0:
288,282,46371,1,0,0:0:0:0:
312,291,46433,1,0,0:0:0:0:
338,297,46496,2,0,P|427:229|446:151,1,180
364,78,46871,5,0,0:0:0:0:
364,78,46933,1,0,0:0:0:0:
364,78,46996,1,0,0:0:0:0:
245,120,47121,1,0,0:0:0:0:
245,120,47183,2,0,P|179:99|105:104,1,135
29,218,47496,2,0,P|88:227|198:285,1,180
300,293,47871,2,0,P|335:200|281:119,1,180
226,176,48246,1,0,0:0:0:0:
82,75,48496,6,0,P|168:50|285:66,1,180
369,88,48871,1,0,0:0:0:0:
464,157,48996,1,0,0:0:0:0:
403,278,49121,1,0,0:0:0:0:
288,206,49246,1,0,0:0:0:0:
191,307,49371,1,0,0:0:0:0:
56,241,49496,5,0,0:0:0:0:
80,229,49558,1,0,0:0:0:0:
103,215,49621,1,0,0:0:0:0:
122,196,49683,1,0,0:0:0:0:
137,173,49746,1,0,0:0:0:0:
149,149,49808,1,0,0:0:0:0:
164,126,49871,1,0,0:0:0:0:
185,110,49933,1,0,0:0:0:0:
207,94,49996,2,0,P|258:134|312:159,1,90
306,149,50183,1,0,0:0:0:0:
332,144,50246,2,0,P|398:118|421:88,1,90
456,223,50496,5,0,0:0:0:0:
396,243,50621,1,0,0:0:0:0:
336,263,50746,1,0,0:0:0:0:
276,283,50871,1,0,0:0:0:0:
203,302,50996,1,0,0:0:0:0:
116,288,51121,1,0,0:0:0:0:
51,219,51246,1,0,0:0:0:0:
19,135,51371,1,0,0:0:0:0:
54,61,51496,6,0,P|121:70|155:55,1,90
247,72,51746,1,0,0:0:0:0:
193,188,51871,2,0,P|295:156|358:99,1,180
435,44,52246,6,0,P|458:129|439:237,1,180
428,215,52558,1,0,0:0:0:0:
410,211,52621,1,0,0:0:0:0:
392,208,52683,1,0,0:0:0:0:
374,205,52746,1,0,0:0:0:0:
356,204,52808,1,0,0:0:0:0:
337,206,52871,1,0,0:0:0:0:
319,209,52933,1,0,0:0:0:0:
301,214,52996,1,0,0:0:0:0:
284,220,53058,1,0,0:0:0:0:
267,227,53121,1,0,0:0:0:0:
251,236,53183,1,0,0:0:0:0:
235,245,53246,6,0,P|202:153|134:109,1,180
119,117,53558,1,0,0:0:0:0:
107,130,53621,1,0,0:0:0:0:
105,143,53683,1,0,0:0:0:0:
109,155,53746,1,0,0:0:0:0:
116,166,53808,1,0,0:0:0:0:
126,174,53871,1,0,0:0:0:0:
137,180,53933,1,0,0:0:0:0:
150,180,53996,2,0,P|221:147|326:147,2,180
401,113,54746,5,0,0:0:0:0:
254,124,54871,1,0,0:0:0:0:
254,124,54933,1,0,0:0:0:0:
254,124,54996,1,0,0:0:0:0:
104,166,55121,1,0,0:0:0:0:
204,266,55246,1,0,0:0:0:0:
204,266,55308,1,0,0:0:0:0:
204,266,55371,1,0,0:0:0:0:
377,282,55496,6,0,P|374:233|389:170,1,90
411,97,55746,1,0,0:0:0:0:
308,98,55871,2,0,P|192:126|128:124,1,180
87,53,56246,2,0,P|35:114|49:224,1,180
90,306,56621,1,0,0:0:0:0:
184,173,56746,5,0,0:0:0:0:
184,173,56808,1,0,0:0:0:0:
184,173,56871,1,0,0:0:0:0:
291,278,56996,1,0,0:0:0:0:
388,178,57121,1,0,0:0:0:0:
421,65,57246,6,0,P|326:96|236:104,1,180
221,95,57558,1,0,0:0:0:0:
194,89,57621,1,0,0:0:0:0:
171,90,57683,1,0,0:0:0:0:
150,98,57746,1,0,0:0:0:0:
133,113,57808,1,0,0:0:0:0:
127,135,57871,1,0,0:0:0:0:
127,157,57933,1,0,0:0:0:0:
134,178,57996,1,0,0:0:0:0:
146,196,58058,1,0,0:0:0:0:
163,210,58121,1,0,0:0:0:0:
183,219,58183,1,0,0:0:0:0:
204,226,58246,1,0,0:0:0:0:
221,228,58308,1,0,0:0:0:0:
239,229,58371,1,0,0:0:0:0:
256,228,58433,1,0,0:0:0:0:
273,224,58496,2,0,P|336:175|440:152,1,180
433,257,58871,5,0,0:0:0:0:
334,317,58996,1,0,0:0:0:0:
208,313,59121,2,0,P|141:304|93:321,2,90
226,175,59496,1,0,0:0:0:0:
226,175,59558,2,0,P|272:143|292:65,1,135
396,102,59871,2,0,P|399:181|353:284,1,180
273,233,60246,2,0,P|184:233|96:280,1,180
99,246,60558,5,0,0:0:0:0:
97,218,60621,1,0,0:0:0:0:
101,191,60683,1,0,0:0:0:0:
109,165,60746,1,0,0:0:0:0:
121,141,60808,1,0,0:0:0:0:
138,120,60871,1,0,0:0:0:0:
159,103,60933,1,0,0:0:0:0:
183,91,60996,6,0,P|228:168|315:212,1,180
328,195,61308,1,0,0:0:0:0:
348,177,61371,1,0,0:0:0:0:
360,153,61433,1,0,0:0:0:0:
365,126,61496,1,0,0:0:0:0:
355,100,61558,1,0,0:0:0:0:
337,79,61621,1,0,0:0:0:0:
314,65,61683,1,0,0:0:0:0:
291,61,61746,1,0,0:0:0:0:
268,63,61808,1,0,0:0:0:0:
245,67,61871,1,0,0:0:0:0:
224,75,61933,1,0,0:0:0:0:
205,87,61996,1,0,0:0:0:0:
188,101,62058,1,0,0:0:0:0:
174,118,62121,1,0,0:0:0:0:
164,138,62183,1,0,0:0:0:0:
156,159,62246,1,0,0:0:0:0:
150,180,62308,1,0,0:0:0:0:
146,202,62371,1,0,0:0:0:0:
144,224,62433,1,0,0:0:0:0:
144,246,62496,2,0,P|203:248|330:274,1,180
425,289,62871,5,0,0:0:0:0:
440,194,62996,2,0,P|409:155|397:103,1,90
287,128,63246,1,0,0:0:0:0:
165,172,63371,1,0,0:0:0:0:
72,273,63496,2,0,P|190:270|276:286,1,180
355,253,63871,1,0,0:0:0:0:
356,132,63996,2,0,P|377:77|421:54,2,90
234,163,64371,1,0,0:0:0:0:
104,191,64496,6,0,B|77:139|77:139|85:82|173:73,1,180
274,83,64871,1,0,0:0:0:0:
382,149,64996,2,0,P|426:144|465:105,2,90
376,263,65371,1,0,0:0:0:0:
254,302,65496,6,0,P|181:259|68:243,1,180
75,118,65871,1,0,0:0:0:0:
232,109,65996,1,0,0:0:0:0:
380,51,66121,1,0,0:0:0:0:
301,171,66246,1,0,0:0:0:0:
314,302,66371,1,0,0:0:0:0:
159,318,66496,6,0,B|187:274|187:274|162:226|175:134,1,180
221,60,66871,1,0,0:0:0:0:
351,108,66996,1,0,0:0:0:0:
471,124,67121,1,0,0:0:0:0:
396,214,67246,1,0,0:0:0:0:
352,320,67371,1,0,0:0:0:0:
237,251,67496,6,0,P|167:224|126:226,1,90
51,153,67746,1,0,0:0:0:0:
173,125,67871,1,0,0:0:0:0:
293,141,67996,2,0,P|366:136|410:115,1,90
415,43,68246,5,0,0:0:0:0:
392,45,68308,1,0,0:0:0:0:
369,47,68371,1,0,0:0:0:0:
346,49,68433,1,0,0:0:0:0:
323,51,68496,2,0,B|286:99|286:99|222:112|142:90,1,180
59,93,68871,1,0,0:0:0:0:
101,215,68996,2,0,P|126:269|124:326,2,90
146,96,69371,1,0,0:0:0:0:
247,135,69496,6,0,P|336:153|377:152,1,90
294,238,69746,2,0,P|361:265|398:292,1,90
171,226,69996,2,0,P|141:281|139:319,2,90
180,124,70371,1,0,0:0:0:0:
401,95,70496,5,0,0:0:0:0:
401,95,70558,1,0,0:0:0:0:
401,95,70621,1,0,0:0:0:0:
379,205,70746,1,0,0:0:0:0:
379,205,70808,1,0,0:0:0:0:
379,205,70871,1,0,0:0:0:0:
231,164,70996,1,0,0:0:0:0:
231,164,71058,1,0,0:0:0:0:
231,164,71121,1,0,0:0:0:0:
90,150,71246,6,0,P|74:93|76:36,2,90
128,248,71621,1,0,0:0:0:0:
308,303,71746,1,0,0:0:0:0:
276,122,71871,1,0,0:0:0:0:
128,248,71996,6,0,P|204:223|252:222,1,90
332,218,72246,1,0,0:0:0:0:
451,243,72371,1,0,0:0:0:0:
444,115,72496,1,0,0:0:0:0:
321,62,72621,1,0,0:0:0:0:
212,158,72746,1,0,0:0:0:0:
153,39,72871,1,0,0:0:0:0:
67,142,72996,6,0,P|84:203|129:234,1,90
218,271,73246,1,0,0:0:0:0:
360,272,73371,1,0,0:0:0:0:
386,145,73496,2,0,P|310:165|260:176,1,90
183,186,73746,1,0,0:0:0:0:
55,159,73871,1,0,0:0:0:0:
115,60,73996,2,0,P|195:61|241:52,2,90
114,179,74371,1,0,0:0:0:0:
79,293,74496,5,0,0:0:0:0:
189,299,74621,1,0,0:0:0:0:
301,300,74746,2,0,P|363:290|418:272,1,90
348,210,74996,2,0,P|407:183|445:148,2,90
229,199,75371,1,0,0:0:0:0:
126,176,75496,6,0,P|60:150|33:135,1,90
121,70,75746,2,0,P|59:40|32:20,2,90
242,95,76121,1,0,0:0:0:0:
360,93,76246,2,0,P|408:85|453:63,1,90
402,193,76496,6,0,P|470:171|499:153,2,90
283,211,76871,1,0,0:0:0:0:
166,221,76996,2,0,P|85:218|36:206,1,90
139,318,77246,2,0,P|75:324|34:324,2,90
246,301,77621,1,0,0:0:0:0:
353,260,77746,6,0,P|410:226|444:194,1,90
273,176,77996,2,0,P|317:133|344:91,1,90
168,134,78246,2,0,P|195:92|217:34,1,90
316,66,78496,5,0,0:0:0:0:
431,78,78621,1,0,0:0:0:0:
351,168,78746,2,0,P|425:183|460:185,1,90
346,283,78996,2,0,P|396:302|451:313,2,90
211,273,79371,1,0,0:0:0:0:
193,172,79496,2,0,P|109:151|83:133,1,90
166,70,79746,6,0,P|110:48|78:24,2,90
284,79,80121,1,0,0:0:0:0:
388,80,80246,2,0,P|441:64|486:45,1,90
376,188,80496,2,0,P|430:183|481:185,2,90
264,194,80871,1,0,0:0:0:0:
208,281,80996,2,0,P|183:324|174:371,1,90
151,220,81246,2,0,L|46:259,1,90
147,147,81496,2,0,P|97:130|47:96,1,90
175,63,81746,5,0,0:0:0:0:
196,58,81808,1,0,0:0:0:0:
218,54,81871,1,0,0:0:0:0:
240,53,81933,1,0,0:0:0:0:
262,52,81996,1,0,0:0:0:0:
284,54,82058,1,0,0:0:0:0:
305,60,82121,1,0,0:0:0:0:
325,69,82183,1,0,0:0:0:0:
344,81,82246,1,0,0:0:0:0:
361,94,82308,1,0,0:0:0:0:
376,110,82371,1,0,0:0:0:0:
389,127,82433,1,0,0:0:0:0:
398,147,82496,6,0,P|330:211|293:307,1,180
164,315,82871,2,0,P|153:221|179:127,1,180
59,97,83246,2,0,P|167:51|269:42,1,180
375,44,83621,2,0,P|313:116|279:221,1,180
266,273,83996,1,0,0:0:0:0:
185,233,84121,1,0,0:0:0:0:
128,168,84246,1,0,0:0:0:0:
248,134,84496,6,0,B|324:112|324:112|412:124|438:86,1,180
462,181,84871,2,0,P|404:257|386:348,1,180
257,315,85246,1,0,0:0:0:0:
91,273,85496,1,0,0:0:0:0:
62,123,85746,5,0,0:0:0:0:
80,110,85808,1,0,0:0:0:0:
101,102,85871,1,0,0:0:0:0:
122,96,85933,1,0,0:0:0:0:
144,93,85996,2,0,B|187:133|187:133|224:77|288:64,1,180
355,188,86496,6,0,P|263:231|171:229,1,180
146,135,86871,2,0,P|226:88|324:90,1,180
377,227,87246,6,0,P|285:270|193:268,1,180
129,91,87621,2,0,P|209:44|307:46,1,180
382,87,87996,1,0,0:0:0:0:
439,167,88121,1,0,0:0:0:0:
466,262,88246,1,0,0:0:0:0:
145,293,88496,6,0,B|162:256|162:256|93:221|96:116,1,180
250,221,88871,2,0,B|231:178|231:178|307:165|316:66,1,180
432,90,89246,1,0,0:0:0:0:
435,116,89308,1,0,0:0:0:0:
432,143,89371,1,0,0:0:0:0:
424,168,89433,1,0,0:0:0:0:
412,192,89496,2,0,B|382:231|382:231|314:189|230:195,1,180
81,209,89996,5,0,0:0:0:0:
81,209,90246,1,0,0:0:0:0:
125,109,90496,6,0,P|177:139|305:125,1,180
163,208,90871,2,0,P|231:248|296:331,1,180
318,211,91246,2,0,B|391:218|391:218|404:160|461:128,1,180
444,44,91621,2,0,B|333:42|333:42|288:66|230:69,1,180
130,74,91996,1,0,0:0:0:0:
234,169,92121,1,0,0:0:0:0:
269,65,92246,1,0,0:0:0:0:
78,152,92496,6,0,P|102:266|91:338,1,180
192,193,92871,2,0,P|238:307|280:351,1,180
296,187,93246,1,0,0:0:0:0:
319,200,93308,1,0,0:0:0:0:
345,206,93371,1,0,0:0:0:0:
371,208,93433,1,0,0:0:0:0:
397,204,93496,1,0,0:0:0:0:
420,190,93558,1,0,0:0:0:0:
437,168,93621,2,0,P|379:121|242:84,1,180
123,86,93996,6,0,P|176:127|200:181,1,90
119,233,94246,2,0,P|164:264|313:272,1,180
388,222,94621,1,0,0:0:0:0:
429,112,94746,2,0,P|361:113|316:96,1,90
235,53,94996,1,0,0:0:0:0:
235,53,95121,1,0,0:0:0:0:
105,86,95246,1,0,0:0:0:0:
105,86,95371,1,0,0:0:0:0:
209,181,95496,6,0,P|303:190|384:168,1,180
350,303,95871,2,0,P|278:281|152:284,1,180
62,214,96246,1,0,0:0:0:0:
83,191,96308,1,0,0:0:0:0:
109,172,96371,1,0,0:0:0:0:
140,159,96433,1,0,0:0:0:0:
174,152,96496,1,0,0:0:0:0:
310,54,96746,5,0,0:0:0:0:
420,84,96871,1,0,0:0:0:0:
298,136,96996,1,0,0:0:0:0:
444,183,97121,1,0,0:0:0:0:
286,216,97246,1,0,0:0:0:0:
455,281,97371,1,0,0:0:0:0:
316,322,97496,5,0,0:0:0:0:
280,316,97558,1,0,0:0:0:0:
246,302,97621,1,0,0:0:0:0:
215,282,97683,1,0,0:0:0:0:
188,257,97746,1,0,0:0:0:0:
166,228,97808,1,0,0:0:0:0:
148,196,97871,1,0,0:0:0:0:
137,161,97933,1,0,0:0:0:0:
125,126,97996,2,0,L|111:73,3,45
103,47,98246,2,0,P|182:56|295:36,1,180
385,83,98746,5,0,0:0:0:0:
273,117,98871,1,0,0:0:0:0:
177,184,98996,1,0,0:0:0:0:
177,184,99058,1,0,0:0:0:0:
177,184,99121,1,0,0:0:0:0:
330,233,99246,1,0,0:0:0:0:
330,233,99308,1,0,0:0:0:0:
330,233,99371,1,0,0:0:0:0:
190,319,99496,6,0,B|138:343|138:343|110:241|68:212,1,180
103,69,99871,2,0,P|185:53|305:53,1,180
238,142,100246,2,0,P|329:157|426:195,1,180
400,212,100558,5,0,0:0:0:0:
382,232,100621,1,0,0:0:0:0:
364,251,100683,1,0,0:0:0:0:
342,267,100746,1,0,0:0:0:0:
318,280,100808,1,0,0:0:0:0:
291,287,100871,2,0,P|209:290|97:230,1,180
61,313,101246,6,0,B|1:252|45:154|137:168,1,180
122,175,101558,1,0,0:0:0:0:
149,177,101621,1,0,0:0:0:0:
175,172,101683,1,0,0:0:0:0:
200,163,101746,1,0,0:0:0:0:
223,149,101808,1,0,0:0:0:0:
244,132,101871,1,0,0:0:0:0:
263,113,101933,1,0,0:0:0:0:
276,91,101996,6,0,P|327:91|397:73,1,90
377,183,102246,2,0,P|444:206|487:239,1,90
391,312,102496,5,0,0:0:0:0:
279,275,102621,1,0,0:0:0:0:
162,268,102746,1,0,0:0:0:0:
48,294,102871,1,0,0:0:0:0:
46,169,102996,2,0,P|78:88|97:54,1,90
207,135,103246,2,0,P|250:85|288:56,1,90
404,126,103496,5,0,0:0:0:0:
394,145,103558,1,0,0:0:0:0:
383,165,103621,1,0,0:0:0:0:
373,185,103683,1,0,0:0:0:0:
227,238,103871,1,0,0:0:0:0:
212,221,103933,1,0,0:0:0:0:
197,203,103996,1,0,0:0:0:0:
182,186,104058,1,0,0:0:0:0:
71,180,104246,2,0,B|60:119|117:47|205:70,1,180
303,214,104746,5,0,0:0:0:0:
303,214,104871,1,0,0:0:0:0:
114,259,104996,1,0,0:0:0:0:
114,259,105121,1,0,0:0:0:0:
198,74,105246,1,0,0:0:0:0:
198,74,105371,1,0,0:0:0:0:
445,77,105496,5,0,0:0:0:0:
418,81,105558,1,0,0:0:0:0:
393,92,105621,1,0,0:0:0:0:
374,111,105683,1,0,0:0:0:0:
359,133,105746,1,0,0:0:0:0:
346,156,105808,1,0,0:0:0:0:
329,177,105871,1,0,0:0:0:0:
309,195,105933,1,0,0:0:0:0:
286,210,105996,1,0,0:0:0:0:
261,220,106058,1,0,0:0:0:0:
234,227,106121,1,0,0:0:0:0:
207,231,106183,1,0,0:0:0:0:
179,230,106246,2,0,P|149:181|99:173,1,90
223,128,106496,2,0,P|171:96|26:92,1,180
190,63,106996,6,0,L|284:49,1,90
216,165,107246,2,0,L|335:156,1,90
220,268,107496,2,0,L|415:279,1,180
454,134,107871,2,0,L|264:181,1,180
153,221,108246,2,0,P|136:158|223:65,1,180
306,74,108871,1,0,0:0:0:0:
306,74,109246,1,0,0:0:0:0:
411,143,109621,2,0,P|373:187|160:253,1,270
41,246,110246,1,0,0:0:0:0:
108,110,110496,5,0,0:0:0:0:
222,135,110621,1,0,0:0:0:0:
329,181,110746,1,0,0:0:0:0:
417,257,110871,1,0,0:0:0:0:
302,299,110996,2,0,P|228:315|175:320,1,90
180,204,111246,2,0,P|231:174|264:139,1,90
428,52,111496,5,0,0:0:0:0:
322,74,111621,1,0,0:0:0:0:
465,215,111746,1,0,0:0:0:0:
487,107,111871,1,0,0:0:0:0:
241,91,111996,2,0,P|200:117|154:128,1,90
362,193,112246,2,0,P|367:239|384:294,1,90
216,285,112496,5,0,0:0:0:0:
107,218,112621,1,0,0:0:0:0:
243,174,112746,1,0,0:0:0:0:
58,94,112871,1,0,0:0:0:0:
176,57,112996,2,0,P|255:50|291:38,1,90
380,88,113246,2,0,P|338:130|298:149,1,90
465,215,113496,5,0,0:0:0:0:
300,211,113621,1,0,0:0:0:0:
374,287,113746,1,0,0:0:0:0:
207,293,113871,1,0,0:0:0:0:
66,324,113996,2,0,P|29:284|13:230,1,90
135,220,114246,2,0,P|121:177|88:143,1,90
83,47,114496,5,0,0:0:0:0:
208,124,114621,1,0,0:0:0:0:
266,39,114746,2,0,P|323:38|379:31,1,90
345,124,114996,2,0,P|410:128|467:137,1,90
379,219,115246,2,0,P|454:257|480:283,1,90
281,276,115496,5,0,0:0:0:0:
193,174,115621,1,0,0:0:0:0:
53,266,115746,1,0,0:0:0:0:
158,317,115871,5,0,0:0:0:0:
193,174,115996,1,0,0:0:0:0:
52,106,116121,1,0,0:0:0:0:
203,80,116246,2,0,P|265:77|331:55,1,90
445,78,116496,5,0,0:0:0:0:
485,183,116621,1,0,0:0:0:0:
351,158,116746,1,0,0:0:0:0:
380,284,116871,1,0,0:0:0:0:
250,239,116996,2,0,P|199:273|139:295,1,90
234,78,117246,2,0,P|202:126|148:165,1,90
51,170,117496,5,0,0:0:0:0:
43,258,117621,1,0,0:0:0:0:
101,330,117746,2,0,P|166:311|222:306,1,90
176,209,117996,2,0,P|245:195|290:196,1,90
208,74,118246,2,0,P|295:57|325:49,1,90
401,242,118496,5,0,0:0:0:0:
314,319,118621,2,0,B|279:306|279:306|250:292|226:249,1,90
142,271,118871,1,0,0:0:0:0:
39,139,118996,1,0,0:0:0:0:
207,164,119121,1,0,0:0:0:0:
302,222,119246,2,0,P|347:205|420:200,1,90
342,42,119496,5,0,0:0:0:0:
270,125,119621,2,0,B|244:95|244:95|180:81,1,90
75,92,119871,1,0,0:0:0:0:
71,193,119996,2,0,B|70:193|70:193|104:218|177:218,1,90
270,233,120246,1,0,0:0:0:0:
232,336,120371,1,0,0:0:0:0:
125,329,120496,5,0,0:0:0:0:
125,203,120621,2,0,B|112:154|112:154|131:117,1,90
242,190,120871,1,0,0:0:0:0:
350,263,120996,1,0,0:0:0:0:
467,185,121121,1,0,0:0:0:0:
354,130,121246,2,0,B|335:123|280:63|247:86,1,90
112,63,121496,5,0,0:0:0:0:
53,144,121621,1,0,0:0:0:0:
246,104,121746,1,0,0:0:0:0:
166,216,121871,1,0,0:0:0:0:
278,262,121996,1,0,0:0:0:0:
193,328,122121,1,0,0:0:0:0:
193,328,122246,2,0,B|218:340|218:340|271:328|311:330,1,90
185,145,122496,5,0,0:0:0:0:
290,190,122621,1,0,0:0:0:0:
345,75,122746,2,0,P|393:52|446:49,1,90
418,165,122996,2,0,B|454:197|454:197|440:254,1,90
328,288,123246,2,0,B|304:293|304:293|298:296|274:271|221:273,1,90
235,56,123496,5,0,0:0:0:0:
301,173,123621,1,0,0:0:0:0:
140,144,123746,2,0,B|188:205|188:205|186:234,1,90
91,279,123996,1,0,0:0:0:0:
36,171,124121,1,0,0:0:0:0:
78,60,124246,2,0,P|133:54|195:32,1,90
374,58,124496,5,0,0:0:0:0:
440,130,124621,1,0,0:0:0:0:
219,126,124746,1,0,0:0:0:0:
322,169,124871,1,0,0:0:0:0:
112,267,124996,1,0,0:0:0:0:
212,270,125121,1,0,0:0:0:0:
308,311,125246,2,0,P|370:293|405:270,1,90
389,176,125496,6,0,P|336:141|303:112,1,90
222,212,125746,2,0,P|210:166|202:106,1,90
36,197,125996,2,0,P|61:248|76:296,1,90
67,47,126246,2,0,P|119:87|143:115,1,90
409,53,126496,5,0,0:0:0:0:
350,104,126621,1,0,0:0:0:0:
107,105,126871,1,0,0:0:0:0:
175,81,126996,1,0,0:0:0:0:
199,259,127246,1,0,0:0:0:0:
261,307,127371,1,0,0:0:0:0:
389,207,127621,1,0,0:0:0:0:
453,232,127746,1,0,0:0:0:0:
458,311,127996,2,0,P|378:297|280:313,1,180
193,111,128496,5,0,0:0:0:0:
120,93,128621,1,0,0:0:0:0:
55,48,128746,2,0,B|31:133|31:133|101:163|140:278,1,251.999992309571
382,233,129496,5,0,0:0:0:0:
306,274,129621,1,0,0:0:0:0:
306,181,129746,2,0,B|357:141|357:141|230:142|196:82|230:30,1,251.999992309571
111,174,130496,5,0,0:0:0:0:
151,101,130621,1,0,0:0:0:0:
216,48,130746,2,0,B|261:96|261:96|348:77|406:127|411:185,1,251.999992309571
336,260,131496,5,0,0:0:0:0:
231,270,131621,1,0,0:0:0:0:
128,293,131746,2,0,P|86:237|66:193,1,80.9999975280763
132,134,131996,1,0,0:0:0:0:
236,146,132121,1,0,0:0:0:0:
339,164,132246,2,0,P|397:161|425:158,1,80.9999975280763
439,47,132496,6,0,L|384:95,1,62.9999980773926
316,54,132746,2,0,B|271:55|211:63|154:126|143:228,1,251.999992309571
81,75,133496,6,0,L|104:133,1,62.9999980773926
176,89,133746,2,0,P|211:148|358:275,1,251.999992309571
376,107,134496,5,0,0:0:0:0:
302,181,134621,1,0,0:0:0:0:
213,238,134746,2,0,P|277:272|306:305,1,80.9999975280763
142,321,134996,1,0,0:0:0:0:
35,228,135121,1,0,0:0:0:0:
146,159,135246,1,0,0:0:0:0:
102,53,135371,1,0,0:0:0:0:
243,106,135496,5,0,0:0:0:0:
221,201,135621,1,0,0:0:0:0:
279,260,135746,2,0,P|346:245|394:243,1,80.9999975280763
304,115,135996,5,0,0:0:0:0:
199,198,136121,1,0,0:0:0:0:
192,320,136246,2,0,P|151:302|79:306,1,80.9999975280763
61,173,136496,5,0,0:0:0:0:
136,186,136621,1,0,0:0:0:0:
198,230,136746,2,0,B|243:188|243:188|217:144|224:77|224:77|254:58|297:57,1,251.999992309571
426,186,137496,5,0,0:0:0:0:
426,186,137621,1,0,0:0:0:0:
426,186,137746,2,0,B|349:138|349:138|319:245|247:278,1,251.999992309571
115,93,138496,5,0,0:0:0:0:
104,183,138621,1,0,0:0:0:0:
200,134,138746,2,0,B|223:204|310:214|330:172|330:172|401:236,1,251.999992309571
385,98,139496,6,0,L|329:177,1,80.9999975280763
245,118,139746,2,0,L|164:170,1,80.9999975280763
61,248,139996,2,0,B|39:215|39:215|55:145,1,80.9999975280763
91,64,140246,2,0,P|148:33|199:33,1,80.9999975280763
307,142,140496,6,0,L|310:217,1,62.9999980773926
238,248,140746,2,0,P|214:177|41:96,1,251.999992309571
56,210,141496,6,0,B|36:242|36:242|61:271,1,62.9999980773926
143,278,141746,2,0,B|183:198|284:184|374:225,1,251.999992309571
334,174,142496,6,0,P|294:138|276:88,1,90
223,22,142746,1,0,0:0:0:0:
151,125,142871,1,0,0:0:0:0:
45,112,142996,2,0,B|36:148|36:148|76:183|102:214,1,90
78,306,143246,1,0,0:0:0:0:
222,268,143371,1,0,0:0:0:0:
246,280,143433,1,0,0:0:0:0:
268,303,143496,6,0,P|321:287|364:279,1,90
436,193,143746,2,0,P|372:178|317:173,1,90
238,190,143996,1,0,0:0:0:0:
178,73,144121,1,0,0:0:0:0:
306,113,144246,1,0,0:0:0:0:
320,18,144371,1,0,0:0:0:0:
457,79,144496,5,0,0:0:0:0:
422,102,144579,1,0,0:0:0:0:
387,125,144662,1,0,0:0:0:0:
352,149,144746,1,0,0:0:0:0:
317,173,144829,1,0,0:0:0:0:
282,197,144912,1,0,0:0:0:0:
247,221,144996,1,0,0:0:0:0:
212,245,145079,1,0,0:0:0:0:
178,269,145162,1,0,0:0:0:0:
143,293,145246,1,0,0:0:0:0:
109,317,145329,1,0,0:0:0:0:
71,331,145412,1,0,0:0:0:0:
39,314,145496,2,0,P|26:250|86:50,1,270.000010299683
147,108,146496,6,0,B|171:85|171:85|221:95|277:90,1,135.000005149842
375,88,146996,2,0,B|431:74|431:74|453:121|453:121|417:164,1,135.000005149842
321,205,147496,2,0,P|293:248|281:278,1,67.5000025749208
208,256,147746,2,0,P|176:279|133:284,1,67.5000025749208
110,188,147996,2,0,B|84:151|114:135|129:53,1,135.000005149842
366,72,148496,6,0,B|290:83|290:83|298:145|249:284,1,270.000010299683
113,232,149246,1,0,0:0:0:0:
74,101,149496,2,0,B|133:82|133:82|144:114|144:114|207:94|257:102,1,202.500007724762
366,89,149996,2,0,B|327:151|327:151|410:151|410:151|206:298|353:307,1,405.000015449525
164,297,150996,6,0,P|127:227|201:62,1,270.000010299683
350,93,151746,1,0,0:0:0:0:
334,120,151829,1,0,0:0:0:0:
309,140,151912,1,0,0:0:0:0:
280,154,151996,1,0,0:0:0:0:
250,165,152079,1,0,0:0:0:0:
219,171,152162,1,0,0:0:0:0:
191,186,152246,1,0,0:0:0:0:
167,206,152329,1,0,0:0:0:0:
147,230,152412,1,0,0:0:0:0:
137,260,152496,2,0,B|221:267|290:298|290:298|324:257|374:184|476:118,1,405.000015449525
360,50,153496,6,0,P|287:65|223:66,1,135.000005149842
109,87,153996,2,0,B|163:150|123:248|123:248|302:152|362:191,1,405.000015449525
443,73,154996,6,0,B|401:101|401:101|445:129|449:201,1,135.000005149842
338,234,155496,1,0,0:0:0:0:
193,261,155746,2,0,B|210:208|210:208|119:125|311:71,1,270.000010299683
402,111,156496,5,0,0:0:0:0:
371,119,156579,1,0,0:0:0:0:
340,126,156662,1,0,0:0:0:0:
324,165,156746,1,0,0:0:0:0:
293,171,156829,1,0,0:0:0:0:
261,175,156912,1,0,0:0:0:0:
241,213,156996,1,0,0:0:0:0:
210,222,157079,1,0,0:0:0:0:
179,231,157162,1,0,0:0:0:0:
154,273,157246,1,0,0:0:0:0:
122,276,157329,1,0,0:0:0:0:
92,265,157412,1,0,0:0:0:0:
69,244,157496,1,0,0:0:0:0:
122,61,157996,5,0,0:0:0:0:
214,89,158496,1,0,0:0:0:0:
308,125,158996,1,0,0:0:0:0:
411,161,159496,2,0,B|389:215|389:215|316:223|279:254,1,135.000005149842
284,241,159829,1,0,0:0:0:0:
257,257,159912,1,0,0:0:0:0:
228,271,159996,1,0,0:0:0:0:
196,272,160079,1,0,0:0:0:0:
168,257,160162,1,0,0:0:0:0:
148,232,160246,2,0,P|122:194|44:136,1,135.000005149842
36,94,160579,5,0,0:0:0:0:
76,88,160662,1,0,0:0:0:0:
116,82,160746,1,0,0:0:0:0:
156,77,160829,1,0,0:0:0:0:
196,72,160912,1,0,0:0:0:0:
236,67,160996,1,0,0:0:0:0:
276,62,161079,1,0,0:0:0:0:
316,57,161162,1,0,0:0:0:0:
356,52,161246,1,0,0:0:0:0:
396,47,161329,1,0,0:0:0:0:
436,42,161412,1,0,0:0:0:0:
470,63,161496,2,0,P|431:125|407:320,1,270.000010299683
105,297,162496,5,0,0:0:0:0:
269,245,162746,1,0,0:0:0:0:
96,148,162996,1,0,0:0:0:0:
83,295,163246,1,0,0:0:0:0:
203,299,163496,5,0,0:0:0:0:
412,206,163746,1,0,0:0:0:0:
150,115,163996,1,0,0:0:0:0:
223,301,164246,1,0,0:0:0:0:
348,273,164496,5,0,0:0:0:0:
309,259,164579,1,0,0:0:0:0:
273,239,164662,1,0,0:0:0:0:
250,204,164746,1,0,0:0:0:0:
247,163,164829,1,0,0:0:0:0:
263,126,164912,1,0,0:0:0:0:
272,86,164996,1,0,0:0:0:0:
258,48,165079,1,0,0:0:0:0:
220,32,165162,1,0,0:0:0:0:
179,35,165246,1,0,0:0:0:0:
144,56,165329,1,0,0:0:0:0:
121,89,165412,1,0,0:0:0:0:
109,129,165496,2,0,B|87:188|87:188|193:213|167:358,1,270.000010299683
370,252,166496,5,0,0:0:0:0:
129,110,166996,5,0,0:0:0:0:
279,91,167496,6,0,B|234:103|234:103|271:198,1,135.000005149842
301,282,167996,1,0,0:0:0:0:
442,274,168246,1,0,0:0:0:0:
463,106,168496,5,0,0:0:0:0:
423,96,168579,1,0,0:0:0:0:
382,91,168662,1,0,0:0:0:0:
341,90,168746,1,0,0:0:0:0:
300,94,168829,1,0,0:0:0:0:
260,101,168912,1,0,0:0:0:0:
222,117,168996,1,0,0:0:0:0:
188,139,169079,1,0,0:0:0:0:
157,165,169162,1,0,0:0:0:0:
130,196,169246,1,0,0:0:0:0:
108,230,169329,1,0,0:0:0:0:
89,265,169412,1,0,0:0:0:0:
72,302,169496,1,0,0:0:0:0:
318,290,169996,5,0,0:0:0:0:
86,109,170496,5,0,0:0:0:0:
392,153,170996,5,0,0:0:0:0:
65,292,171371,5,0,0:0:0:0:
146,217,171496,2,0,B|172:259|172:259|242:244|281:267,1,135.000005149842
212,138,171871,1,0,0:0:0:0:
355,155,171996,2,0,P|339:203|323:235,1,67.5000025749208
464,227,172246,2,0,P|425:275|410:302,1,67.5000025749208
221,323,172496,5,0,0:0:0:0:
211,283,172579,1,0,0:0:0:0:
194,246,172662,1,0,0:0:0:0:
173,210,172746,1,0,0:0:0:0:
159,171,172829,1,0,0:0:0:0:
159,130,172912,1,0,0:0:0:0:
182,96,172996,1,0,0:0:0:0:
218,79,173079,1,0,0:0:0:0:
257,85,173162,1,0,0:0:0:0:
296,95,173246,1,0,0:0:0:0:
336,96,173329,1,0,0:0:0:0:
374,84,173412,1,0,0:0:0:0:
410,65,173496,1,0,0:0:0:0:
355,218,173996,5,0,0:0:0:0:
241,253,174496,1,0,0:0:0:0:
128,289,174996,1,0,0:0:0:0:
101,100,176496,6,0,B|139:142|139:142|146:191,1,99.0000030212403
116,290,176746,1,0,0:0:0:0:
146,305,176808,1,0,0:0:0:0:
178,318,176871,1,0,0:0:0:0:
271,194,176996,2,0,P|315:157|354:155,1,99.0000030212403
446,200,177246,1,0,0:0:0:0:
446,200,177308,1,0,0:0:0:0:
446,200,177371,1,0,0:0:0:0:
343,315,177496,6,0,L|253:262,1,99.0000030212403
170,207,177746,1,0,0:0:0:0:
139,190,177808,1,0,0:0:0:0:
108,173,177871,1,0,0:0:0:0:
309,173,177996,2,0,L|219:125,1,99.0000030212403
136,86,178246,1,0,0:0:0:0:
105,71,178308,1,0,0:0:0:0:
72,57,178371,1,0,0:0:0:0:
219,34,178496,6,0,P|257:58|317:58,1,99.0000030212403
402,53,178746,1,0,0:0:0:0:
428,63,178808,1,0,0:0:0:0:
452,91,178871,1,0,0:0:0:0:
365,180,178996,5,0,0:0:0:0:
342,161,179058,1,0,0:0:0:0:
315,146,179121,1,0,0:0:0:0:
288,134,179183,1,0,0:0:0:0:
259,123,179246,1,0,0:0:0:0:
230,114,179308,1,0,0:0:0:0:
200,107,179371,1,0,0:0:0:0:
170,104,179433,1,0,0:0:0:0:
145,104,179496,2,0,B|107:101|76:105|76:105|88:157|125:200|202:233|358:270,1,405.000015449525
117,270,180496,5,0,0:0:0:0:
141,281,180558,1,0,0:0:0:0:
167,288,180621,1,0,0:0:0:0:
193,292,180683,1,0,0:0:0:0:
220,295,180746,1,0,0:0:0:0:
246,294,180808,1,0,0:0:0:0:
272,287,180871,1,0,0:0:0:0:
382,171,180996,2,0,P|325:170|264:200,1,90
186,98,181246,2,0,P|142:74|108:41,1,90
62,186,181496,5,0,0:0:0:0:
81,293,181621,1,0,0:0:0:0:
177,222,181746,2,0,P|239:206|306:200,1,90
377,308,181996,2,0,P|435:271|457:227,1,90
417,118,182246,2,0,P|362:139|338:140,2,45
257,61,182496,5,0,0:0:0:0:
231,92,182558,1,0,0:0:0:0:
214,129,182621,1,0,0:0:0:0:
208,168,182683,1,0,0:0:0:0:
210,208,182746,1,0,0:0:0:0:
222,246,182808,1,0,0:0:0:0:
244,280,182871,1,0,0:0:0:0:
371,288,182996,5,0,0:0:0:0:
356,250,183058,1,0,0:0:0:0:
353,209,183121,1,0,0:0:0:0:
363,170,183183,1,0,0:0:0:0:
377,131,183246,1,0,0:0:0:0:
399,97,183308,1,0,0:0:0:0:
426,66,183371,1,0,0:0:0:0:
256,192,183496,12,0,184496,0:0:0:0:
321,282,191496,6,0,P|210:245|54:279,2,270.000010299683
95,67,193496,5,0,0:0:0:0:
104,95,193558,1,0,0:0:0:0:
119,121,193621,1,0,0:0:0:0:
140,142,193683,1,0,0:0:0:0:
163,161,193746,1,0,0:0:0:0:
188,176,193808,1,0,0:0:0:0:
215,190,193871,1,0,0:0:0:0:
242,201,193933,1,0,0:0:0:0:
271,207,193996,2,0,P|334:219|393:220,1,90
409,100,194246,2,0,B|458:106|458:106|478:183,1,90
397,314,194496,5,0,0:0:0:0:
365,313,194558,1,0,0:0:0:0:
333,312,194621,1,0,0:0:0:0:
301,311,194683,1,0,0:0:0:0:
269,310,194746,1,0,0:0:0:0:
237,309,194808,1,0,0:0:0:0:
205,306,194871,1,0,0:0:0:0:
175,295,194933,1,0,0:0:0:0:
148,277,194996,2,0,P|112:219|115:167,1,90
129,54,195246,2,0,P|186:106|214:118,1,90
339,59,195496,5,0,0:0:0:0:
321,90,195558,1,0,0:0:0:0:
299,119,195621,1,0,0:0:0:0:
275,145,195683,1,0,0:0:0:0:
250,171,195746,1,0,0:0:0:0:
222,194,195808,1,0,0:0:0:0:
193,215,195871,1,0,0:0:0:0:
163,234,195933,1,0,0:0:0:0:
128,244,195996,2,0,P|94:178|72:157,1,90
53,295,196246,2,0,P|93:333|153:353,1,90
245,338,196496,5,0,0:0:0:0:
366,301,196621,1,0,0:0:0:0:
137,203,196746,1,0,0:0:0:0:
269,222,196871,1,0,0:0:0:0:
220,106,196996,1,0,0:0:0:0:
220,106,197058,1,0,0:0:0:0:
220,106,197121,1,0,0:0:0:0:
367,123,197246,1,0,0:0:0:0:
367,123,197308,1,0,0:0:0:0:
367,123,197371,1,0,0:0:0:0:
391,260,197496,6,0,B|350:298|350:298|264:242|196:244,1,180
208,261,197808,1,0,0:0:0:0:
176,266,197871,1,0,0:0:0:0:
144,262,197933,1,0,0:0:0:0:
116,245,197996,1,0,0:0:0:0:
95,221,198058,1,0,0:0:0:0:
87,190,198121,1,0,0:0:0:0:
86,158,198183,1,0,0:0:0:0:
95,127,198246,1,0,0:0:0:0:
107,98,198308,1,0,0:0:0:0:
129,75,198371,1,0,0:0:0:0:
156,61,198433,1,0,0:0:0:0:
187,58,198496,6,0,P|243:108|353:122,1,180
374,113,198808,1,0,0:0:0:0:
404,122,198871,1,0,0:0:0:0:
427,142,198933,1,0,0:0:0:0:
435,172,198996,1,0,0:0:0:0:
435,203,199058,1,0,0:0:0:0:
429,234,199121,1,0,0:0:0:0:
411,260,199183,1,0,0:0:0:0:
386,280,199246,1,0,0:0:0:0:
355,287,199308,1,0,0:0:0:0:
323,286,199371,1,0,0:0:0:0:
126,301,199496,5,0,0:0:0:0:
135,271,199558,1,0,0:0:0:0:
152,244,199621,1,0,0:0:0:0:
172,220,199683,1,0,0:0:0:0:
193,197,199746,1,0,0:0:0:0:
215,175,199808,1,0,0:0:0:0:
241,157,199871,1,0,0:0:0:0:
267,140,199933,1,0,0:0:0:0:
295,125,199996,1,0,0:0:0:0:
324,114,200058,1,0,0:0:0:0:
354,106,200121,1,0,0:0:0:0:
384,101,200183,1,0,0:0:0:0:
415,96,200246,2,0,P|436:175|462:217,1,90
364,263,200496,5,0,0:0:0:0:
334,271,200558,1,0,0:0:0:0:
304,282,200621,1,0,0:0:0:0:
278,300,200683,1,0,0:0:0:0:
250,316,200746,2,0,P|197:335|151:340,1,90
74,243,200996,1,0,0:0:0:0:
64,124,201121,1,0,0:0:0:0:
160,59,201246,2,0,B|189:92|189:92|276:79,1,90
407,56,201496,5,0,0:0:0:0:
265,63,201621,1,0,0:0:0:0:
222,195,201746,1,0,0:0:0:0:
432,93,201871,1,0,0:0:0:0:
317,124,201996,1,0,0:0:0:0:
310,226,202121,1,0,0:0:0:0:
450,148,202246,2,0,P|416:188|392:242,1,90
320,303,202496,5,0,0:0:0:0:
194,319,202621,1,0,0:0:0:0:
276,218,202746,1,0,0:0:0:0:
133,238,202871,1,0,0:0:0:0:
222,129,202996,2,0,P|251:88|256:44,1,90
76,116,203246,2,0,P|39:153|22:207,1,90
250,67,203496,6,0,B|285:96|285:96|362:84,1,90
445,64,203746,1,0,0:0:0:0:
445,64,203871,1,0,0:0:0:0:
419,200,203996,2,0,P|362:231|330:273,1,90
243,202,204246,2,0,P|193:180|134:135,1,90
83,252,204496,6,0,P|117:310|141:336,1,90
211,254,204746,2,0,P|261:293|315:310,1,90
341,208,204996,1,0,0:0:0:0:
434,125,205121,1,0,0:0:0:0:
232,159,205246,1,0,0:0:0:0:
258,34,205371,1,0,0:0:0:0:
50,79,205496,6,0,L|88:165,1,90
162,130,205746,2,0,L|219:210,1,90
281,139,205996,1,0,0:0:0:0:
359,220,206121,1,0,0:0:0:0:
378,99,206246,2,0,L|462:149,1,90
137,305,206496,6,0,L|91:218,1,90
196,219,206746,2,0,L|165:124,1,90
277,161,206996,1,0,0:0:0:0:
268,54,207121,1,0,0:0:0:0:
367,150,207246,2,0,L|383:60,1,90
400,290,207496,6,0,P|343:304|276:309,1,90
198,294,207746,1,0,0:0:0:0:
85,230,207871,1,0,0:0:0:0:
75,96,207996,2,0,P|138:150|171:163,1,90
266,184,208246,2,0,P|338:184|382:165,1,90
408,64,208496,5,0,0:0:0:0:
377,68,208558,1,0,0:0:0:0:
347,79,208621,1,0,0:0:0:0:
320,96,208683,1,0,0:0:0:0:
296,117,208746,1,0,0:0:0:0:
274,139,208808,1,0,0:0:0:0:
254,164,208871,1,0,0:0:0:0:
236,189,208933,1,0,0:0:0:0:
222,217,208996,2,0,P|147:193|71:85,1,180
178,75,209371,1,0,0:0:0:0:
354,118,209496,5,0,0:0:0:0:
375,140,209558,1,0,0:0:0:0:
398,161,209621,1,0,0:0:0:0:
265,203,209746,1,0,0:0:0:0:
272,233,209808,1,0,0:0:0:0:
276,264,209871,1,0,0:0:0:0:
127,229,209996,1,0,0:0:0:0:
111,255,210058,1,0,0:0:0:0:
93,281,210121,1,0,0:0:0:0:
71,125,210246,1,0,0:0:0:0:
60,95,210308,1,0,0:0:0:0:
50,64,210371,1,0,0:0:0:0:
186,98,210496,6,0,P|239:61|284:57,1,90
304,147,210746,2,0,P|355:158|427:157,1,90
217,242,210996,2,0,L|175:330,2,90
229,106,211371,1,0,0:0:0:0:
392,108,211496,5,0,0:0:0:0:
392,108,211558,1,0,0:0:0:0:
392,108,211621,1,0,0:0:0:0:
314,222,211746,1,0,0:0:0:0:
314,222,211808,1,0,0:0:0:0:
314,222,211871,1,0,0:0:0:0:
123,197,211996,1,0,0:0:0:0:
123,197,212058,1,0,0:0:0:0:
123,197,212121,1,0,0:0:0:0:
64,310,212246,1,0,0:0:0:0:
64,310,212308,1,0,0:0:0:0:
64,310,212371,1,0,0:0:0:0:
189,299,212496,6,0,P|212:212|315:174,1,180
311,192,212808,1,0,0:0:0:0:
334,213,212871,1,0,0:0:0:0:
363,222,212933,1,0,0:0:0:0:
394,225,212996,1,0,0:0:0:0:
424,216,213058,1,0,0:0:0:0:
446,194,213121,1,0,0:0:0:0:
457,164,213183,1,0,0:0:0:0:
455,132,213246,1,0,0:0:0:0:
445,102,213308,1,0,0:0:0:0:
422,79,213371,1,0,0:0:0:0:
394,64,213433,1,0,0:0:0:0:
363,56,213496,1,0,0:0:0:0:
250,84,213621,1,0,0:0:0:0:
136,119,213746,6,0,P|81:154|40:169,1,90
175,229,213996,2,0,P|142:276|93:323,1,90
270,279,214246,1,0,0:0:0:0:
270,279,214371,1,0,0:0:0:0:
310,101,214496,6,0,P|381:86|423:65,1,90
262,194,214746,2,0,P|316:213|364:238,1,90
131,203,214996,2,0,P|128:248|138:296,2,90
151,81,215371,1,0,0:0:0:0:
287,49,215496,6,0,L|396:36,1,90
334,139,215746,2,0,L|449:147,1,90
331,240,215996,1,0,0:0:0:0:
441,265,216121,1,0,0:0:0:0:
285,327,216246,2,0,L|404:365,1,90
169,243,216496,6,0,L|111:317,1,90
120,145,216746,2,0,L|42:92,1,90
227,94,216996,2,0,L|295:30,1,90
274,198,217246,2,0,L|366:251,1,90
427,53,217496,5,0,0:0:0:0:
400,58,217558,1,0,0:0:0:0:
373,64,217621,1,0,0:0:0:0:
347,72,217683,1,0,0:0:0:0:
321,82,217746,1,0,0:0:0:0:
296,93,217808,1,0,0:0:0:0:
271,105,217871,1,0,0:0:0:0:
246,116,217933,1,0,0:0:0:0:
219,121,217996,1,0,0:0:0:0:
192,118,218058,1,0,0:0:0:0:
165,111,218121,1,0,0:0:0:0:
139,102,218183,1,0,0:0:0:0:
112,98,218246,1,0,0:0:0:0:
86,104,218308,1,0,0:0:0:0:
67,123,218371,1,0,0:0:0:0:
57,147,218433,1,0,0:0:0:0:
57,174,218496,1,0,0:0:0:0:
68,198,218558,1,0,0:0:0:0:
87,216,218621,1,0,0:0:0:0:
108,231,218683,1,0,0:0:0:0:
132,242,218746,1,0,0:0:0:0:
157,249,218808,1,0,0:0:0:0:
184,250,218871,1,0,0:0:0:0:
210,251,218933,1,0,0:0:0:0:
237,250,218996,1,0,0:0:0:0:
263,255,219058,1,0,0:0:0:0:
289,260,219121,1,0,0:0:0:0:
314,268,219183,1,0,0:0:0:0:
339,276,219246,2,0,P|347:181|381:73,1,180
399,83,219558,5,0,0:0:0:0:
426,93,219621,1,0,0:0:0:0:
439,121,219683,1,0,0:0:0:0:
437,152,219746,1,0,0:0:0:0:
427,181,219808,1,0,0:0:0:0:
409,207,219871,1,0,0:0:0:0:
384,230,219933,1,0,0:0:0:0:
360,243,219996,1,0,0:0:0:0:
334,252,220058,1,0,0:0:0:0:
307,256,220121,1,0,0:0:0:0:
280,258,220183,1,0,0:0:0:0:
252,256,220246,1,0,0:0:0:0:
226,248,220308,1,0,0:0:0:0:
201,235,220371,1,0,0:0:0:0:
178,220,220433,1,0,0:0:0:0:
157,201,220496,1,0,0:0:0:0:
181,191,220558,1,0,0:0:0:0:
206,181,220621,1,0,0:0:0:0:
230,169,220683,1,0,0:0:0:0:
253,154,220746,1,0,0:0:0:0:
274,138,220808,1,0,0:0:0:0:
298,125,220871,1,0,0:0:0:0:
323,117,220933,1,0,0:0:0:0:
350,120,220996,1,0,0:0:0:0:
376,125,221058,1,0,0:0:0:0:
399,138,221121,1,0,0:0:0:0:
417,157,221183,1,0,0:0:0:0:
431,179,221246,1,0,0:0:0:0:
442,203,221308,1,0,0:0:0:0:
450,228,221371,1,0,0:0:0:0:
455,254,221433,1,0,0:0:0:0:
455,281,221496,1,0,0:0:0:0:
286,267,221871,5,0,0:0:0:0:
115,227,222246,1,0,0:0:0:0:
151,67,222621,1,0,0:0:0:0:
341,112,222996,5,0,0:0:0:0:
394,130,223121,5,0,0:0:0:0:
446,147,223246,5,0,0:0:0:0:
335,223,223496,6,0,P|226:251|100:353,1,270
76,125,224246,2,0,P|175:152|350:131,1,270
415,99,224746,1,0,0:0:0:0:
321,278,224996,5,0,0:0:0:0:
321,278,225246,1,0,0:0:0:0:
145,246,225496,6,0,P|128:173|65:58,1,180
191,80,225871,2,0,P|254:150|345:205,1,180
351,112,226246,2,0,B|418:153|435:214|358:298,1,180
297,299,226621,2,0,P|226:246|48:289,1,270
116,330,227121,1,0,0:0:0:0:
204,336,227246,1,0,0:0:0:0:
139,123,227496,6,0,L|353:168,3,202.500007724762
317,279,228996,1,0,0:0:0:0:
317,279,229246,1,0,0:0:0:0:
90,245,229496,6,0,P|203:143|349:110,1,270
418,183,230246,2,0,P|281:232|177:314,1,270
112,158,230996,2,0,L|49:95,2,90
61,255,231496,5,0,0:0:0:0:
84,242,231558,1,0,0:0:0:0:
108,229,231621,1,0,0:0:0:0:
131,216,231683,1,0,0:0:0:0:
155,203,231746,1,0,0:0:0:0:
178,190,231808,1,0,0:0:0:0:
202,177,231871,1,0,0:0:0:0:
225,164,231933,1,0,0:0:0:0:
249,151,231996,5,0,0:0:0:0:
254,177,232058,1,0,0:0:0:0:
261,203,232121,1,0,0:0:0:0:
275,225,232183,1,0,0:0:0:0:
295,243,232246,1,0,0:0:0:0:
317,257,232308,1,0,0:0:0:0:
341,267,232371,1,0,0:0:0:0:
366,274,232433,1,0,0:0:0:0:
392,278,232496,5,0,0:0:0:0:
402,253,232558,1,0,0:0:0:0:
412,227,232621,1,0,0:0:0:0:
422,202,232683,1,0,0:0:0:0:
430,176,232746,2,0,P|372:124|331:28,1,180
205,51,233246,2,0,P|105:128|67:209,1,180
