osu file format v14

[General]
AudioFilename: Ape Escape 3 - Specter Face Off.mp3
AudioLeadIn: 0
PreviewTime: -1
Countdown: 1
SampleSet: Normal
StackLeniency: 0.7
Mode: 3
LetterboxInBreaks: 1
SpecialStyle: 0
WidescreenStoryboard: 0

[Editor]
DistanceSpacing: 1
BeatDivisor: 4
GridSize: 4
TimelineZoom: 1

[Metadata]
Title:Specter Face Off!
TitleUnicode:Specter Face Off!
Artist:Soichi Terada
ArtistUnicode:Soichi Terada
Creator:nathanpiplup
Version:Hard
Source:Ape Escape 3
Tags:
BeatmapID:729823
BeatmapSetID:329196

[Difficulty]
HPDrainRate:8.6
CircleSize:4
OverallDifficulty:8
ApproachRate:5
SliderMultiplier:1.4
SliderTickRate:1

[Events]
//Background and Video events
0,0,"Specter.png",0,0
//Break Periods
2,120926,130203
//Storyboard Layer 0 (Background)
//Storyboard Layer 1 (Fail)
//Storyboard Layer 2 (Pass)
//Storyboard Layer 3 (Foreground)
//Storyboard Sound Samples

[TimingPoints]
1774,333.667000333667,4,1,0,37,1,0
2310,-100,4,1,0,37,0,0
23879,-100,4,1,0,37,0,0
24547,-100,4,1,0,37,0,0
55992,-100,4,1,0,37,0,0
56660,-100,4,1,0,37,0,0
141493,-100,4,1,0,37,0,0
141693,-66.6666666666667,4,1,0,37,0,0
142161,-66.6666666666667,4,1,0,37,0,0
163268,-100,4,1,0,37,0,0
184948,-100,4,1,0,37,0,0
216399,-100,4,1,0,37,0,0
217067,-100,4,1,0,37,0,0
301901,-100,4,1,0,37,0,0
302568,-100,4,1,0,37,0,0

[HitObjects]
64,192,1774,5,0,0:0:0:0:
192,192,1940,1,0,0:0:0:0:
320,192,2107,1,0,0:0:0:0:
448,192,2274,1,0,0:0:0:0:
64,192,2441,1,0,0:0:0:0:
192,192,2608,1,0,0:0:0:0:
320,192,2775,1,0,0:0:0:0:
448,192,2941,1,0,0:0:0:0:
192,192,3108,1,8,0:0:0:0:
320,192,3108,1,8,0:0:0:0:
320,192,3275,1,4,0:0:0:0:
448,192,3275,1,4,0:0:0:0:
64,192,3442,1,8,0:0:0:0:
192,192,3442,1,8,0:0:0:0:
448,192,3609,1,4,0:0:0:0:
320,192,3609,1,4,0:0:0:0:
64,192,3776,128,0,4443:0:0:0:0:
320,192,3942,1,0,0:0:0:0:
448,192,4109,128,0,4443:0:0:0:0:
192,192,4610,1,0,0:0:0:0:
320,192,4777,1,0,0:0:0:0:
192,192,4943,1,0,0:0:0:0:
448,192,5110,1,0,0:0:0:0:
448,192,5277,1,0,0:0:0:0:
320,192,5444,1,0,0:0:0:0:
192,192,5611,1,0,0:0:0:0:
64,192,5778,1,0,0:0:0:0:
192,192,5944,1,0,0:0:0:0:
320,192,6111,1,0,0:0:0:0:
64,192,6278,1,0,0:0:0:0:
192,192,6445,1,8,0:0:0:0:
320,192,6445,1,8,0:0:0:0:
320,192,6612,1,8,0:0:0:0:
448,192,6612,1,8,0:0:0:0:
64,192,6779,128,0,7279:0:0:0:0:
448,192,6779,128,0,7112:0:0:0:0:
192,192,6779,1,0,0:0:0:0:
320,192,6945,1,0,0:0:0:0:
192,192,7279,1,0,0:0:0:0:
320,192,7446,1,0,0:0:0:0:
64,192,7613,1,0,0:0:0:0:
448,192,7780,1,0,0:0:0:0:
192,192,7946,1,0,0:0:0:0:
64,192,8113,1,0,0:0:0:0:
320,192,8280,1,0,0:0:0:0:
64,192,8447,1,0,0:0:0:0:
64,192,8614,1,0,0:0:0:0:
64,192,8781,1,0,0:0:0:0:
192,192,8947,1,0,0:0:0:0:
64,192,9114,1,0,0:0:0:0:
320,192,9281,1,0,0:0:0:0:
64,192,9448,128,0,9948:0:0:0:0:
320,192,9448,128,0,9782:0:0:0:0:
192,192,9448,1,8,0:0:0:0:
448,192,9615,1,0,0:0:0:0:
448,192,9948,1,0,0:0:0:0:
192,192,10115,1,0,0:0:0:0:
320,192,10282,1,0,0:0:0:0:
64,192,10449,1,0,0:0:0:0:
192,192,10616,1,0,0:0:0:0:
64,192,10783,1,0,0:0:0:0:
320,192,10949,1,0,0:0:0:0:
64,192,11116,1,0,0:0:0:0:
192,192,11283,1,0,0:0:0:0:
64,192,11450,1,0,0:0:0:0:
320,192,11617,1,0,0:0:0:0:
192,192,11784,1,0,0:0:0:0:
320,192,11950,1,0,0:0:0:0:
64,192,12117,128,0,12618:0:0:0:0:
448,192,12117,128,0,12451:0:0:0:0:
192,192,12117,1,8,0:0:0:0:
320,192,12284,1,0,0:0:0:0:
192,192,12618,1,0,0:0:0:0:
192,192,12785,1,0,0:0:0:0:
320,192,12951,1,0,0:0:0:0:
64,192,13118,1,0,0:0:0:0:
320,192,13285,1,0,0:0:0:0:
448,192,13452,1,0,0:0:0:0:
192,192,13619,1,0,0:0:0:0:
320,192,13619,1,0,0:0:0:0:
320,192,13786,1,0,0:0:0:0:
448,192,13786,1,0,0:0:0:0:
64,192,13952,1,0,0:0:0:0:
320,192,13952,1,0,0:0:0:0:
192,192,14119,1,0,0:0:0:0:
448,192,14119,1,0,0:0:0:0:
64,192,14286,1,0,0:0:0:0:
192,192,14286,1,0,0:0:0:0:
192,192,14453,1,0,0:0:0:0:
320,192,14620,1,0,0:0:0:0:
320,192,14787,128,0,15120:0:0:0:0:
448,192,14953,1,0,0:0:0:0:
64,192,15287,1,0,0:0:0:0:
192,192,15454,1,0,0:0:0:0:
320,192,15621,1,0,0:0:0:0:
64,192,15788,1,0,0:0:0:0:
448,192,15954,1,0,0:0:0:0:
192,192,16121,1,0,0:0:0:0:
320,192,16288,1,0,0:0:0:0:
64,192,16455,1,0,0:0:0:0:
192,192,16622,1,0,0:0:0:0:
64,192,16789,1,0,0:0:0:0:
448,192,16955,1,0,0:0:0:0:
192,192,17122,1,0,0:0:0:0:
320,192,17289,1,0,0:0:0:0:
320,192,17456,128,0,17790:0:0:0:0:
64,192,17456,128,0,17956:0:0:0:0:
192,192,17456,1,8,0:0:0:0:
448,192,17623,1,0,0:0:0:0:
320,192,17956,1,0,0:0:0:0:
192,192,18123,1,0,0:0:0:0:
320,192,18290,1,0,0:0:0:0:
64,192,18457,1,0,0:0:0:0:
192,192,18624,1,0,0:0:0:0:
320,192,18791,1,0,0:0:0:0:
448,192,18957,1,0,0:0:0:0:
192,192,19124,1,0,0:0:0:0:
320,192,19291,1,0,0:0:0:0:
64,192,19458,1,0,0:0:0:0:
192,192,19625,1,0,0:0:0:0:
64,192,19792,1,0,0:0:0:0:
320,192,19958,1,0,0:0:0:0:
448,192,20125,128,0,20626:0:0:0:0:
192,192,20125,128,0,20459:0:0:0:0:
320,192,20125,1,8,0:0:0:0:
64,192,20292,1,0,0:0:0:0:
64,192,20626,1,0,0:0:0:0:
320,192,20793,1,0,0:0:0:0:
192,192,20959,1,0,0:0:0:0:
320,192,21126,1,0,0:0:0:0:
448,192,21293,1,0,0:0:0:0:
64,192,21460,1,0,0:0:0:0:
448,192,21627,1,0,0:0:0:0:
192,192,21794,1,0,0:0:0:0:
448,192,21960,1,0,0:0:0:0:
64,192,22127,1,0,0:0:0:0:
320,192,22294,1,0,0:0:0:0:
448,192,22461,1,0,0:0:0:0:
320,192,22461,1,0,0:0:0:0:
192,192,22461,1,0,0:0:0:0:
64,192,22628,1,0,0:0:0:0:
192,192,22628,1,0,0:0:0:0:
192,192,22795,1,0,0:0:0:0:
64,192,22795,1,0,0:0:0:0:
448,192,22795,1,0,0:0:0:0:
320,192,22961,128,0,23128:0:0:0:0:
448,192,22961,128,0,23128:0:0:0:0:
64,192,22961,128,0,23128:0:0:0:0:
192,192,23879,1,0,0:0:0:0:
64,192,24046,1,0,0:0:0:0:
192,192,24213,1,0,0:0:0:0:
320,192,24379,1,0,0:0:0:0:
448,192,24546,128,0,25547:0:0:0:0:
320,192,24713,1,0,0:0:0:0:
192,192,24880,1,0,0:0:0:0:
64,192,25047,1,0,0:0:0:0:
192,192,25214,1,0,0:0:0:0:
320,192,25380,1,0,0:0:0:0:
192,192,25547,128,0,25881:0:0:0:0:
320,192,25714,1,0,0:0:0:0:
64,192,25881,128,0,26882:0:0:0:0:
448,192,26048,1,0,0:0:0:0:
320,192,26215,1,0,0:0:0:0:
192,192,26381,1,0,0:0:0:0:
320,192,26548,1,0,0:0:0:0:
448,192,26715,1,0,0:0:0:0:
192,192,26882,128,0,27216:0:0:0:0:
448,192,27049,1,0,0:0:0:0:
320,192,27216,128,0,27716:0:0:0:0:
192,192,27382,1,0,0:0:0:0:
64,192,27549,1,0,0:0:0:0:
64,192,27716,128,0,28217:0:0:0:0:
192,192,27883,1,0,0:0:0:0:
448,192,28050,1,0,0:0:0:0:
192,192,28217,128,0,29551:0:0:0:0:
320,192,28383,1,0,0:0:0:0:
320,192,28717,1,0,0:0:0:0:
448,192,28884,1,0,0:0:0:0:
320,192,29051,1,0,0:0:0:0:
64,192,29218,1,0,0:0:0:0:
64,192,29384,1,0,0:0:0:0:
320,192,29551,128,0,29885:0:0:0:0:
192,192,29718,1,0,0:0:0:0:
448,192,29885,128,0,30886:0:0:0:0:
320,192,30052,1,0,0:0:0:0:
192,192,30219,1,0,0:0:0:0:
64,192,30385,1,0,0:0:0:0:
192,192,30552,1,0,0:0:0:0:
320,192,30719,1,0,0:0:0:0:
64,192,30886,128,0,31220:0:0:0:0:
320,192,31053,1,0,0:0:0:0:
192,192,31220,128,0,31720:0:0:0:0:
320,192,31386,1,0,0:0:0:0:
448,192,31553,1,0,0:0:0:0:
320,192,31720,128,0,32221:0:0:0:0:
192,192,31887,1,0,0:0:0:0:
448,192,32054,1,0,0:0:0:0:
448,192,32221,128,0,32554:0:0:0:0:
320,192,32387,1,0,0:0:0:0:
64,192,32554,128,0,33138:0:0:0:0:
192,192,32721,1,0,0:0:0:0:
320,192,32888,1,0,0:0:0:0:
448,192,33055,1,0,0:0:0:0:
192,192,33222,1,0,0:0:0:0:
64,192,33388,1,0,0:0:0:0:
448,192,33555,1,0,0:0:0:0:
64,192,33722,1,0,0:0:0:0:
320,192,34056,1,0,0:0:0:0:
448,192,34223,1,0,0:0:0:0:
192,192,34389,1,0,0:0:0:0:
320,192,34556,1,0,0:0:0:0:
448,192,34723,1,0,0:0:0:0:
192,192,34890,1,0,0:0:0:0:
64,192,35057,1,0,0:0:0:0:
192,192,35224,1,0,0:0:0:0:
320,192,35224,128,0,36225:0:0:0:0:
448,192,35390,1,0,0:0:0:0:
192,192,35557,1,0,0:0:0:0:
64,192,35724,1,0,0:0:0:0:
448,192,35891,1,0,0:0:0:0:
64,192,36058,1,0,0:0:0:0:
192,192,36225,128,0,36558:0:0:0:0:
64,192,36558,128,0,37559:0:0:0:0:
320,192,36725,1,0,0:0:0:0:
448,192,36892,1,0,0:0:0:0:
320,192,37059,1,0,0:0:0:0:
192,192,37226,1,0,0:0:0:0:
320,192,37392,1,0,0:0:0:0:
448,192,37559,128,0,37893:0:0:0:0:
320,192,37726,1,0,0:0:0:0:
320,192,37893,128,0,38393:0:0:0:0:
192,192,38060,1,0,0:0:0:0:
64,192,38227,1,0,0:0:0:0:
192,192,38393,128,0,38894:0:0:0:0:
448,192,38560,1,0,0:0:0:0:
320,192,38727,1,0,0:0:0:0:
64,192,38894,128,0,39561:0:0:0:0:
320,192,39394,1,0,0:0:0:0:
320,192,39561,1,0,0:0:0:0:
448,192,39728,1,0,0:0:0:0:
448,192,39895,128,0,40229:0:0:0:0:
320,192,40062,1,0,0:0:0:0:
192,192,40229,128,0,40562:0:0:0:0:
320,192,40395,1,0,0:0:0:0:
64,192,40562,128,0,41063:0:0:0:0:
320,192,40562,128,0,41063:0:0:0:0:
448,192,40729,1,0,0:0:0:0:
192,192,40896,1,0,0:0:0:0:
192,192,41063,128,0,41897:0:0:0:0:
448,192,41063,128,0,41897:0:0:0:0:
320,192,41230,1,0,0:0:0:0:
64,192,41396,1,0,0:0:0:0:
64,192,41563,1,0,0:0:0:0:
64,192,41897,128,0,42397:0:0:0:0:
320,192,41897,128,0,42397:0:0:0:0:
448,192,42064,1,0,0:0:0:0:
192,192,42231,1,0,0:0:0:0:
192,192,42397,128,0,42898:0:0:0:0:
448,192,42397,128,0,42898:0:0:0:0:
320,192,42564,1,0,0:0:0:0:
320,192,42731,1,0,0:0:0:0:
320,192,43065,1,0,0:0:0:0:
192,192,43232,1,0,0:0:0:0:
64,192,43232,128,0,43732:0:0:0:0:
320,192,43398,1,0,0:0:0:0:
448,192,43565,1,0,0:0:0:0:
320,192,43732,1,0,0:0:0:0:
192,192,43732,128,0,44233:0:0:0:0:
320,192,43899,1,0,0:0:0:0:
448,192,44066,1,0,0:0:0:0:
320,192,44233,1,0,0:0:0:0:
448,192,44233,1,0,0:0:0:0:
320,192,44399,1,0,0:0:0:0:
320,192,44733,1,0,0:0:0:0:
448,192,44900,1,0,0:0:0:0:
192,192,45067,1,0,0:0:0:0:
64,192,45234,1,0,0:0:0:0:
320,192,45400,1,0,0:0:0:0:
448,192,45567,1,0,0:0:0:0:
192,192,45734,1,0,0:0:0:0:
64,192,45901,1,0,0:0:0:0:
192,192,45901,1,0,0:0:0:0:
192,192,46068,1,0,0:0:0:0:
320,192,46068,1,0,0:0:0:0:
320,192,46235,1,0,0:0:0:0:
448,192,46235,1,0,0:0:0:0:
64,192,46401,1,0,0:0:0:0:
448,192,46401,1,0,0:0:0:0:
192,192,46568,1,0,0:0:0:0:
64,192,46568,128,0,47236:0:0:0:0:
320,192,46735,1,0,0:0:0:0:
448,192,46902,128,0,47236:0:0:0:0:
320,192,47402,1,0,0:0:0:0:
192,192,47569,1,0,0:0:0:0:
320,192,47736,1,0,0:0:0:0:
192,192,47903,1,0,0:0:0:0:
448,192,48070,1,0,0:0:0:0:
320,192,48237,1,0,0:0:0:0:
448,192,48403,1,0,0:0:0:0:
320,192,48570,1,0,0:0:0:0:
192,192,48737,1,0,0:0:0:0:
64,192,48904,1,0,0:0:0:0:
64,192,49071,1,0,0:0:0:0:
320,192,49238,1,0,0:0:0:0:
64,192,49238,1,0,0:0:0:0:
448,192,49404,1,0,0:0:0:0:
192,192,49404,1,0,0:0:0:0:
448,192,49571,1,0,0:0:0:0:
320,192,49571,128,0,49905:0:0:0:0:
64,192,49571,128,0,50072:0:0:0:0:
192,192,49738,1,0,0:0:0:0:
192,192,50072,1,0,0:0:0:0:
192,192,50239,1,0,0:0:0:0:
320,192,50405,1,0,0:0:0:0:
192,192,50572,1,0,0:0:0:0:
64,192,50739,1,0,0:0:0:0:
192,192,50906,1,0,0:0:0:0:
320,192,51073,1,0,0:0:0:0:
448,192,51240,1,0,0:0:0:0:
320,192,51406,1,0,0:0:0:0:
192,192,51573,1,0,0:0:0:0:
64,192,51740,1,0,0:0:0:0:
320,192,51907,1,0,0:0:0:0:
64,192,51907,1,0,0:0:0:0:
192,192,52074,1,0,0:0:0:0:
320,192,52074,1,0,0:0:0:0:
448,192,52241,1,8,0:0:0:0:
320,192,52241,128,0,52574:0:0:0:0:
192,192,52241,128,0,52741:0:0:0:0:
448,192,52407,1,0,0:0:0:0:
64,192,52741,1,0,0:0:0:0:
320,192,52908,1,0,0:0:0:0:
192,192,53075,1,0,0:0:0:0:
448,192,53242,1,0,0:0:0:0:
320,192,53408,1,0,0:0:0:0:
448,192,53575,1,0,0:0:0:0:
192,192,53742,1,0,0:0:0:0:
64,192,53909,1,0,0:0:0:0:
192,192,54076,1,0,0:0:0:0:
448,192,54243,1,0,0:0:0:0:
192,192,54409,1,0,0:0:0:0:
448,192,54576,1,0,0:0:0:0:
192,192,54576,1,0,0:0:0:0:
64,192,54576,1,0,0:0:0:0:
64,192,54743,1,0,0:0:0:0:
192,192,54743,1,0,0:0:0:0:
448,192,54743,1,0,0:0:0:0:
448,192,54910,1,0,0:0:0:0:
192,192,54910,1,0,0:0:0:0:
64,192,54910,1,0,0:0:0:0:
320,192,55077,128,0,55244:0:0:0:0:
64,192,55077,128,0,55244:0:0:0:0:
448,192,55077,128,0,55244:0:0:0:0:
192,192,55994,1,0,0:0:0:0:
64,192,56161,1,0,0:0:0:0:
192,192,56328,1,0,0:0:0:0:
320,192,56495,1,0,0:0:0:0:
448,192,56662,128,0,57663:0:0:0:0:
320,192,56829,1,0,0:0:0:0:
192,192,56995,1,0,0:0:0:0:
64,192,57162,1,0,0:0:0:0:
192,192,57329,1,0,0:0:0:0:
320,192,57496,1,0,0:0:0:0:
192,192,57663,128,0,57996:0:0:0:0:
320,192,57830,1,0,0:0:0:0:
64,192,57996,128,0,58997:0:0:0:0:
320,192,58163,1,0,0:0:0:0:
448,192,58330,1,0,0:0:0:0:
192,192,58497,1,0,0:0:0:0:
448,192,58664,1,0,0:0:0:0:
320,192,58831,1,0,0:0:0:0:
192,192,58997,128,0,59331:0:0:0:0:
448,192,59164,1,0,0:0:0:0:
320,192,59331,128,0,59832:0:0:0:0:
192,192,59498,1,0,0:0:0:0:
64,192,59665,1,0,0:0:0:0:
64,192,59832,128,0,60332:0:0:0:0:
192,192,59998,1,0,0:0:0:0:
448,192,60165,1,0,0:0:0:0:
192,192,60332,128,0,61667:0:0:0:0:
320,192,60499,1,0,0:0:0:0:
320,192,60833,1,0,0:0:0:0:
448,192,60999,1,0,0:0:0:0:
320,192,61166,1,0,0:0:0:0:
64,192,61333,1,0,0:0:0:0:
448,192,61500,1,0,0:0:0:0:
320,192,61667,128,0,62000:0:0:0:0:
64,192,61834,1,0,0:0:0:0:
448,192,62000,128,0,63001:0:0:0:0:
320,192,62167,1,0,0:0:0:0:
320,192,62334,1,0,0:0:0:0:
192,192,62501,1,0,0:0:0:0:
64,192,62668,1,0,0:0:0:0:
192,192,62835,1,0,0:0:0:0:
64,192,63001,128,0,63335:0:0:0:0:
320,192,63168,1,0,0:0:0:0:
192,192,63335,128,0,63836:0:0:0:0:
320,192,63502,1,0,0:0:0:0:
64,192,63669,1,0,0:0:0:0:
448,192,63836,128,0,64336:0:0:0:0:
192,192,64002,1,0,0:0:0:0:
320,192,64169,1,0,0:0:0:0:
64,192,64336,128,0,64670:0:0:0:0:
448,192,64503,1,0,0:0:0:0:
448,192,64670,128,0,65838:0:0:0:0:
192,192,64837,1,0,0:0:0:0:
320,192,65003,1,0,0:0:0:0:
64,192,65170,1,0,0:0:0:0:
320,192,65337,1,0,0:0:0:0:
192,192,65504,1,0,0:0:0:0:
320,192,65671,1,0,0:0:0:0:
192,192,65838,1,0,0:0:0:0:
320,192,66171,1,0,0:0:0:0:
192,192,66338,1,0,0:0:0:0:
320,192,66505,1,0,0:0:0:0:
448,192,66672,1,0,0:0:0:0:
320,192,66839,1,0,0:0:0:0:
192,192,67005,1,0,0:0:0:0:
320,192,67172,1,0,0:0:0:0:
64,192,67339,128,0,68340:0:0:0:0:
448,192,67339,1,0,0:0:0:0:
320,192,67506,1,0,0:0:0:0:
192,192,67673,1,0,0:0:0:0:
320,192,67840,1,0,0:0:0:0:
448,192,68006,1,0,0:0:0:0:
192,192,68173,1,0,0:0:0:0:
448,192,68340,128,0,68674:0:0:0:0:
320,192,68507,1,0,0:0:0:0:
192,192,68674,128,0,69675:0:0:0:0:
64,192,68674,128,0,69675:0:0:0:0:
448,192,68841,1,0,0:0:0:0:
320,192,69007,1,0,0:0:0:0:
448,192,69174,1,0,0:0:0:0:
320,192,69341,1,0,0:0:0:0:
448,192,69508,1,0,0:0:0:0:
320,192,69675,128,0,70008:0:0:0:0:
448,192,69675,128,0,70008:0:0:0:0:
64,192,69842,1,0,0:0:0:0:
64,192,70008,1,0,0:0:0:0:
192,192,70008,128,0,70509:0:0:0:0:
320,192,70175,1,0,0:0:0:0:
448,192,70342,1,0,0:0:0:0:
320,192,70509,128,0,71009:0:0:0:0:
64,192,70509,128,0,71009:0:0:0:0:
448,192,70676,1,0,0:0:0:0:
448,192,70843,1,0,0:0:0:0:
192,192,71009,1,0,0:0:0:0:
448,192,71009,1,0,0:0:0:0:
448,192,71176,1,0,0:0:0:0:
448,192,71510,1,0,0:0:0:0:
320,192,71677,1,0,0:0:0:0:
448,192,71844,1,0,0:0:0:0:
64,192,72010,128,0,72177:0:0:0:0:
192,192,72010,128,0,72177:0:0:0:0:
320,192,72010,128,0,72177:0:0:0:0:
448,192,72010,1,0,0:0:0:0:
64,192,72344,128,0,72511:0:0:0:0:
192,192,72344,128,0,72511:0:0:0:0:
320,192,72344,128,0,72511:0:0:0:0:
448,192,72344,1,0,0:0:0:0:
64,192,72678,128,0,73178:0:0:0:0:
320,192,72678,1,0,0:0:0:0:
448,192,72845,1,0,0:0:0:0:
320,192,73011,1,0,0:0:0:0:
448,192,73178,128,0,74012:0:0:0:0:
320,192,73345,1,0,0:0:0:0:
192,192,73512,1,0,0:0:0:0:
64,192,73679,1,0,0:0:0:0:
192,192,74012,128,0,74513:0:0:0:0:
320,192,74012,1,0,0:0:0:0:
448,192,74179,1,0,0:0:0:0:
320,192,74346,1,0,0:0:0:0:
320,192,74513,128,0,75347:0:0:0:0:
448,192,74680,1,0,0:0:0:0:
192,192,74847,1,0,0:0:0:0:
64,192,75013,1,0,0:0:0:0:
192,192,75180,1,0,0:0:0:0:
64,192,75347,128,0,75848:0:0:0:0:
192,192,75347,1,8,0:0:0:0:
448,192,75514,1,0,0:0:0:0:
320,192,75681,1,0,0:0:0:0:
192,192,75848,128,0,76348:0:0:0:0:
448,192,75848,1,8,0:0:0:0:
448,192,76014,1,0,0:0:0:0:
320,192,76181,1,0,0:0:0:0:
64,192,76348,1,8,0:0:0:0:
448,192,76348,128,0,76849:0:0:0:0:
320,192,76515,1,0,0:0:0:0:
64,192,76849,1,0,0:0:0:0:
320,192,77015,1,0,0:0:0:0:
448,192,77182,1,0,0:0:0:0:
320,192,77349,1,0,0:0:0:0:
192,192,77516,1,0,0:0:0:0:
320,192,77683,1,0,0:0:0:0:
448,192,77850,1,0,0:0:0:0:
448,192,78016,128,0,79017:0:0:0:0:
320,192,78183,1,0,0:0:0:0:
192,192,78350,1,0,0:0:0:0:
64,192,78517,1,0,0:0:0:0:
192,192,78684,1,0,0:0:0:0:
320,192,78851,1,0,0:0:0:0:
192,192,79017,128,0,79351:0:0:0:0:
320,192,79184,1,0,0:0:0:0:
64,192,79351,128,0,80352:0:0:0:0:
320,192,79518,1,0,0:0:0:0:
448,192,79685,1,0,0:0:0:0:
192,192,79852,1,0,0:0:0:0:
448,192,80018,1,0,0:0:0:0:
320,192,80185,1,0,0:0:0:0:
192,192,80352,128,0,80686:0:0:0:0:
320,192,80519,1,0,0:0:0:0:
320,192,80686,128,0,81186:0:0:0:0:
448,192,80853,1,0,0:0:0:0:
192,192,81019,1,0,0:0:0:0:
448,192,81186,128,0,81687:0:0:0:0:
64,192,81186,1,0,0:0:0:0:
320,192,81353,1,0,0:0:0:0:
192,192,81520,1,0,0:0:0:0:
64,192,81687,128,0,82020:0:0:0:0:
320,192,81854,1,0,0:0:0:0:
320,192,82187,1,0,0:0:0:0:
192,192,82354,1,0,0:0:0:0:
448,192,82521,1,0,0:0:0:0:
320,192,82688,1,0,0:0:0:0:
192,192,82855,1,0,0:0:0:0:
64,192,83021,128,0,83355:0:0:0:0:
320,192,83188,1,0,0:0:0:0:
448,192,83355,128,0,84356:0:0:0:0:
320,192,83522,1,0,0:0:0:0:
192,192,83689,1,0,0:0:0:0:
64,192,83856,1,0,0:0:0:0:
192,192,84022,1,0,0:0:0:0:
320,192,84189,1,0,0:0:0:0:
64,192,84356,128,0,84690:0:0:0:0:
320,192,84523,1,0,0:0:0:0:
320,192,84690,128,0,85190:0:0:0:0:
448,192,84857,1,0,0:0:0:0:
192,192,85023,1,0,0:0:0:0:
448,192,85190,128,0,85691:0:0:0:0:
320,192,85357,1,0,0:0:0:0:
192,192,85524,1,0,0:0:0:0:
64,192,85691,128,0,86024:0:0:0:0:
320,192,85691,1,0,0:0:0:0:
448,192,85858,1,0,0:0:0:0:
320,192,86024,128,0,86692:0:0:0:0:
448,192,86191,1,0,0:0:0:0:
192,192,86358,1,0,0:0:0:0:
448,192,86525,1,0,0:0:0:0:
64,192,86692,1,0,0:0:0:0:
192,192,86859,1,0,0:0:0:0:
448,192,87025,1,0,0:0:0:0:
64,192,87192,1,0,0:0:0:0:
64,192,87526,1,0,0:0:0:0:
192,192,87693,1,0,0:0:0:0:
320,192,87860,1,0,0:0:0:0:
448,192,88026,1,0,0:0:0:0:
320,192,88193,1,0,0:0:0:0:
192,192,88360,1,0,0:0:0:0:
320,192,88527,1,0,0:0:0:0:
64,192,88694,128,0,89695:0:0:0:0:
448,192,88694,1,0,0:0:0:0:
320,192,88861,1,0,0:0:0:0:
448,192,89027,1,0,0:0:0:0:
320,192,89194,1,0,0:0:0:0:
192,192,89361,1,0,0:0:0:0:
448,192,89528,1,0,0:0:0:0:
448,192,89695,128,0,90028:0:0:0:0:
320,192,89695,1,0,0:0:0:0:
192,192,90028,128,0,91029:0:0:0:0:
64,192,90028,1,0,0:0:0:0:
320,192,90195,1,0,0:0:0:0:
448,192,90362,1,0,0:0:0:0:
320,192,90529,1,0,0:0:0:0:
64,192,90696,1,0,0:0:0:0:
320,192,90863,1,0,0:0:0:0:
448,192,91029,128,0,91363:0:0:0:0:
192,192,91196,1,0,0:0:0:0:
320,192,91363,128,0,91864:0:0:0:0:
64,192,91363,1,0,0:0:0:0:
192,192,91530,1,0,0:0:0:0:
448,192,91697,1,0,0:0:0:0:
192,192,91864,128,0,92364:0:0:0:0:
448,192,92030,1,0,0:0:0:0:
320,192,92197,1,0,0:0:0:0:
64,192,92364,128,0,93365:0:0:0:0:
448,192,92364,1,0,0:0:0:0:
320,192,92698,1,0,0:0:0:0:
192,192,92865,1,0,0:0:0:0:
320,192,93031,1,0,0:0:0:0:
448,192,93198,1,0,0:0:0:0:
320,192,93365,1,0,0:0:0:0:
448,192,93365,128,0,93699:0:0:0:0:
192,192,93532,1,0,0:0:0:0:
192,192,93699,1,0,0:0:0:0:
320,192,93699,128,0,94032:0:0:0:0:
448,192,93866,1,0,0:0:0:0:
64,192,94032,128,0,94533:0:0:0:0:
192,192,94032,1,0,0:0:0:0:
320,192,94199,1,0,0:0:0:0:
192,192,94366,1,0,0:0:0:0:
448,192,94533,128,0,95367:0:0:0:0:
320,192,94700,1,0,0:0:0:0:
192,192,94867,1,0,0:0:0:0:
320,192,95033,1,0,0:0:0:0:
192,192,95367,128,0,95868:0:0:0:0:
320,192,95367,1,0,0:0:0:0:
448,192,95617,1,0,0:0:0:0:
320,192,95868,128,0,96702:0:0:0:0:
448,192,96034,1,0,0:0:0:0:
192,192,96201,1,0,0:0:0:0:
448,192,96368,1,0,0:0:0:0:
448,192,96535,1,0,0:0:0:0:
192,192,96702,1,0,0:0:0:0:
64,192,96702,128,0,97202:0:0:0:0:
448,192,96869,1,0,0:0:0:0:
320,192,97035,1,0,0:0:0:0:
320,192,97202,1,0,0:0:0:0:
192,192,97202,128,0,97703:0:0:0:0:
64,192,97369,1,0,0:0:0:0:
320,192,97536,1,0,0:0:0:0:
448,192,97703,128,0,99204:0:0:0:0:
320,192,97870,1,0,0:0:0:0:
320,192,98203,1,0,0:0:0:0:
192,192,98370,1,0,0:0:0:0:
64,192,98537,1,0,0:0:0:0:
192,192,98704,1,0,0:0:0:0:
320,192,98871,1,0,0:0:0:0:
192,192,99037,1,0,0:0:0:0:
320,192,99204,1,0,0:0:0:0:
192,192,99371,1,0,0:0:0:0:
320,192,99371,1,0,0:0:0:0:
320,192,99538,1,0,0:0:0:0:
448,192,99538,1,0,0:0:0:0:
192,192,99705,1,0,0:0:0:0:
320,192,99705,1,0,0:0:0:0:
64,192,99872,1,0,0:0:0:0:
192,192,99872,1,0,0:0:0:0:
320,192,100038,1,0,0:0:0:0:
448,192,100038,1,0,0:0:0:0:
64,192,100372,1,0,0:0:0:0:
192,192,100372,1,0,0:0:0:0:
448,192,100539,1,0,0:0:0:0:
320,192,100539,1,0,0:0:0:0:
64,192,100873,1,0,0:0:0:0:
320,192,100873,1,0,0:0:0:0:
192,192,101206,1,0,0:0:0:0:
448,192,101206,1,0,0:0:0:0:
320,192,101373,1,0,0:0:0:0:
64,192,101373,1,0,0:0:0:0:
64,192,101707,1,0,0:0:0:0:
320,192,101707,1,0,0:0:0:0:
192,192,101874,1,0,0:0:0:0:
448,192,101874,1,0,0:0:0:0:
320,192,102040,1,0,0:0:0:0:
192,192,102207,1,0,0:0:0:0:
448,192,102207,1,0,0:0:0:0:
448,192,102374,1,0,0:0:0:0:
64,192,102374,1,0,0:0:0:0:
64,192,102708,1,0,0:0:0:0:
320,192,102708,1,0,0:0:0:0:
64,192,103041,1,0,0:0:0:0:
192,192,103208,1,0,0:0:0:0:
448,192,103208,1,0,0:0:0:0:
64,192,103542,1,0,0:0:0:0:
64,192,103876,1,0,0:0:0:0:
320,192,103876,1,0,0:0:0:0:
192,192,104042,1,0,0:0:0:0:
64,192,104042,1,0,0:0:0:0:
320,192,104376,1,0,0:0:0:0:
64,192,104376,1,0,0:0:0:0:
64,192,104710,1,0,0:0:0:0:
320,192,104710,1,0,0:0:0:0:
192,192,104877,1,0,0:0:0:0:
64,192,104877,1,0,0:0:0:0:
320,192,105043,1,0,0:0:0:0:
192,192,105043,1,0,0:0:0:0:
448,192,105377,1,0,0:0:0:0:
320,192,105377,1,0,0:0:0:0:
320,192,105711,1,0,0:0:0:0:
64,192,105711,1,0,0:0:0:0:
192,192,105878,1,0,0:0:0:0:
448,192,105878,1,0,0:0:0:0:
64,192,106211,1,0,0:0:0:0:
192,192,106545,1,0,0:0:0:0:
448,192,106545,1,0,0:0:0:0:
448,192,106712,1,0,0:0:0:0:
320,192,106712,1,0,0:0:0:0:
192,192,107045,1,0,0:0:0:0:
448,192,107045,1,0,0:0:0:0:
64,192,107379,1,0,0:0:0:0:
320,192,107379,1,0,0:0:0:0:
192,192,107546,1,0,0:0:0:0:
448,192,107546,1,0,0:0:0:0:
64,192,107713,1,0,0:0:0:0:
448,192,107713,1,0,0:0:0:0:
192,192,107880,1,0,0:0:0:0:
320,192,107880,1,0,0:0:0:0:
320,192,108046,1,0,0:0:0:0:
448,192,108046,1,0,0:0:0:0:
320,192,108380,1,0,0:0:0:0:
192,192,108380,1,0,0:0:0:0:
448,192,108547,1,0,0:0:0:0:
320,192,108714,1,0,0:0:0:0:
448,192,108714,1,0,0:0:0:0:
192,192,108881,1,0,0:0:0:0:
64,192,108881,1,0,0:0:0:0:
64,192,109214,1,0,0:0:0:0:
320,192,109214,1,0,0:0:0:0:
192,192,109381,1,0,0:0:0:0:
448,192,109381,1,0,0:0:0:0:
448,192,109715,1,0,0:0:0:0:
192,192,109715,128,0,110048:0:0:0:0:
64,192,110048,1,0,0:0:0:0:
320,192,110048,1,0,0:0:0:0:
192,192,110215,1,0,0:0:0:0:
448,192,110215,1,0,0:0:0:0:
320,192,110382,1,0,0:0:0:0:
64,192,110382,1,0,0:0:0:0:
192,192,110549,1,0,0:0:0:0:
448,192,110549,1,0,0:0:0:0:
320,192,110716,1,0,0:0:0:0:
448,192,110716,1,0,0:0:0:0:
64,192,111049,1,0,0:0:0:0:
320,192,111049,1,0,0:0:0:0:
192,192,111216,1,0,0:0:0:0:
448,192,111216,1,0,0:0:0:0:
64,192,111550,1,0,0:0:0:0:
448,192,111550,1,0,0:0:0:0:
192,192,111884,1,0,0:0:0:0:
448,192,111884,1,0,0:0:0:0:
64,192,112050,1,0,0:0:0:0:
192,192,112050,1,0,0:0:0:0:
64,192,112384,1,0,0:0:0:0:
448,192,112384,1,0,0:0:0:0:
320,192,112551,1,0,0:0:0:0:
192,192,112718,1,0,0:0:0:0:
320,192,112885,1,0,0:0:0:0:
448,192,113051,1,0,0:0:0:0:
192,192,113051,1,0,0:0:0:0:
64,192,113385,1,0,0:0:0:0:
320,192,113385,1,0,0:0:0:0:
192,192,113719,1,0,0:0:0:0:
448,192,113719,1,0,0:0:0:0:
320,192,113886,1,0,0:0:0:0:
64,192,113886,1,0,0:0:0:0:
192,192,114219,1,0,0:0:0:0:
448,192,114219,1,0,0:0:0:0:
320,192,114386,1,0,0:0:0:0:
448,192,114386,1,0,0:0:0:0:
192,192,114553,1,0,0:0:0:0:
64,192,114720,1,0,0:0:0:0:
320,192,114720,1,0,0:0:0:0:
320,192,115053,1,0,0:0:0:0:
448,192,115053,1,0,0:0:0:0:
64,192,115387,1,0,0:0:0:0:
448,192,115387,1,0,0:0:0:0:
192,192,115554,1,0,0:0:0:0:
448,192,115554,1,0,0:0:0:0:
448,192,115721,1,0,0:0:0:0:
192,192,115888,1,0,0:0:0:0:
448,192,115888,1,0,0:0:0:0:
64,192,116054,1,0,0:0:0:0:
448,192,116054,1,0,0:0:0:0:
64,192,116388,1,0,0:0:0:0:
448,192,116388,1,0,0:0:0:0:
192,192,116555,1,0,0:0:0:0:
448,192,116889,1,0,0:0:0:0:
320,192,116889,1,0,0:0:0:0:
192,192,117222,1,0,0:0:0:0:
320,192,117222,1,0,0:0:0:0:
64,192,117389,1,0,0:0:0:0:
192,192,117389,1,0,0:0:0:0:
192,192,117723,1,0,0:0:0:0:
320,192,117723,1,0,0:0:0:0:
320,192,118056,1,0,0:0:0:0:
192,192,118056,1,0,0:0:0:0:
448,192,118223,1,0,0:0:0:0:
192,192,118390,1,0,0:0:0:0:
320,192,118557,1,0,0:0:0:0:
448,192,118724,1,0,0:0:0:0:
64,192,118724,1,0,0:0:0:0:
192,192,118891,1,0,0:0:0:0:
320,192,118891,1,0,0:0:0:0:
192,192,119057,1,0,0:0:0:0:
448,192,119057,1,0,0:0:0:0:
192,192,119224,1,0,0:0:0:0:
320,192,119224,1,0,0:0:0:0:
192,192,119558,1,0,0:0:0:0:
448,192,119558,1,0,0:0:0:0:
448,192,119892,1,0,0:0:0:0:
192,192,119892,1,0,0:0:0:0:
64,192,120058,1,0,0:0:0:0:
320,192,120058,1,0,0:0:0:0:
192,192,120392,1,0,0:0:0:0:
448,192,120392,1,0,0:0:0:0:
64,192,120726,1,4,0:0:0:0:
192,192,120726,1,4,0:0:0:0:
320,192,120726,1,4,0:0:0:0:
448,192,120726,1,4,0:0:0:0:
64,192,131403,5,8,0:0:0:0:
192,192,131403,1,8,0:0:0:0:
320,192,131403,128,0,132404:0:0:0:0:
192,192,131570,1,8,0:0:0:0:
448,192,131570,1,8,0:0:0:0:
448,192,131737,1,8,0:0:0:0:
64,192,131737,1,8,0:0:0:0:
64,192,131904,1,8,0:0:0:0:
192,192,131904,1,8,0:0:0:0:
192,192,132404,128,0,132738:0:0:0:0:
64,192,132738,128,0,133739:0:0:0:0:
320,192,132905,1,0,0:0:0:0:
448,192,133071,1,0,0:0:0:0:
320,192,133238,1,0,0:0:0:0:
192,192,133405,1,0,0:0:0:0:
448,192,133572,1,0,0:0:0:0:
320,192,133739,128,0,134072:0:0:0:0:
192,192,133739,1,8,0:0:0:0:
192,192,133906,1,0,0:0:0:0:
448,192,134072,128,0,134573:0:0:0:0:
64,192,134072,1,0,0:0:0:0:
320,192,134239,1,0,0:0:0:0:
192,192,134406,1,0,0:0:0:0:
192,192,134573,128,0,135073:0:0:0:0:
320,192,134573,1,0,0:0:0:0:
448,192,134740,1,0,0:0:0:0:
320,192,134907,1,0,0:0:0:0:
64,192,135073,128,0,136074:0:0:0:0:
448,192,135073,1,10,0:0:0:0:
192,192,135407,1,0,0:0:0:0:
448,192,135574,1,0,0:0:0:0:
320,192,135741,1,0,0:0:0:0:
192,192,135908,1,0,0:0:0:0:
192,192,136074,128,0,136408:0:0:0:0:
320,192,136074,1,0,0:0:0:0:
448,192,136241,1,0,0:0:0:0:
320,192,136408,128,0,136742:0:0:0:0:
64,192,136408,1,0,0:0:0:0:
192,192,136575,1,0,0:0:0:0:
64,192,136742,128,0,137242:0:0:0:0:
448,192,136742,1,8,0:0:0:0:
320,192,136909,1,0,0:0:0:0:
192,192,137075,1,0,0:0:0:0:
192,192,137242,128,0,138076:0:0:0:0:
320,192,137242,1,8,0:0:0:0:
448,192,137409,1,0,0:0:0:0:
320,192,137576,1,0,0:0:0:0:
448,192,137743,1,0,0:0:0:0:
64,192,138076,128,0,138577:0:0:0:0:
448,192,138076,1,2,0:0:0:0:
320,192,138243,1,0,0:0:0:0:
192,192,138410,1,0,0:0:0:0:
320,192,138577,1,2,0:0:0:0:
192,192,138744,1,0,0:0:0:0:
320,192,138911,1,0,0:0:0:0:
192,192,139077,1,0,0:0:0:0:
448,192,139244,1,0,0:0:0:0:
64,192,139411,128,0,139912:0:0:0:0:
192,192,139411,1,2,0:0:0:0:
320,192,139578,1,0,0:0:0:0:
448,192,139745,1,0,0:0:0:0:
192,192,139912,128,0,140412:0:0:0:0:
320,192,139912,1,2,0:0:0:0:
320,192,140078,1,0,0:0:0:0:
448,192,140078,1,0,0:0:0:0:
320,192,140245,1,0,0:0:0:0:
448,192,140245,1,0,0:0:0:0:
448,192,140412,128,0,140913:0:0:0:0:
64,192,140412,1,2,0:0:0:0:
192,192,140579,128,0,140913:0:0:0:0:
320,192,140579,1,0,0:0:0:0:
64,192,140579,1,0,0:0:0:0:
192,192,141497,1,0,0:0:0:0:
64,192,141497,1,0,0:0:0:0:
192,192,141663,1,0,0:0:0:0:
320,192,141663,1,0,0:0:0:0:
320,192,141830,1,0,0:0:0:0:
448,192,141830,1,0,0:0:0:0:
320,192,141997,1,0,0:0:0:0:
448,192,141997,1,0,0:0:0:0:
448,192,142164,1,0,0:0:0:0:
192,192,142164,128,0,143165:0:0:0:0:
320,192,143165,1,0,0:0:0:0:
64,192,143165,128,0,143499:0:0:0:0:
448,192,143499,1,0,0:0:0:0:
192,192,143499,128,0,144416:0:0:0:0:
448,192,144416,1,0,0:0:0:0:
64,192,144416,128,0,144833:0:0:0:0:
448,192,144833,1,0,0:0:0:0:
192,192,144833,128,0,145334:0:0:0:0:
448,192,145334,1,0,0:0:0:0:
320,192,145334,128,0,145834:0:0:0:0:
448,192,145834,1,0,0:0:0:0:
64,192,145834,1,0,0:0:0:0:
320,192,147169,1,0,0:0:0:0:
64,192,147169,128,0,147503:0:0:0:0:
192,192,147503,1,0,0:0:0:0:
448,192,147503,1,0,0:0:0:0:
192,192,148504,1,0,0:0:0:0:
64,192,148504,128,0,148837:0:0:0:0:
320,192,148837,1,0,0:0:0:0:
192,192,148837,128,0,149338:0:0:0:0:
448,192,149338,1,0,0:0:0:0:
320,192,149338,128,0,149838:0:0:0:0:
448,192,149838,1,0,0:0:0:0:
64,192,149838,128,0,150172:0:0:0:0:
320,192,150172,1,0,0:0:0:0:
448,192,150172,1,0,0:0:0:0:
320,192,152841,128,0,153842:0:0:0:0:
64,192,152841,128,0,153842:0:0:0:0:
448,192,153842,1,0,0:0:0:0:
192,192,153842,128,0,154176:0:0:0:0:
320,192,154176,1,0,0:0:0:0:
64,192,154176,128,0,155177:0:0:0:0:
192,192,155177,1,0,0:0:0:0:
320,192,155177,128,0,155511:0:0:0:0:
64,192,155511,1,0,0:0:0:0:
192,192,155511,128,0,156011:0:0:0:0:
64,192,156011,1,0,0:0:0:0:
320,192,156011,128,0,156512:0:0:0:0:
64,192,156512,1,0,0:0:0:0:
448,192,156512,1,0,0:0:0:0:
192,192,157513,1,0,0:0:0:0:
64,192,157513,128,0,157846:0:0:0:0:
192,192,157846,1,0,0:0:0:0:
448,192,157846,128,0,158180:0:0:0:0:
192,192,158180,1,0,0:0:0:0:
320,192,158180,1,0,0:0:0:0:
64,192,158180,128,0,158680:0:0:0:0:
320,192,158680,1,0,0:0:0:0:
448,192,158680,1,0,0:0:0:0:
192,192,158680,1,0,0:0:0:0:
64,192,159515,1,0,0:0:0:0:
448,192,159515,1,0,0:0:0:0:
320,192,159515,128,0,160015:0:0:0:0:
192,192,160015,1,0,0:0:0:0:
448,192,160015,1,0,0:0:0:0:
64,192,160015,1,0,0:0:0:0:
320,192,160849,1,0,0:0:0:0:
192,192,160849,1,0,0:0:0:0:
64,192,160849,128,0,161350:0:0:0:0:
448,192,161350,1,0,0:0:0:0:
320,192,161350,128,0,161850:0:0:0:0:
448,192,161850,1,0,0:0:0:0:
64,192,161850,1,0,0:0:0:0:
192,192,161850,1,0,0:0:0:0:
192,192,162351,1,0,0:0:0:0:
320,192,162518,1,0,0:0:0:0:
448,192,162684,1,0,0:0:0:0:
320,192,162851,1,0,0:0:0:0:
192,192,163018,1,0,0:0:0:0:
64,192,163185,1,0,0:0:0:0:
320,192,163352,1,0,0:0:0:0:
64,192,163519,1,0,0:0:0:0:
192,192,163519,1,0,0:0:0:0:
192,192,163685,1,0,0:0:0:0:
320,192,163685,1,0,0:0:0:0:
320,192,163852,1,8,0:0:0:0:
448,192,163852,1,8,0:0:0:0:
192,192,164019,1,0,0:0:0:0:
320,192,164019,1,0,0:0:0:0:
64,192,164186,1,0,0:0:0:0:
320,192,164186,1,0,0:0:0:0:
448,192,164353,1,0,0:0:0:0:
192,192,164520,1,0,0:0:0:0:
192,192,165020,1,0,0:0:0:0:
448,192,165187,1,0,0:0:0:0:
320,192,165354,1,0,0:0:0:0:
192,192,165521,1,0,0:0:0:0:
448,192,165521,1,0,0:0:0:0:
64,192,165687,1,0,0:0:0:0:
192,192,165854,1,0,0:0:0:0:
448,192,165854,1,0,0:0:0:0:
320,192,166021,1,0,0:0:0:0:
64,192,166188,1,0,0:0:0:0:
320,192,166188,1,0,0:0:0:0:
320,192,166355,1,0,0:0:0:0:
448,192,166522,1,0,0:0:0:0:
192,192,166688,1,0,0:0:0:0:
320,192,166855,1,8,0:0:0:0:
64,192,166855,1,8,0:0:0:0:
448,192,167022,1,0,0:0:0:0:
192,192,167022,1,0,0:0:0:0:
448,192,167189,128,0,167523:0:0:0:0:
64,192,167189,128,0,167689:0:0:0:0:
320,192,167189,1,0,0:0:0:0:
192,192,167356,1,0,0:0:0:0:
192,192,167689,1,0,0:0:0:0:
320,192,167856,1,0,0:0:0:0:
192,192,168023,1,0,0:0:0:0:
448,192,168023,1,0,0:0:0:0:
320,192,168190,1,0,0:0:0:0:
192,192,168357,1,0,0:0:0:0:
320,192,168524,1,0,0:0:0:0:
64,192,168524,1,0,0:0:0:0:
192,192,168690,1,0,0:0:0:0:
64,192,168857,1,0,0:0:0:0:
320,192,168857,1,0,0:0:0:0:
192,192,169024,1,0,0:0:0:0:
320,192,169191,1,0,0:0:0:0:
64,192,169358,1,0,0:0:0:0:
320,192,169525,1,0,0:0:0:0:
64,192,169525,1,0,0:0:0:0:
320,192,169691,1,0,0:0:0:0:
448,192,169691,1,0,0:0:0:0:
448,192,169858,128,0,170192:0:0:0:0:
192,192,169858,128,0,170359:0:0:0:0:
320,192,169858,1,8,0:0:0:0:
64,192,170025,1,0,0:0:0:0:
64,192,170359,1,0,0:0:0:0:
320,192,170526,1,0,0:0:0:0:
192,192,170692,1,0,0:0:0:0:
64,192,170859,1,0,0:0:0:0:
64,192,171026,1,0,0:0:0:0:
192,192,171193,1,0,0:0:0:0:
192,192,171360,1,0,0:0:0:0:
320,192,171360,1,0,0:0:0:0:
192,192,171527,1,0,0:0:0:0:
320,192,171693,1,0,0:0:0:0:
320,192,171860,1,0,0:0:0:0:
448,192,171860,1,0,0:0:0:0:
64,192,172027,1,0,0:0:0:0:
320,192,172194,1,0,0:0:0:0:
192,192,172194,1,0,0:0:0:0:
64,192,172194,1,0,0:0:0:0:
320,192,172361,1,0,0:0:0:0:
448,192,172361,1,0,0:0:0:0:
192,192,172361,1,0,0:0:0:0:
192,192,172528,1,8,0:0:0:0:
448,192,172528,128,0,172861:0:0:0:0:
64,192,172528,128,0,173028:0:0:0:0:
192,192,173028,1,0,0:0:0:0:
320,192,173195,1,0,0:0:0:0:
192,192,173362,1,0,0:0:0:0:
448,192,173529,1,0,0:0:0:0:
448,192,173695,1,0,0:0:0:0:
320,192,173862,1,0,0:0:0:0:
192,192,174029,1,0,0:0:0:0:
64,192,174196,1,0,0:0:0:0:
192,192,174363,1,0,0:0:0:0:
320,192,174363,1,0,0:0:0:0:
448,192,174363,1,0,0:0:0:0:
320,192,174530,1,0,0:0:0:0:
192,192,174530,1,0,0:0:0:0:
64,192,174530,1,0,0:0:0:0:
64,192,174696,1,0,0:0:0:0:
320,192,174696,1,0,0:0:0:0:
448,192,174696,1,0,0:0:0:0:
192,192,174863,1,0,0:0:0:0:
448,192,174863,1,0,0:0:0:0:
64,192,174863,1,0,0:0:0:0:
448,192,175030,1,0,0:0:0:0:
320,192,175030,1,0,0:0:0:0:
64,192,175197,128,0,175697:0:0:0:0:
448,192,175197,128,0,175531:0:0:0:0:
192,192,175197,1,8,0:0:0:0:
320,192,175364,1,0,0:0:0:0:
192,192,175697,1,0,0:0:0:0:
320,192,175864,1,0,0:0:0:0:
192,192,176031,1,0,0:0:0:0:
320,192,176198,1,0,0:0:0:0:
192,192,176365,1,0,0:0:0:0:
64,192,176532,1,0,0:0:0:0:
448,192,176698,1,0,0:0:0:0:
320,192,176865,1,0,0:0:0:0:
192,192,177032,1,0,0:0:0:0:
64,192,177199,1,0,0:0:0:0:
192,192,177366,1,0,0:0:0:0:
320,192,177533,1,0,0:0:0:0:
192,192,177533,1,0,0:0:0:0:
64,192,177699,1,0,0:0:0:0:
448,192,177699,1,0,0:0:0:0:
320,192,177866,1,8,0:0:0:0:
192,192,177866,128,0,178200:0:0:0:0:
448,192,177866,128,0,178367:0:0:0:0:
320,192,178033,1,0,0:0:0:0:
64,192,178367,1,0,0:0:0:0:
192,192,178534,1,0,0:0:0:0:
320,192,178700,1,0,0:0:0:0:
448,192,178867,1,0,0:0:0:0:
448,192,179034,1,0,0:0:0:0:
320,192,179201,1,0,0:0:0:0:
192,192,179368,1,0,0:0:0:0:
64,192,179535,1,0,0:0:0:0:
64,192,179701,1,0,0:0:0:0:
192,192,179868,1,0,0:0:0:0:
64,192,180035,1,0,0:0:0:0:
320,192,180202,1,0,0:0:0:0:
448,192,180202,1,0,0:0:0:0:
448,192,180369,1,0,0:0:0:0:
64,192,180369,1,0,0:0:0:0:
192,192,180536,128,0,181036:0:0:0:0:
320,192,180536,128,0,180869:0:0:0:0:
64,192,180536,1,8,0:0:0:0:
448,192,180702,1,0,0:0:0:0:
320,192,181036,1,0,0:0:0:0:
448,192,181203,1,0,0:0:0:0:
64,192,181370,1,0,0:0:0:0:
320,192,181537,1,0,0:0:0:0:
192,192,181703,1,0,0:0:0:0:
320,192,181870,1,0,0:0:0:0:
64,192,182037,1,0,0:0:0:0:
448,192,182204,5,0,0:0:0:0:
64,192,182371,1,0,0:0:0:0:
192,192,182538,1,0,0:0:0:0:
320,192,182704,1,0,0:0:0:0:
192,192,182871,5,0,0:0:0:0:
320,192,182871,1,0,0:0:0:0:
320,192,183038,1,0,0:0:0:0:
448,192,183038,1,0,0:0:0:0:
192,192,183205,1,0,0:0:0:0:
320,192,183205,1,0,0:0:0:0:
64,192,183372,5,0,0:0:0:0:
448,192,183372,1,0,0:0:0:0:
320,192,183372,1,0,0:0:0:0:
192,192,183372,1,0,0:0:0:0:
