osu file format v14

[General]
AudioFilename: Don't Go ~ Kaai Yuki.mp3
AudioLeadIn: 0
PreviewTime: 60979
Countdown: 0
SampleSet: Soft
StackLeniency: 0.6
Mode: 0
LetterboxInBreaks: 1
WidescreenStoryboard: 1

[Editor]
DistanceSpacing: 1.3
BeatDivisor: 2
GridSize: 4
TimelineZoom: 1.1

[Metadata]
Title:Ikanaide
TitleUnicode:いかないで
Artist:Sohta
ArtistUnicode:想太
Creator:annika69
Version:Normal
Source:
Tags:Vocaloid Ascan Kaai Yuki 歌愛ユキ Dont Don't Go Krauv UndeadCapulet
BeatmapID:664358
BeatmapSetID:295767

[Difficulty]
HPDrainRate:4
CircleSize:3
OverallDifficulty:4
ApproachRate:4
SliderMultiplier:0.7
SliderTickRate:1

[Events]
//Background and Video events
0,0,"ikanaide.jpg",0,0
//Break Periods
2,3571,11989
2,26074,27067
//Storyboard Layer 0 (Background)
//Storyboard Layer 1 (Fail)
//Storyboard Layer 2 (Pass)
//Storyboard Layer 3 (Foreground)
//Storyboard Sound Samples

[TimingPoints]
744,314.13612565445,4,2,2,55,1,0
13309,-100,4,2,2,80,0,0
23361,-100,4,2,1,70,0,0
43466,-100,4,2,2,70,0,0
60429,-100,4,2,1,80,0,0
61058,-100,4,2,2,95,0,1
78649,-100,4,2,2,95,0,0

[Colours]
Combo1 : 192,150,50
Combo2 : 224,65,37
Combo3 : 227,203,64
Combo4 : 139,172,64

[HitObjects]
256,36,744,5,8,0:0:0:0:
312,108,1057,2,8,P|348:100|392:68,2,70
220,116,2000,6,8,P|160:144|124:208,1,140
112,296,2941,1,8,0:0:0:0:
192,340,3256,1,12,0:0:0:0:
296,108,13309,6,0,P|357:138|384:216,1,140
292,200,14251,1,8,0:0:0:0:
289,290,14565,2,0,P|226:262|200:200,1,140
204,108,15508,1,8,0:0:0:0:
112,100,15822,6,0,B|88:124|52:124|52:124|36:164|56:208,1,140
116,260,16764,1,8,0:0:0:0:
208,268,17078,2,0,B|232:240|264:244|264:244|244:204|272:164,1,140
316,96,18021,1,8,0:0:0:0:
396,52,18335,6,4,P|400:135|341:183,1,140,0|0,0:0|0:0,0:0:0:0:
273,175,19277,1,8,0:0:0:0:
316,96,19592,2,0,P|264:40|192:36,1,140
224,128,20534,1,8,0:0:0:0:
300,184,20848,6,0,P|364:172|405:106,1,140
372,28,21791,1,8,0:0:0:0:
316,96,22105,2,8,L|237:83,2,70
403,112,23047,1,12,0:0:0:0:
428,200,23361,6,0,L|452:288,2,70
368,132,24304,2,0,L|344:44,1,70
261,48,24932,1,0,0:0:0:0:
173,72,25246,2,0,P|209:124|289:136,1,140,0|8,0:0|0:0,0:0:0:0:
172,216,28387,6,0,B|212:232|212:232|244:172|308:184,1,140,8|0,0:0|0:0,0:0:0:0:
372,216,29330,2,0,P|416:212|452:192,1,70
496,132,29958,1,0,0:0:0:0:
408,108,30272,2,0,L|324:88,1,70
252,68,30900,5,8,0:0:0:0:
252,68,32157,1,8,0:0:0:0:
76,24,32785,1,8,0:0:0:0:
128,200,33414,6,8,P|156:212|212:212,1,70
284,192,34042,2,8,P|316:201|346:220,2,70
195,215,34984,1,8,0:0:0:0:
136,284,35298,1,8,0:0:0:0:
212,336,35613,6,8,P|248:356|300:368,1,70
364,344,36241,1,8,0:0:0:0:
432,288,36555,2,8,P|452:256|468:204,2,70
348,260,37497,1,8,0:0:0:0:
260,276,37811,1,8,0:0:0:0:
200,212,38126,6,8,P|198:177|209:144,2,70
278,255,39068,2,8,P|289:222|287:187,1,70
200,211,39696,2,8,P|189:244|194:279,1,70
256,344,40325,1,8,0:0:0:0:
344,332,40639,2,8,P|380:328|424:316,1,70
488,268,41267,5,8,0:0:0:0:
488,176,41581,2,8,P|484:140|472:96,1,70
400,60,42209,1,0,0:0:0:0:
400,60,42524,1,0,0:0:0:0:
400,60,42838,1,0,0:0:0:0:
352,236,43466,6,0,P|348:176|264:120,1,140
204,96,44408,1,8,0:0:0:0:
212,184,44723,6,0,B|232:204|260:212|260:212|248:252|256:284|292:312,1,140
356,328,45665,1,8,0:0:0:0:
340,240,45979,6,0,P|416:260|448:328,1,140
512,252,46922,1,8,0:0:0:0:
456,180,47236,2,2,P|416:160|376:152,1,70
300,168,47864,2,2,P|260:188|228:192,1,70
148,212,48492,6,0,P|108:208|72:188,2,70
172,124,49434,1,8,0:0:0:0:
235,191,49748,2,0,B|263:199|279:219|279:219|319:191|315:127,1,140
280,60,50691,5,8,0:0:0:0:
372,72,51005,2,0,P|400:144|376:232,1,140
328,268,51947,1,8,0:0:0:0:
240,260,52262,2,0,P|172:244|136:168,1,140
228,168,53204,1,8,0:0:0:0:
296,108,53518,6,0,B|320:94|320:94|340:120|340:120|384:96|440:120,1,140
420,204,54461,1,8,0:0:0:0:
328,208,54775,2,0,B|304:222|304:222|284:196|284:196|240:220|184:196,1,140
116,172,55717,5,8,0:0:0:0:
132,260,56031,1,0,0:0:0:0:
44,232,56345,1,0,0:0:0:0:
28,144,56660,2,0,L|16:60,2,70,0|8|0,0:0|0:0|0:0,0:0:0:0:
116,172,57602,1,0,0:0:0:0:
132,260,57916,6,0,P|164:300|248:312,1,140
220,224,58859,1,0,0:0:0:0:
187,136,59173,2,0,P|256:139|304:188,1,140
220,224,60115,1,0,0:0:0:0:
132,208,60429,1,0,0:0:0:0:
96,124,60743,1,0,0:0:0:0:
156,56,61058,6,0,P|192:48|256:60,1,70,4|0,0:0|0:0,0:0:0:0:
312,72,61686,2,0,P|346:73|380:65,1,70,0|8,0:0|0:0,0:0:0:0:
464,28,62314,5,0,0:0:0:0:
504,108,62628,2,0,P|511:142|510:176,1,70
468,256,63257,1,8,0:0:0:0:
404,320,63571,6,0,B|384:272|384:272|388:228|388:228|376:176,1,140
348,100,64513,1,8,0:0:0:0:
268,140,64827,2,0,P|183:152|124:104,1,140
92,48,65770,1,8,0:0:0:0:
48,124,66084,5,0,0:0:0:0:
139,125,66398,2,0,L|143:217,1,70
148,284,67026,1,8,0:0:0:0:
64,248,67340,6,0,P|80:344|140:376,1,140
200,356,68283,1,8,0:0:0:0:
148,284,68597,6,0,P|156:248|148:204,1,70
124,128,69225,1,0,0:0:0:0:
212,148,69539,1,8,0:0:0:0:
300,168,69853,2,0,B|324:154|324:154|344:180|344:180|388:156|444:180,1,140
508,204,70796,1,8,0:0:0:0:
472,284,71110,6,0,P|476:324|472:356,1,70
388,316,71738,1,0,0:0:0:0:
308,276,72052,1,8,0:0:0:0:
228,236,72367,6,0,P|224:276|228:308,1,70
140,260,72995,1,0,0:0:0:0:
152,172,73309,6,0,L|164:76,2,70,8|0|0,0:0|0:0|0:0,0:0:0:0:
140,260,74251,2,0,P|178:274|232:272,1,70,0|8,0:0|0:0,0:0:0:0:
272,212,74880,1,0,0:0:0:0:
328,284,75194,1,0,0:0:0:0:
420,284,75508,6,0,P|428:212|400:128,1,140
320,140,76450,1,8,0:0:0:0:
272,212,76764,6,0,P|229:257|134:239,1,140
88,192,77707,1,8,0:0:0:0:
148,128,78021,2,8,L|204:192,2,70,8|8|12,0:0|0:0|0:0,0:0:0:0:
256,192,78963,12,0,81162,0:0:0:0:
