osu file format v14

[General]
AudioFilename: Don't Go ~ Kaai Yuki.mp3
AudioLeadIn: 0
PreviewTime: 60979
Countdown: 0
SampleSet: Soft
StackLeniency: 0.6
Mode: 0
LetterboxInBreaks: 1
WidescreenStoryboard: 1

[Editor]
Bookmarks: 21791,35534
DistanceSpacing: 1.3
BeatDivisor: 4
GridSize: 4
TimelineZoom: 1.7

[Metadata]
Title:Ikanaide
TitleUnicode:いかないで
Artist:Sohta
ArtistUnicode:想太
Creator:annika69
Version:Insane
Source:
Tags:Vocaloid Ascan Kaai Yuki 歌愛ユキ Dont Don't Go Krauv UndeadCapulet
BeatmapID:664357
BeatmapSetID:295767

[Difficulty]
HPDrainRate:6.5
CircleSize:4
OverallDifficulty:7.5
ApproachRate:8.8
SliderMultiplier:1.6
SliderTickRate:1

[Events]
//Background and Video events
0,0,"ikanaide.jpg",0,0
//Break Periods
//Storyboard Layer 0 (Background)
//Storyboard Layer 1 (Fail)
//Storyboard Layer 2 (Pass)
//Storyboard Layer 3 (Foreground)
//Storyboard Sound Samples

[TimingPoints]
744,314.13612565445,4,2,1,55,1,0
744,-133.333333333333,4,2,2,55,0,0
3257,-100,4,2,2,80,0,0
23361,-125,4,2,1,70,0,0
33414,-100,4,2,1,70,0,0
43152,-100,4,2,1,5,0,0
43466,-100,4,2,2,80,0,0
60429,-133.333333333333,4,2,1,80,0,0
61058,-100,4,2,2,95,0,1
78649,-100,4,2,2,55,0,0

[Colours]
Combo1 : 192,150,50
Combo2 : 224,65,37
Combo3 : 227,203,64
Combo4 : 139,172,64

[HitObjects]
216,168,744,6,8,P|131:187|116:228,1,120.000004577637,8|8,2:0|2:0,2:0:0:0:
296,208,1372,2,8,P|320:216|376:208,2,60.0000022888184
239,83,2000,2,8,P|251:121|283:157,1,60.0000022888184
339,141,2314,2,8,P|327:103|295:67,2,60.0000022888184
367,213,2785,5,0,0:0:0:0:
367,213,2942,2,8,P|339:249|299:197,1,120.000004577637,0|4,0:0|0:0,0:0:0:0:
152,208,3571,5,8,0:0:0:0:
180,308,3728,1,8,0:0:0:0:
256,236,3885,2,0,P|256:192|240:144,1,80
156,104,4199,1,8,0:0:0:0:
152,208,4356,1,0,0:0:0:0:
284,336,4513,6,0,P|336:288|348:200,1,160,0|8,0:0|0:0,0:0:0:0:
272,140,4984,1,8,0:0:0:0:
256,236,5141,1,0,0:0:0:0:
348,202,5298,2,0,P|384:172|400:112,1,80,0|8,0:0|0:0,0:0:0:0:
336,60,5612,1,2,0:0:0:0:
256,236,5770,6,0,P|192:248|112:192,1,160,0|8,0:0|0:0,0:0:0:0:
116,96,6241,1,8,0:0:0:0:
204,148,6398,1,0,0:0:0:0:
256,236,6555,2,0,P|288:276|340:296,1,80,0|8,0:0|0:0,0:0:0:0:
424,269,6869,1,2,0:0:0:0:
464,152,7026,6,0,P|485:224|425:269,1,160,0|8,0:0|0:0,0:0:0:0:
332,228,7497,1,8,0:0:0:0:
260,160,7654,2,0,P|184:157|154:226,1,160,0|8,0:0|0:0,0:0:0:0:
212,312,8125,1,0,0:0:0:0:
304,248,8283,6,0,P|368:264|416:352,1,160,0|8,0:0|0:0,0:0:0:0:
312,356,8754,1,8,0:0:0:0:
212,312,8911,1,0,0:0:0:0:
153,225,9068,2,0,P|133:189|129:133,1,80,0|8,0:0|0:0,0:0:0:0:
180,60,9382,1,2,0:0:0:0:
303,159,9539,6,0,P|384:180|444:136,1,160,0|8,0:0|0:0,0:0:0:0:
456,36,10010,1,8,0:0:0:0:
360,76,10167,1,0,0:0:0:0:
303,159,10324,2,0,P|259:179|223:183,1,80,0|8,0:0|0:0,0:0:0:0:
132,140,10638,1,2,0:0:0:0:
63,267,10796,6,0,P|75:183|151:135,1,160,0|8,0:0|0:0,0:0:0:0:
227,179,11267,1,8,0:0:0:0:
223,283,11424,2,0,P|244:317|278:338,1,80
371,295,11738,2,0,P|349:262|315:241,1,80,8|2,0:0|0:0,0:0:0:0:
163,370,12052,6,0,P|99:346|63:258,1,160,0|8,0:0|0:0,0:0:0:0:
116,176,12523,1,8,0:0:0:0:
227,179,12680,1,0,0:0:0:0:
308,244,12837,2,0,P|281:274|229:282,1,80,0|8,0:0|0:0,0:0:0:0:
227,179,13152,1,2,0:0:0:0:
404,152,13309,6,0,P|444:240|428:320,1,160,4|8,0:0|0:0,0:0:0:0:
348,244,13780,1,8,0:0:0:0:
296,332,13937,1,0,0:0:0:0:
196,308,14094,2,0,P|148:304|104:268,1,80,0|8,0:0|0:0,0:0:0:0:
56,208,14408,1,2,0:0:0:0:
196,308,14565,6,0,P|246:284|210:196,1,160,0|8,0:0|0:0,0:0:0:0:
128,152,15037,1,8,0:0:0:0:
134,258,15194,2,0,P|159:287|223:312,1,80
268,284,15508,2,8,P|298:308|319:342,1,80,8|2,0:0|0:0,0:0:0:0:
236,176,15822,6,0,P|180:136|168:44,1,160,0|8,0:0|0:0,0:0:0:0:
268,76,16293,1,8,0:0:0:0:
236,176,16450,2,0,L|204:272,1,80
304,208,16764,2,0,L|329:132,1,80,8|2,0:0|0:0,0:0:0:0:
176,136,17079,6,0,P|128:192|140:280,1,160,0|8,0:0|0:0,0:0:0:0:
236,308,17550,1,8,0:0:0:0:
308,236,17707,2,0,P|381:228|446:289,1,160,0|8,0:0|0:0,0:0:0:0:
352,332,18178,1,0,0:0:0:0:
212,212,18335,6,0,P|236:164|344:140,1,160,0|8,0:0|0:0,0:0:0:0:
408,204,18806,1,8,0:0:0:0:
308,236,18963,1,0,0:0:0:0:
212,212,19120,2,0,P|172:196|140:136,1,80,0|8,0:0|0:0,0:0:0:0:
192,72,19435,1,2,0:0:0:0:
48,156,19592,6,0,P|52:240|120:220,1,160,0|8,0:0|0:0,0:0:0:0:
212,212,20063,1,8,0:0:0:0:
308,236,20220,2,0,P|344:260|412:260,1,80
472,216,20534,1,8,0:0:0:0:
384,160,20691,1,2,0:0:0:0:
236,304,20848,6,0,P|200:344|144:272,1,160,0|8,0:0|0:0,0:0:0:0:
184,124,21319,1,10,0:0:0:0:
308,236,21476,2,0,P|316:298|232:296,1,160,0|8,0:0|0:0,0:0:0:0:
184,124,21948,1,2,0:0:0:0:
344,68,22105,5,8,0:0:0:0:
308,236,22262,1,8,0:0:0:0:
184,124,22419,1,8,0:0:0:0:
344,68,22576,1,8,0:0:0:0:
308,236,22733,2,0,P|228:257|238:180,1,160,8|4,0:0|0:0,0:0:0:0:
331,118,23361,6,0,B|307:154|307:154|319:202|319:202|304:246,1,128
376,316,23833,1,0,0:0:0:0:
464,312,23990,2,0,P|497:258|492:196,1,128
444,128,24461,1,0,0:0:0:0:
388,188,24618,2,0,P|336:232|268:232,1,128
196,204,25089,5,0,0:0:0:0:
116,176,25246,2,0,P|84:179|53:170,1,64
93,90,25560,2,0,P|124:86|155:94,1,64
228,136,25874,6,0,P|288:168|368:156,1,128,8|0,0:0|0:0,0:0:0:0:
424,140,26346,1,0,0:0:0:0:
408,220,26503,2,0,L|408:300,2,64
310,232,26974,2,0,L|310:168,2,64
214,214,27445,2,0,L|214:278,2,64
310,232,27916,2,0,L|310:168,2,64
96,200,28387,6,0,B|128:192|128:192|160:216|160:216|196:212|196:212|224:216,1,128,8|0,0:0|0:0,0:0:0:0:
310,232,28859,1,0,0:0:0:0:
388,256,29016,2,0,P|421:202|416:140,1,128
356,84,29487,1,0,0:0:0:0:
276,60,29644,1,0,0:0:0:0:
192,64,29801,2,0,P|161:58|134:40,2,64
276,60,30272,1,0,0:0:0:0:
296,140,30429,1,0,0:0:0:0:
328,216,30586,2,0,L|404:224,1,64
476,236,30901,6,0,P|446:290|376:306,1,128,8|0,0:0|0:0,0:0:0:0:
304,284,31373,1,0,0:0:0:0:
228,248,31529,2,0,L|228:328,2,64
136,260,32000,2,0,L|136:196,2,64
46,246,32471,2,0,L|46:310,2,64
72,136,32942,1,0,0:0:0:0:
160,212,33100,1,0,0:0:0:0:
188,100,33257,1,0,0:0:0:0:
272,180,33414,6,0,B|282:209|279:259,1,80,8|0,0:0|0:0,0:0:0:0:
240,356,33728,1,8,0:0:0:0:
172,280,33885,1,0,0:0:0:0:
72,304,34042,2,0,B|69:254|79:224,1,80,8|0,0:0|0:0,0:0:0:0:
172,280,34356,1,8,0:0:0:0:
244,204,34513,1,0,0:0:0:0:
328,268,34670,2,0,P|360:228|376:184,1,80,8|0,0:0|0:0,0:0:0:0:
428,116,34984,2,0,P|460:156|476:200,2,80,8|0|0,0:0|0:0|0:0,0:0:0:0:
320,123,35456,1,0,0:0:0:0:
216,108,35613,6,0,P|184:68|180:12,1,80,8|0,0:0|0:0,0:0:0:0:
276,28,35927,2,8,P|344:56|308:128,1,160
244,196,36398,1,0,0:0:0:0:
236,92,36555,1,8,0:0:0:0:
332,132,36712,1,0,0:0:0:0:
236,172,36869,1,0,0:0:0:0:
252,68,37026,1,0,0:0:0:0:
348,108,37183,2,8,P|387:169|316:208,1,160
252,140,37654,5,0,0:0:0:0:
356,136,37812,1,8,0:0:0:0:
312,232,37969,1,0,0:0:0:0:
236,164,38126,6,0,L|168:104,2,80,8|0|8,0:0|0:0|0:0,0:0:0:0:
392,304,38754,1,8,0:0:0:0:
392,304,39068,2,8,B|428:304|452:332|452:332|496:288|464:236,1,160
204,164,39696,1,8,0:0:0:0:
204,164,40011,2,8,B|168:164|144:192|144:192|100:148|132:96,2,160
204,164,40953,6,8,P|159:224|199:288,1,160
292,332,41424,1,0,0:0:0:0:
280,228,41581,1,8,0:0:0:0:
380,264,41738,1,0,0:0:0:0:
360,164,41895,1,8,0:0:0:0:
460,196,42052,1,0,0:0:0:0:
460,196,42209,2,8,P|484:268|436:348,2,160
380,264,43152,6,8,P|308:292|232:240,1,160
220,152,43623,5,0,0:0:0:0:
320,188,43780,1,8,0:0:0:0:
240,254,43937,1,8,0:0:0:0:
144,216,44094,2,8,P|64:220|13:289,1,160,0|8,0:0|0:0,0:0:0:0:
112,316,44565,1,0,0:0:0:0:
240,254,44723,6,0,P|248:200|176:116,1,160,0|8,0:0|0:0,0:0:0:0:
144,216,45194,1,8,0:0:0:0:
112,316,45351,1,0,0:0:0:0:
212,352,45508,2,0,P|251:353|290:342,1,80,0|8,0:0|0:0,0:0:0:0:
380,288,45822,1,0,0:0:0:0:
416,156,45979,6,0,P|404:108|312:148,1,160,0|8,0:0|0:0,0:0:0:0:
340,224,46450,1,8,0:0:0:0:
416,156,46607,1,0,0:0:0:0:
315,125,46764,2,0,P|268:116|216:124,1,80,0|8,0:0|0:0,0:0:0:0:
140,156,47079,1,0,0:0:0:0:
312,248,47236,6,0,P|356:187|315:124,1,160,0|8,0:0|0:0,0:0:0:0:
212,140,47707,1,8,0:0:0:0:
168,236,47864,2,0,P|105:277|44:233,1,160,0|8,0:0|0:0,0:0:0:0:
108,152,48335,1,0,0:0:0:0:
316,128,48492,6,0,P|360:120|416:80,1,80
324,24,48806,2,8,P|280:32|224:72,1,80
212,140,49120,2,0,P|244:208|352:224,1,160,0|8,0:0|0:0,0:0:0:0:
108,152,49592,5,0,0:0:0:0:
108,152,49749,2,0,P|64:160|8:200,1,80
100,256,50063,2,8,P|144:248|200:208,1,80
212,140,50377,2,0,P|180:72|72:56,1,160,0|8,0:0|0:0,0:0:0:0:
224,216,50848,6,0,P|238:257|284:292,1,80
364,304,51162,1,0,0:0:0:0:
452,248,51319,2,8,P|464:206|446:151,1,80
356,200,51634,2,0,P|304:244|216:200,1,160,0|8,0:0|0:0,0:0:0:0:
176,116,52105,1,0,0:0:0:0:
348,68,52262,6,0,P|388:118|348:204,1,160,0|8,0:0|0:0,0:0:0:0:
280,128,52733,1,8,0:0:0:0:
176,116,52890,2,0,P|114:134|97:227,1,160,0|8,0:0|0:0,0:0:0:0:
195,203,53361,1,0,0:0:0:0:
288,24,53518,5,0,0:0:0:0:
280,128,53675,1,0,0:0:0:0:
372,80,53833,2,8,P|384:124|368:184,1,80
300,224,54147,2,0,P|336:292|396:232,1,160,0|8,0:0|0:0,0:0:0:0:
379,157,54618,1,0,0:0:0:0:
204,192,54775,6,0,P|192:236|208:296,1,80
300,224,55089,1,8,0:0:0:0:
280,128,55246,1,8,0:0:0:0:
180,100,55404,2,0,P|117:127|169:193,1,160,0|8,0:0|0:0,0:0:0:0:
272,212,55874,5,0,0:0:0:0:
280,128,56031,2,8,P|320:144|360:204,1,80,0|0,0:0|0:0,0:0:0:0:
448,188,56346,2,8,P|432:228|372:268,1,80,8|8,2:0|2:0,2:0:0:0:
308,280,56660,2,0,P|244:256|192:164,1,160,0|8,0:0|0:0,0:0:0:0:
188,80,57131,1,0,0:0:0:0:
280,128,57288,6,0,P|351:175|388:120,1,160,0|8,0:0|0:0,0:0:0:0:
408,28,57759,1,8,0:0:0:0:
440,248,57916,2,0,P|450:172|387:129,1,160,0|8,0:0|0:0,0:0:0:0:
300,184,58387,1,0,0:0:0:0:
196,184,58545,6,0,P|133:140|143:65,1,160,0|8,0:0|0:0,0:0:0:0:
240,28,59016,1,8,0:0:0:0:
296,116,59173,2,0,P|320:204|264:284,1,160,0|8,0:0|0:0,0:0:0:0:
200,312,59644,1,0,0:0:0:0:
128,236,59801,6,0,B|96:260|96:260|120:132,1,160,0|8,0:0|0:0,0:3:0:0:
188,64,60272,1,8,0:0:0:0:
252,146,60429,6,0,P|328:196|420:172,1,180.000006866455
456,256,61058,6,0,P|488:224|496:176,1,80,4|0,0:0|0:0,0:0:0:0:
358,158,61372,1,8,0:0:0:0:
392,312,61529,1,8,0:0:0:0:
282,259,61686,2,0,P|353:233|358:158,1,160,0|10,0:0|0:0,0:0:0:0:
312,48,62157,5,0,0:0:0:0:
232,136,62314,1,0,0:0:0:0:
328,208,62471,1,0,0:0:0:0:
344,88,62628,1,8,0:0:0:0:
220,60,62785,1,8,0:0:0:0:
256,176,62942,2,0,P|328:216|424:180,1,160,0|10,0:0|0:0,0:0:0:0:
344,88,63414,6,0,P|296:72|266:70,1,80
146,102,63728,1,0,0:0:0:0:
84,204,63885,2,0,P|36:220|6:221,1,80,8|8,0:0|0:0,0:0:0:0:
120,268,64199,2,0,P|168:252|197:250,1,80
316,276,64513,1,8,0:0:0:0:
232,360,64670,1,0,0:0:0:0:
84,204,64827,6,0,P|68:168|160:108,1,160,0|8,0:0|0:0,0:0:0:0:
252,156,65298,1,8,0:0:0:0:
316,256,65456,2,0,P|385:228|378:154,1,160,0|8,0:0|0:0,0:0:0:0:
252,156,65927,1,0,0:0:0:0:
172,309,66084,6,0,P|202:344|252:365,1,80
352,348,66398,1,8,0:0:0:0:
284,252,66555,1,8,0:0:0:0:
172,309,66712,2,0,P|136:300|96:244,1,80
188,184,67026,1,10,0:0:0:0:
376,264,67183,6,0,P|412:232|420:172,1,80
360,100,67497,2,0,P|324:132|316:192,2,80,0|8|8,0:0|0:0|0:0,0:0:0:0:
421,202,67969,2,0,P|344:272|260:272,1,160,0|10,0:0|0:0,0:0:0:0:
188,184,68440,6,0,P|143:183|94:208,1,80
168,300,68754,1,0,0:0:0:0:
284,332,68911,2,8,P|328:332|377:307,1,80
300,216,69225,2,0,P|336:190|362:142,1,80
252,104,69539,2,0,P|252:59|227:10,1,80,8|0,0:0|0:0,0:0:0:0:
111,201,69853,6,8,P|123:275|209:266,1,160,0|8,0:0|0:0,0:0:0:0:
300,216,70325,1,8,0:0:0:0:
420,240,70482,2,0,P|480:200|424:124,1,160,0|8,0:0|0:0,0:0:0:0:
332,116,70953,1,0,0:0:0:0:
268,216,71110,6,0,P|276:304|332:360,1,160,0|8,0:0|0:0,0:0:0:0:
440,336,71581,1,8,0:0:0:0:
488,228,71738,2,0,P|496:156|436:56,2,160,0|10|0,0:0|0:0|0:0,0:0:0:0:
440,336,72524,5,0,0:0:0:0:
322,354,72681,1,8,0:0:0:0:
236,272,72838,2,0,P|184:252|128:256,1,80,8|0,0:0|0:0,0:0:0:0:
48,292,73152,1,0,0:0:0:0:
132,160,73309,6,0,P|184:180|240:176,1,80,8|0,0:0|0:0,0:0:0:0:
324,152,73623,1,0,0:0:0:0:
412,68,73780,2,0,P|464:48|520:52,2,80,0|8|8,0:0|0:0|0:0,0:0:0:0:
324,152,74251,2,0,B|296:172|272:172|272:172|240:112|160:128,2,160,0|8|0,0:0|0:0|0:0,0:0:0:0:
324,152,75194,1,10,0:0:0:0:
71,216,75508,6,0,P|19:328|123:268,1,320
84,28,76450,1,8,0:0:0:0:
308,116,76764,1,8,0:0:0:0:
124,272,77079,1,8,0:0:0:0:
204,44,77393,5,8,0:0:0:0:
348,236,77707,1,8,0:0:0:0:
124,148,78021,2,8,B|84:124|80:76|80:76|48:44|-4:56,2,160
364,124,78963,6,8,P|392:108|436:56,2,80
252,160,79435,1,8,0:0:0:0:
284,44,79592,5,8,0:0:0:0:
332,152,79749,1,8,0:0:0:0:
216,140,79906,1,8,0:0:0:0:
312,68,80063,1,8,0:0:0:0:
324,188,80220,5,8,0:0:0:0:
232,108,80377,1,8,0:0:0:0:
348,76,80534,1,8,0:0:0:0:
288,180,80691,5,0,0:0:0:0:
192,256,80848,2,8,B|156:276|88:252|88:252|120:296,1,160,0|12,0:0|0:0,0:0:0:0:
