osu file format v9

[General]
AudioFilename: soda stereo - la historia de soda estereo - de musica ligera.mp3
AudioLeadIn: 0
PreviewTime: 54286
Countdown: 0
SampleSet: Soft
StackLeniency: 0.7
Mode: 0
LetterboxInBreaks: 1

[Editor]
Bookmarks: 23620,69982,131798,162706,195063,195546
DistanceSpacing: 1
BeatDivisor: 4
GridSize: 8

[Metadata]
Title:De Musica Ligera
Artist:Soda Stereo
Creator:Lizbeth
Version:Normal
Source:
Tags:Gustavo Cerati

[Difficulty]
HPDrainRate:5
CircleSize:3
OverallDifficulty:4
ApproachRate:4
SliderMultiplier:1.7
SliderTickRate:1

[Events]
//Background and Video events
0,0,"BG.jpg"
//Break Periods
2,70194,84114
2,116575,130495
//Storyboard Layer 0 (Background)
//Storyboard Layer 1 (Fail)
//Storyboard Layer 2 (Pass)
//Storyboard Layer 3 (Foreground)
//Storyboard Sound Samples
//Background Colour Transformations
3,100,163,162,255

[TimingPoints]
8154,483.130686850793,4,2,1,70,1,0
40402,-100,4,2,1,40,0,0
41610,-100,4,2,1,70,0,0
44267,-100,4,2,1,39,0,0
45595,-100,4,2,1,70,0,0
48131,-100,4,2,1,39,0,0
49339,-100,4,2,1,70,0,0
51996,-100,4,2,1,41,0,0
54291,-100,4,2,1,70,0,0
54528,-100,4,2,1,69,0,1
54653,-100,4,2,1,70,0,1
55861,-100,4,2,1,41,0,1
57069,-100,4,2,1,71,0,1
59726,-100,4,2,1,39,0,1
61054,-100,4,2,1,71,0,1
63590,-100,4,2,1,40,0,1
64919,-100,4,2,1,71,0,1
67455,-100,4,2,1,30,0,1
68663,-100,4,2,1,71,0,1
69859,-100,4,2,1,30,0,0
70112,-100,4,2,1,71,0,0
86779,-100,4,2,1,40,0,0
87986,-100,4,2,1,70,0,0
90643,-100,4,2,1,40,0,0
91851,-100,4,2,1,70,0,0
94508,-100,4,2,1,39,0,0
95716,-100,4,2,1,69,0,0
98373,-100,4,2,1,40,0,0
99098,-100,4,2,1,31,0,0
100915,-100,4,2,1,70,0,1
102238,-100,4,2,1,40,0,1
103445,-100,4,2,1,70,0,1
106102,-100,4,2,1,40,0,1
107310,-100,4,2,1,70,0,1
109967,-100,4,2,1,40,0,1
111175,-100,4,2,1,70,0,1
113832,-100,4,2,1,40,0,1
116344,-100,4,2,1,41,0,0
131344,-100,4,2,1,71,0,0
147295,-100,4,2,1,70,0,1
148614,-100,4,2,1,39,0,1
149822,-100,4,2,1,70,0,1
152479,-100,4,2,1,40,0,1
153687,-100,4,2,1,70,0,1
156344,-100,4,2,1,40,0,1
157552,-100,4,2,1,70,0,1
160209,-100,4,2,1,41,0,1
161416,-100,4,2,1,70,0,0
162706,-100,4,2,1,69,0,0
168297,-100,4,2,1,14,0,0
168901,-100,4,2,1,24,0,0
169384,-100,4,2,1,40,0,0
169867,-100,4,2,1,56,0,0
170351,-100,4,2,1,69,0,0
170837,-100,4,2,1,69,0,0
171803,-100,4,2,1,41,0,0
173011,-100,4,2,1,69,0,0
175668,-100,4,2,1,39,0,0
176996,-100,4,2,1,71,0,0
179532,-100,4,2,1,30,0,0
180861,-100,4,2,1,79,0,0
181706,-100,4,2,1,18,0,0
182189,-100,4,2,1,23,0,0
182912,-100,4,2,1,32,0,0
183878,-100,4,2,1,41,0,0
184845,-100,4,2,1,51,0,0
185933,-100,4,2,1,31,0,0
194389,482.9401395697,4,2,1,29,1,0

[Colours]
Combo1 : 183,109,0
Combo2 : 3,143,3
Combo3 : 3,3,152
Combo4 : 179,4,4

[HitObjects]
448,312,23614,2,0,L|256:312,1,170,0|8
120,256,24580,2,0,L|216:256,2,85,0|0|8
64,96,25546,6,0,L|264:96,1,170,0|8
408,96,26512,1,0
408,96,26754,1,0
408,96,26996,1,8
384,264,27479,6,0,L|288:96,1,170,0|8
128,128,28445,2,0,L|216:288,1,170,0|8
384,280,29411,5,0
384,112,29894,1,8
224,184,30378,2,0,L|128:184,2,85,0|0|8
96,72,31344,5,0
16,224,31827,1,8
96,72,32310,1,0
256,64,32793,2,0,L|256:256,1,170,8|0
352,88,33759,1,8
440,232,34243,2,0,L|440:40,3,170,0|8|0|8
272,64,36175,6,0,L|176:64,2,85,0|0|8
416,160,37141,2,0,L|224:160,1,170,0|8
392,256,38108,2,0,L|500:256,2,85,0|0|8
248,344,39074,6,0,L|72:344,2,170,0|8|0
256,176,40523,5,12
256,176,41006,1,12
256,176,41490,1,12
128,64,41973,6,0,L|32:64,2,85,0|0|8
296,64,42939,2,0,L|384:64,2,85,0|0|8
216,216,43905,2,0,L|216:128,1,85
216,131,44388,5,12
216,131,44871,1,12
216,131,45355,1,12
72,40,45838,6,0,L|112:232,1,170,0|8
232,328,46804,2,0,L|192:152,2,170,0|8|0
400,328,48253,5,12
400,328,48736,1,12
400,328,49220,1,12
392,160,49703,6,0,L|392:64,2,85,0|0|8
224,160,50669,2,0,L|224:264,2,85,0|0|8
80,72,51635,2,0,L|80:168,1,85
80,157,52118,5,12
80,157,52602,1,12
80,157,53085,1,12
224,240,53568,6,0,L|224:336,2,85,0|0|8
256,72,54534,6,0,B|328:16|392:64,1,170,4|8
288,192,55500,2,0,B|240:232|176:168,1,85
209,194,55983,5,12
209,194,56467,1,12
209,194,56950,1,12
104,56,57433,6,8,B|40:136|120:248,1,170,0|8
256,144,58399,2,0,B|312:240|240:336,2,170,0|8|0
400,56,59848,5,12
400,56,60332,1,12
400,56,60815,1,12
400,224,61298,6,0,B|448:240|496:224,2,85,0|0|8
240,176,62264,2,0,B|152:128|56:184,2,170,0|8|0
160,328,63714,5,12
160,328,64197,1,12
160,328,64680,1,12
96,168,65163,6,0,B|80:120|112:64,2,85,0|0|8
248,88,66129,2,0,B|272:136|240:200,2,85,0|0|8
176,240,67095,1,0
176,72,67579,5,12
176,72,68062,1,12
176,72,68545,1,12
336,128,69028,6,0,B|368:176|320:232,2,85,0|0|8
176,176,69994,1,4
56,56,85454,6,0,B|56:240,1,170,0|8
200,320,86421,1,0
200,320,86662,1,0
200,320,86904,5,12
288,176,87387,1,12
376,32,87870,1,12
448,184,88353,6,0,B|320:320,1,170,0|8
216,216,89319,2,0,B|80:360,2,170,0|8|0
376,152,90769,5,12
208,104,91252,1,12
48,160,91735,1,12
176,272,92218,6,0,B|48:272,2,85,0|0|8
280,136,93185,2,0,B|472:136,2,170,0|8|0
352,296,94634,5,12
216,184,95117,1,12
88,72,95600,1,12
264,72,96083,6,0,B|264:168,2,85,0|0|8
432,72,97050,1,0
432,72,97291,1,0
432,72,97533,2,0,B|432:248,1,170,8|0
288,336,98499,5,12
160,224,98982,1,12
160,224,99224,2,0,B|96:144,6,85,8|8|8|8|8|8|8
256,184,100915,6,0,B|352:232|445:129,2,170,4|8|0
176,40,102364,5,12
56,160,102847,1,12
144,304,103330,1,12
312,328,103813,6,0,B|248:232|368:184,1,170,0|8
504,120,104780,2,0,B|544:232|424:256,2,170,0|8|0
344,72,106229,5,12
184,24,106712,1,12
128,184,107195,1,12
232,320,107678,6,0,B|184:288|144:336,2,85,0|0|8
400,328,108645,2,0,B|456:256|416:144,1,170,0|8
256,208,109611,1,0
256,208,109853,1,0
256,208,110094,5,12
152,72,110577,1,12
64,216,111060,1,12
200,320,111543,6,0,B|320:352|376:240,1,170,0|8
400,112,112510,2,0,B|280:128|264:216,2,170,0|8|0
240,56,113959,5,12
72,80,114442,1,12
48,248,114925,1,12
256,192,115167,12,4,116375
64,336,131835,6,0,B|64:144,1,170,0|8
136,8,132801,2,0,B|136:208,1,170,0|8
192,344,133767,1,0
264,192,134251,1,8
352,48,134734,1,0
264,192,135217,6,0,B|376:192,2,85,8|0|0
136,80,136183,1,8
96,248,136666,1,0
264,192,137149,1,8
136,80,137633,2,0,B|48:80,2,85,0|0|8
304,80,138599,6,0,B|496:80,1,170,0|8
344,184,139565,2,0,B|144:184,2,170,0|8|0
344,184,140773,1,0
344,184,141014,1,8
448,320,141498,5,0
448,320,141739,1,0
448,320,141981,1,8
280,320,142464,1,0
280,320,142705,1,0
280,320,142947,1,8
112,320,143430,6,0,B|160:144,2,170,0|8|0
112,320,144638,1,0
112,320,144879,1,8
64,160,145363,5,0
64,160,145604,1,0
64,160,145846,1,8
184,40,146329,1,0
184,40,146570,1,0
184,40,146812,1,8
224,208,147295,6,0,B|296:264|400:192,1,170,4|8
280,72,148261,2,0,B|224:40|184:80,1,85
199,67,148745,5,12
96,200,149228,1,12
192,344,149711,1,12
312,224,150194,5,0
312,224,150435,1,0
312,224,150677,1,8
440,112,151160,2,0,B|400:16|280:48,1,170,0|8
136,88,152126,5,0
136,88,152368,1,0
136,88,152610,5,12
88,248,153093,1,12
216,360,153576,1,12
256,192,154059,2,0,B|288:152|344:176,2,85,0|0|8
368,320,155025,5,0
368,320,155267,2,0,B|430:323|461:254,1,85,0|8
376,232,155750,2,0,B|272:216|240:320,1,170
160,312,156475,5,12
56,176,156958,1,12
136,24,157441,1,12
240,160,157924,5,0
240,160,158166,1,0
240,160,158407,2,0,B|328:96|424:176,2,170,8|0|8
304,216,159615,2,0,B|208:280|128:208,1,170
120,144,160340,5,12
256,32,160823,1,12
392,144,161306,1,12
336,304,161789,2,0,B|166:304,2,170,0|8|0
256,152,163238,5,8
88,152,163722,2,0,B|88:328,1,170,0|8
248,256,164688,2,0,B|248:352,2,85,0|0|8
392,160,165654,2,0,B|392:256,2,85,0|0|8
240,96,166620,6,0,B|56:96,1,170,0|8
208,192,167587,2,0,B|400:192,1,170,0|8
464,336,168553,6,0,B|368:336,1,85,8|0
344,256,169036,2,0,B|240:256,1,85,8|0
216,328,169519,2,0,B|128:328,1,85,8|0
88,256,170002,2,0,B|0:256,1,85,8|0
24,176,170485,2,0,B|384:176,1,340,4|0
392,344,171935,5,12
472,192,172418,1,12
376,56,172901,1,12
272,192,173384,6,0,B|88:192,2,170,0|8|0
120,272,174834,2,0,B|290:272,1,170,8|0
136,352,175800,5,12
304,352,176283,1,12
432,240,176766,1,12
352,104,177249,5,0
248,240,177732,1,8
152,88,178216,2,0,B|40:88,1,85
112,168,178699,2,0,B|208:168,1,85,8|0
168,248,179182,2,0,B|80:248,1,85
104,328,179665,5,12
256,248,180148,1,12
408,328,180631,1,12
416,168,181114,6,0,B|488:224,2,85,0|0|8
288,56,182081,6,0,B|220:3,1,85,4|0
160,64,182564,2,0,B|227:116,1,85,8|0
168,176,183047,2,0,B|100:123,1,85,8|0
48,192,183530,2,0,B|115:244,1,85,8|0
128,328,184013,6,0,B|240:328,1,85,8|0
192,248,184496,2,0,B|288:248,1,85,8|0
296,328,184979,2,0,B|400:328,1,85,8|0
352,248,185462,2,0,B|456:248,1,85,8|0
256,192,185946,12,4,194389
256,192,194871,5,4
