osu file format v9

[General]
AudioFilename: soda stereo - la historia de soda estereo - de musica ligera.mp3
AudioLeadIn: 0
PreviewTime: 54286
Countdown: 0
SampleSet: Soft
StackLeniency: 0.7
Mode: 0
LetterboxInBreaks: 1

[Editor]
Bookmarks: 23620,69982,131798,162706,195063,195546
DistanceSpacing: 0.8
BeatDivisor: 4
GridSize: 8

[Metadata]
Title:De Musica Ligera
Artist:Soda Stereo
Creator:Lizbeth
Version:Facil
Source:
Tags:Gustavo Cerati

[Difficulty]
HPDrainRate:2
CircleSize:3
OverallDifficulty:3
ApproachRate:3
SliderMultiplier:0.999999999999999
SliderTickRate:1

[Events]
//Background and Video events
0,0,"BG.jpg"
//Break Periods
2,70194,83994
2,116575,130375
//Storyboard Layer 0 (Background)
//Storyboard Layer 1 (Fail)
//Storyboard Layer 2 (Pass)
//Storyboard Layer 3 (Foreground)
//Storyboard Sound Samples
//Background Colour Transformations
3,100,163,162,255

[TimingPoints]
8154,483.130686850793,4,2,1,70,1,0
40402,-100,4,2,1,40,0,0
41610,-100,4,2,1,70,0,0
44267,-100,4,2,1,39,0,0
45595,-100,4,2,1,70,0,0
48131,-100,4,2,1,39,0,0
49339,-100,4,2,1,70,0,0
51996,-100,4,2,1,41,0,0
53928,-100,4,2,1,31,0,0
54528,-100,4,2,1,32,0,1
54653,-100,4,2,1,70,0,1
55861,-100,4,2,1,41,0,1
57069,-100,4,2,1,71,0,1
59726,-100,4,2,1,39,0,1
61054,-100,4,2,1,71,0,1
63590,-100,4,2,1,40,0,1
64919,-100,4,2,1,71,0,1
67455,-100,4,2,1,30,0,1
68663,-100,4,2,1,71,0,1
69739,-100,4,2,1,30,0,1
70112,-100,4,2,1,71,0,0
86779,-100,4,2,1,40,0,0
87986,-100,4,2,1,70,0,0
90643,-100,4,2,1,40,0,0
91851,-100,4,2,1,70,0,0
94508,-100,4,2,1,39,0,0
95716,-100,4,2,1,69,0,0
98373,-100,4,2,1,40,0,0
100668,-100,4,2,1,69,0,0
100915,-100,4,2,1,70,0,1
102238,-100,4,2,1,40,0,1
103445,-100,4,2,1,70,0,1
106102,-100,4,2,1,40,0,1
107310,-100,4,2,1,70,0,1
109967,-100,4,2,1,40,0,1
111175,-100,4,2,1,70,0,1
113832,-100,4,2,1,40,0,1
116344,-100,4,2,1,41,0,0
131344,-100,4,2,1,71,0,0
147295,-100,4,2,1,70,0,1
148614,-100,4,2,1,39,0,1
149822,-100,4,2,1,70,0,1
152479,-100,4,2,1,40,0,1
153687,-100,4,2,1,70,0,1
156344,-100,4,2,1,40,0,1
157552,-100,4,2,1,70,0,1
160209,-100,4,2,1,41,0,1
161416,-100,4,2,1,70,0,0
162706,-100,4,2,1,69,0,0
170837,-100,4,2,1,69,0,0
171803,-100,4,2,1,41,0,0
173011,-100,4,2,1,69,0,0
175668,-100,4,2,1,39,0,0
176996,-100,4,2,1,71,0,0
179532,-100,4,2,1,30,0,0
180861,-100,4,2,1,79,0,0
181706,-100,4,2,1,71,0,0
182189,-100,4,2,1,71,0,0
185692,-100,4,2,1,29,0,0
194389,482.9401395697,4,2,1,29,1,0

[Colours]
Combo1 : 183,109,0
Combo2 : 3,143,3
Combo3 : 3,3,152
Combo4 : 179,4,4

[HitObjects]
376,168,23614,5,0
376,168,24097,1,8
304,312,25063,1,8
232,168,26029,1,8
160,312,26996,6,0,B|16:144,1,200,8|8
120,24,28928,2,0,B|264:176,1,200,8|8
400,248,30861,6,8,B|176:248,2,200
280,136,33759,2,8,B|72:136,2,200
424,72,36658,5,8
424,72,37141,1,0
424,72,37624,1,8
424,72,38108,1,0
424,72,38591,1,8
424,72,39074,6,8,B|312:72,1,99.9999999999999,0|8
160,72,40523,1,12
160,72,41006,1,12
160,72,41490,1,12
56,240,42939,6,0,B|176:240,1,99.9999999999999,0|8
320,240,44388,1,12
320,240,44871,1,12
320,240,45355,1,12
472,336,46804,6,0,B|416:232,1,99.9999999999999,0|8
352,104,48253,1,12
352,104,48736,1,12
352,104,49220,1,12
168,88,50669,6,0,B|120:184,1,99.9999999999999,0|8
48,320,52118,1,12
48,320,52602,1,12
48,320,53085,1,12
48,320,53568,1,8
48,320,54051,1,8
48,320,54534,6,0,B|104:360|144:296,1,99.9999999999999,12|8
200,160,55983,1,12
248,96,56467,1,12
328,120,56950,1,12
440,328,58399,6,0,B|376:360|352:296,1,99.9999999999999,0|8
272,168,59848,1,12
224,104,60332,1,12
144,128,60815,1,12
48,336,62264,6,0,B|32:272|96:248,1,99.9999999999999,0|8
248,256,63714,1,12
328,264,64197,1,12
392,216,64680,1,12
328,168,65163,6,0,B|279:196|239:143,1,99.9999999999999,0|8
269,71,66129,2,0,B|230:20|182:48,1,99.9999999999999,0|8
144,200,67579,1,12
88,256,68062,1,12
16,216,68545,1,12
64,152,69028,2,0,B|96:104|40:56,2,99.9999999999999,0|8|4
72,72,85454,6,0,B|184:72,2,99.9999999999999,0|8|0
72,72,86904,1,12
72,72,87387,1,12
72,72,87870,1,12
440,312,89319,6,0,B|328:312,2,99.9999999999999,0|8|0
440,312,90769,1,12
440,312,91252,1,12
440,312,91735,1,12
408,72,93185,5,0
408,72,93668,2,0,B|360:184,1,99.9999999999999,8|0
368,163,94634,1,12
368,163,95117,1,12
368,163,95600,1,12
128,192,97050,5,0
128,192,97533,2,0,B|192:272,1,99.9999999999999,8|0
190,270,98499,1,12
190,270,98982,1,12
190,270,99465,1,8
190,270,99948,1,8
190,270,100431,1,8
176,192,100915,6,0,B|128:144|184:88,2,99.9999999999999,4|8|0
256,192,102364,1,12
336,192,102847,1,12
416,192,103330,1,12
96,232,104780,6,0,B|48:280|104:336,2,99.9999999999999,0|8|0
176,232,106229,1,12
256,232,106712,1,12
336,232,107195,1,12
152,80,108645,6,0,B|192:40|248:80,2,99.9999999999999,0|8|0
104,144,110094,1,12
56,208,110577,1,12
8,272,111060,1,12
248,296,112510,6,0,B|288:336|344:296,2,99.9999999999999,0|8|0
296,232,113959,1,12
352,176,114442,1,12
408,120,114925,1,12
456,56,115409,2,0,B|405:19|360:56,2,99.9999999999999,8|8|12
424,64,131835,6,0,B|312:64,1,99.9999999999999,0|8
288,136,132801,2,0,B|184:136,1,99.9999999999999,0|8
152,64,133767,2,0,B|32:64,3,99.9999999999999,0|8|0|8
80,136,135700,6,0,B|80:240,1,99.9999999999999,0|8
152,208,136666,2,0,B|152:312,1,99.9999999999999,0|8
224,272,137633,2,0,B|224:372,3,99.9999999999999,0|8|0|8
296,328,139565,6,0,B|400:272,3,99.9999999999999,0|8|0|8
360,200,141498,2,0,B|448:152,2,99.9999999999999,0|8|0
280,200,142947,6,8,B|56:200,2,200
280,200,145363,1,0
280,200,145846,1,8
280,200,146329,1,0
280,200,146812,1,8
240,272,147295,6,0,B|168:288|144:224,2,99.9999999999999,4|8|0
320,272,148745,1,12
400,272,149228,1,12
480,272,149711,1,12
328,88,151160,6,0,B|400:72|424:136,2,99.9999999999999,0|8|0
248,88,152610,1,12
168,88,153093,1,12
88,88,153576,1,12
256,256,155025,6,0,B|256:184|208:176,2,99.9999999999999,0|8|0
176,256,156475,1,12
96,256,156958,1,12
16,256,157441,1,12
40,176,157924,6,0,B|112:192|128:112,1,99.9999999999999,0|8
200,160,158890,2,0,B|192:104|248:80,2,99.9999999999999,0|8|0
280,160,160340,1,12
360,160,160823,1,12
440,160,161306,1,12
440,240,161789,6,0,B|392:328|256:320,1,200
268,320,163238,1,8
128,240,164205,1,8
232,112,165171,1,8
352,216,166137,1,8
328,56,167103,6,8,B|104:56,1,200
264,144,169036,2,8,B|480:144,1,200
456,224,170485,6,0,B|456:336,2,99.9999999999999,0|8|0
456,144,171935,1,12
392,96,172418,1,12
328,48,172901,1,12
264,96,173384,2,0,B|184:160,1,99.9999999999999,0|8
104,168,174350,6,0,B|104:56,2,99.9999999999999,0|8|0
104,248,175800,1,12
168,296,176283,1,12
232,344,176766,1,12
288,288,177249,2,0,B|360:208,1,99.9999999999999,0|8
336,136,178216,6,0,B|456:136,2,99.9999999999999,0|8|0
256,136,179665,1,12
176,136,180148,1,12
96,136,180631,1,12
40,192,181114,6,0,B|112:288,1,99.9999999999999,0|8
176,232,182081,2,0,B|176:332,3,99.9999999999999,4|8|0|8
256,288,184013,2,0,B|320:380,3,99.9999999999999,0|8|0|8
256,192,185946,12,12,194871
