osu file format v9

[General]
AudioFilename: SoGreatandPowerful - On My Own.mp3
AudioLeadIn: 0
PreviewTime: -1
Countdown: 1
SampleSet: Normal
StackLeniency: 0.7
Mode: 1
LetterboxInBreaks: 1

[Editor]
Bookmarks: 74759,89745,102114
DistanceSpacing: 0.8
BeatDivisor: 4
GridSize: 16

[Metadata]
Title:On My Own
Artist:SoGreatAndPowerful
Creator:anthonyyy0
Version:Taiko
Source:My Little Pony: Friendship is Magic
Tags:

[Difficulty]
HPDrainRate:7
CircleSize:5
OverallDifficulty:5
ApproachRate:6
SliderMultiplier:1.4
SliderTickRate:1

[Events]
//Background and Video events
0,0,"Appoljeck.png"
//Break Periods
//Storyboard Layer 0 (Background)
//Storyboard Layer 1 (Fail)
//Storyboard Layer 2 (Pass)
//Storyboard Layer 3 (Foreground)
//Storyboard Sound Samples
//Background Colour Transformations
3,100,163,162,255

[TimingPoints]
14290.2346081628,475.727392959087,4,1,0,80,1,0
120787,-100,4,1,0,80,0,1
136078,-100,4,1,0,80,0,0

[Colours]
Combo1 : 91,91,255
Combo2 : 255,142,17

[HitObjects]
112,304,29513,1,0
112,304,29751,1,0
112,304,29989,1,0
368,304,30464,5,8
112,304,30702,5,0
368,304,31178,5,8
368,304,31297,1,8
112,304,31416,5,0
112,304,31892,1,0
368,304,32130,5,8
112,304,32367,5,0
112,304,32486,1,0
368,304,32605,5,8
112,304,32843,5,0
368,304,33081,5,8
112,304,33200,5,0
112,304,33319,1,0
112,304,33795,1,0
112,304,34032,1,0
368,304,34270,5,8
112,304,34508,5,0
112,304,34984,1,0
368,304,35222,5,8
368,304,35697,1,8
112,304,35935,5,0
112,304,36173,1,0
368,304,36292,5,8
368,304,36530,1,8
112,304,36649,5,0
368,304,37125,5,8
112,304,37600,5,0
368,304,37838,5,8
368,304,38076,1,0
112,304,38314,5,0
112,304,38790,1,0
368,304,39028,5,8
112,304,39503,1,8
368,304,39741,5,0
368,304,39979,1,0
368,304,40098,1,0
112,304,40217,5,8
368,304,40455,5,0
368,304,40693,5,8
368,304,40812,5,0
112,304,40930,5,8
112,304,41406,1,10
112,304,41882,1,8
368,304,42120,5,0
368,304,42596,1,0
112,304,42833,5,8
112,304,43309,1,8
368,304,43547,5,0
112,304,43785,5,8
112,304,44261,1,8
368,304,44736,5,0
368,304,44974,1,0
368,304,45093,1,0
112,304,45212,5,8
368,304,45450,5,0
368,304,45688,1,0
368,304,45807,1,0
112,304,45926,5,8
112,304,46163,1,8
112,304,46401,1,8
368,304,47591,5,0
112,304,48066,5,8
368,304,48542,5,0
368,304,48780,1,0
368,304,48899,1,0
112,304,49018,5,8
368,304,49256,5,0
368,304,49494,1,0
368,304,49612,1,0
112,304,49731,5,8
112,304,49969,1,8
112,304,50207,5,0
368,304,50683,1,0
368,304,50802,1,0
368,304,50921,1,0
368,304,51040,1,0
112,304,51159,5,8
112,304,51872,1,8
112,304,52110,5,0
112,304,52348,1,0
112,304,52586,1,0
112,304,52824,5,8
112,304,53062,5,0
112,304,53299,1,0
112,304,53537,5,8
112,304,53775,5,4
112,304,54013,2,0,B|272:304,1,140
320,288,54727,1,0
320,288,54964,1,0
112,304,55202,5,8
320,288,55440,5,0
112,304,55678,5,8
320,288,55916,5,0
368,304,56154,1,0
368,304,56392,1,0
368,304,56511,1,0
112,304,56629,5,8
368,304,56867,5,0
368,304,57105,1,0
368,304,57224,1,0
112,304,57343,5,8
112,304,57581,1,8
112,304,57819,5,0
112,304,58057,1,8
112,304,58532,5,0
112,304,58770,1,8
112,304,59008,5,0
112,304,59246,1,0
112,304,59365,1,0
352,304,59603,1,0
368,304,59960,1,0
368,304,60197,5,8
368,304,60316,1,8
112,304,60435,5,0
368,304,60673,5,0
368,304,60911,1,8
368,304,61030,1,8
112,304,61149,5,0
368,304,61387,5,8
368,304,61625,1,8
112,304,62814,5,0
368,304,63290,5,8
368,304,63765,1,0
368,304,64003,5,8
368,304,64122,1,8
112,304,64241,5,0
368,304,64479,5,0
368,304,64717,1,8
368,304,64836,1,8
112,304,64955,5,0
368,304,65193,5,8
368,304,65430,1,8
368,304,65906,1,0
368,304,66025,1,0
368,304,66144,1,0
368,304,66263,1,0
112,304,66382,5,8
112,304,67571,1,8
368,304,67809,5,0
112,304,68047,5,8
368,304,68285,5,0
112,304,68523,5,8
368,304,68761,5,0
112,304,68998,5,8
112,304,69236,1,8
112,304,69712,1,8
368,304,69950,5,0
368,304,70069,1,0
112,304,70188,5,8
112,304,70426,1,8
368,304,70663,5,0
368,304,70901,1,0
368,304,71139,1,0
112,304,71377,5,8
112,304,71853,1,8
112,304,71972,1,8
112,304,72091,1,8
368,304,72328,5,0
112,304,72566,5,8
112,304,72804,1,8
368,304,73042,5,0
112,304,73280,5,8
368,304,73756,5,0
368,304,73994,1,0
368,304,74231,5,8
368,304,74469,5,0
368,304,74588,1,0
368,304,74826,1,0
368,304,75183,1,0
368,304,75302,1,0
368,304,75421,1,0
368,304,75659,5,8
368,304,75896,5,0
368,304,76015,1,0
368,304,76134,1,0
368,304,76372,5,8
368,304,76491,5,0
368,304,76610,1,0
368,304,76729,1,0
368,304,76848,5,8
368,304,77086,1,8
368,304,77205,5,0
368,304,77324,1,0
368,304,77561,5,8
368,304,77799,5,0
368,304,77918,1,0
368,304,78275,1,0
368,304,78513,1,0
368,304,78751,1,0
368,304,78989,1,0
368,304,79108,1,0
368,304,79227,1,0
368,304,79464,5,8
368,304,79702,5,0
368,304,79821,1,0
368,304,79940,1,0
368,304,80178,5,8
368,304,80297,5,0
368,304,80416,1,0
368,304,80535,1,0
368,304,80654,5,8
368,304,80892,1,8
368,304,81011,5,0
368,304,81129,1,0
368,304,81248,1,0
368,304,81367,5,8
368,304,81486,5,0
368,304,81605,1,0
368,304,81724,1,0
368,304,81843,5,8
368,304,82081,5,0
368,304,82319,1,0
368,304,82557,1,0
368,304,82794,5,8
368,304,82913,1,8
368,304,83032,1,8
80,288,83270,5,0
368,304,83508,5,8
368,304,83627,1,8
80,288,83746,5,0
80,288,83984,1,0
80,288,84103,1,0
80,288,84222,5,8
80,288,84341,1,8
80,288,84460,1,8
80,288,84697,1,8
80,288,84935,5,0
80,288,85054,1,0
80,288,85173,1,0
80,288,85411,1,0
80,288,85530,1,0
80,288,85887,1,0
80,288,86125,1,0
80,288,86362,1,0
80,288,86600,1,4
80,288,87314,5,14
80,288,88027,5,4
160,192,88741,5,8
160,192,88979,1,8
80,288,89217,5,4
80,288,89693,1,4
80,288,89930,1,0
80,288,90049,1,0
320,320,90168,5,8
320,320,90287,5,0
320,320,90406,1,0
320,320,90882,5,8
320,320,91358,1,8
96,320,91595,5,0
320,320,91833,5,8
96,320,92071,5,0
320,320,92309,5,8
96,320,92547,5,0
320,320,92785,5,8
96,320,93023,5,0
320,320,93260,5,8
96,320,93498,5,0
320,320,93736,5,8
320,320,93974,5,0
96,320,94212,2,0,B|256:304|432:80,1,420
384,304,96115,5,8
96,320,96353,5,0
320,320,96591,5,8
96,320,96828,5,0
320,320,97066,5,8
96,320,97304,5,0
320,320,97542,5,8
320,320,97780,5,8
320,320,98018,5,8
96,320,98256,5,0
320,320,98493,5,8
320,320,98731,5,0
320,320,98969,5,8
320,320,99207,5,0
320,320,99445,5,8
320,320,99683,5,0
320,320,99921,5,8
320,320,100159,5,0
320,320,100396,5,8
320,320,100634,5,0
320,320,100872,5,8
320,320,101110,5,0
320,320,101348,5,8
320,320,101586,1,8
320,320,101824,1,8
320,320,102061,5,0
320,320,102299,5,8
320,320,102537,5,0
320,320,102775,5,8
320,320,103013,5,0
320,320,103251,5,8
320,320,103489,5,0
320,320,103726,5,8
320,320,103964,5,0
320,320,104202,5,8
320,320,104440,5,0
320,320,104678,5,8
320,320,104916,5,0
320,320,105154,5,8
320,320,105392,5,0
320,320,105629,5,8
320,320,105867,1,8
320,320,105986,5,0
320,320,106105,1,0
320,320,106343,5,8
320,320,106581,5,0
320,320,106700,1,0
320,320,106819,5,8
320,320,107057,1,8
320,320,107294,5,0
320,320,107413,1,0
320,320,107532,5,8
320,320,107770,1,8
320,320,107889,1,8
320,320,108127,1,8
320,320,108246,5,0
320,320,108484,1,0
320,320,108603,1,0
320,320,108722,1,0
320,320,108959,5,8
320,320,109197,5,0
320,320,109435,5,8
320,320,109673,1,8
320,320,109792,5,0
320,320,109911,1,0
320,320,110149,1,0
320,320,110387,1,0
320,320,110506,1,0
320,320,110625,5,8
320,320,110862,1,8
320,320,111100,1,8
320,320,111219,1,8
320,320,111338,5,0
320,320,111576,1,0
320,320,111695,1,0
320,320,111933,1,0
320,320,112052,5,8
320,320,112765,5,0
320,320,113241,1,0
320,320,113479,1,0
320,320,113598,1,0
112,320,113717,5,8
320,320,113955,5,0
320,320,114192,1,0
320,320,114430,1,0
320,320,114549,1,0
112,320,114668,5,8
320,320,114906,5,0
112,320,115144,5,8
112,320,115263,1,8
320,320,115382,5,0
320,320,115620,1,0
112,320,115858,5,8
320,320,116095,5,0
112,320,116333,5,8
320,320,116452,1,8
112,320,116571,1,8
112,320,116690,1,8
112,320,116809,1,8
112,320,117047,1,8
320,320,117166,5,0
112,320,117285,1,8
320,320,117523,1,0
320,320,117760,1,0
320,320,117879,1,0
112,320,117998,5,8
112,320,118117,1,8
112,320,118236,1,8
112,320,118355,1,8
320,320,118474,5,0
320,320,118712,1,0
320,320,118831,1,0
112,320,118950,5,8
320,320,119188,5,0
112,320,119425,5,8
320,320,119663,5,0
320,320,119782,1,0
320,320,119901,5,8
320,320,120139,1,0
320,320,120258,1,0
112,320,120377,5,8
112,320,120496,1,8
112,320,120615,1,8
112,320,120853,1,4
112,320,121328,1,8
320,320,121566,1,0
112,320,121804,5,8
112,320,122042,1,8
320,320,122280,5,0
112,320,122518,5,8
112,320,122756,1,8
320,320,122993,5,0
112,320,123231,5,8
112,320,123350,1,8
112,320,123469,1,8
320,320,123707,5,4
320,320,124183,1,4
112,320,124658,5,8
112,320,124777,1,8
112,320,124896,1,8
320,320,125134,5,4
320,320,125610,1,4
112,320,126086,5,8
112,320,126324,1,8
320,320,126561,5,4
320,320,127037,1,4
112,320,127513,5,8
112,320,127632,1,8
112,320,127751,1,8
320,320,127989,5,4
320,320,128464,1,4
320,320,128702,1,0
320,320,128940,5,8
112,320,129178,1,8
112,320,129297,1,8
112,320,129416,5,0
320,320,129654,5,8
320,320,129891,1,8
112,320,130129,5,0
112,320,130248,1,0
112,320,130367,5,8
112,320,130605,5,0
112,320,130724,1,0
112,320,130843,5,8
112,320,131081,1,8
112,320,131319,5,0
112,320,131794,1,0
112,320,132270,5,8
112,320,132389,1,8
112,320,132508,1,8
320,320,132746,5,4
320,320,133222,1,0
112,320,133697,5,8
112,320,133935,1,8
320,320,134173,5,0
112,320,134530,1,0
256,192,134649,12,0,136077
