osu file format v9

[General]
AudioFilename: SoGreatandPowerful - On My Own.mp3
AudioLeadIn: 0
PreviewTime: -1
Countdown: 1
SampleSet: Soft
StackLeniency: 0.7
Mode: 0
LetterboxInBreaks: 1

[Editor]
DistanceSpacing: 0.8
BeatDivisor: 4
GridSize: 16

[Metadata]
Title:On My Own
Artist:SoGreatAndPowerful
Creator:anthonyyy0
Version:Normal
Source:My Little Pony: Friendship is Magic
Tags:

[Difficulty]
HPDrainRate:4
CircleSize:4
OverallDifficulty:3
ApproachRate:4
SliderMultiplier:1.4
SliderTickRate:1

[Events]
//Background and Video events
0,0,"apple_jack.jpg"
//Break Periods
2,74432,89088
2,105831,119297
//Storyboard Layer 0 (Background)
//Storyboard Layer 1 (Fail)
//Storyboard Layer 2 (Pass)
//Storyboard Layer 3 (Foreground)
//Storyboard Sound Samples
//Background Colour Transformations
3,100,163,162,255

[TimingPoints]
14290.2346081628,475.737392959087,4,2,0,100,1,0
90272,-133.333333333333,4,2,0,100,0,0
120353,-100,4,2,0,100,0,0

[Colours]
Combo1 : 185,92,0
Combo2 : 255,142,17
Combo3 : 255,255,108

[HitObjects]
64,192,29513,2,0,B|128:224|208:208,1,140,0|8
352,160,30465,1,8
352,160,30703,1,0
256,272,31178,5,0
192,304,31416,2,0,B|128:304|128:304|64:256,1,140,8|8
32,192,32130,1,0
64,128,32368,2,2,B|144:128|144:128|208:96,1,140
240,48,33081,1,0
288,96,33319,2,0,B|341:122|341:122|421:122,1,140,8|4
368,240,34271,5,8
368,240,34509,1,0
224,160,34984,1,0
176,96,35222,2,0,B|96:96|96:96|48:160,1,140,8|8
32,208,35936,1,0
80,272,36174,1,2
192,192,36649,1,4
304,272,37125,6,0,B|384:304|384:304|464:272,1,140,8|0
480,240,37839,1,8
448,176,38077,2,2,B|416:80|272:64,1,210
224,64,39028,1,8
96,176,39504,5,8
128,240,39742,1,0
192,272,39980,2,2,B|256:288|256:288|336:256,1,140,2|10
384,208,40693,1,8
336,144,40931,2,2,B|272:176|272:176|192:144,1,140,2|10
64,64,41883,1,8
64,64,42120,1,0
112,240,42596,5,0
192,208,42834,2,0,B|320:272,1,140,8|8
384,224,43548,1,0
432,160,43785,2,0,B|464:96|464:96|400:32,1,140,2|4
240,96,44737,6,0,B|160:144|208:224,1,140,0|8
272,256,45451,2,8,B|224:336|144:288,1,140,0|8
96,256,46164,2,0,B|64:176,1,70
384,144,47591,5,4
256,144,48067,1,4
320,240,48543,2,0,B|288:304|192:304,1,140,0|8
144,304,49256,2,0,B|64:288|48:192,1,140,0|8
48,144,49970,2,0,B|112:112,1,70
256,192,50446,12,0,51160
96,160,52349,6,0,B|128:224|224:224,1,140,0|8
272,224,53062,2,0,B|352:224|400:272,1,140,0|8
432,336,53776,2,0,B|224:336,1,210
160,336,54727,1,8
64,288,55203,1,0
64,176,55679,1,2
160,96,56155,6,0,B|224:64|224:64|320:80,1,140,0|8
352,96,56868,2,0,B|400:144|400:144|400:224,1,140,0|8
400,288,57582,2,0,B|470:288,2,70,0|0|0
256,304,58533,1,4
256,192,58771,12,0,59246
96,176,59961,6,0,B|240:128,1,140,0|8
288,112,60674,2,0,B|368:240,1,140,0|8
400,288,61388,2,0,B|368:320|240:320|176:288,1,210
112,144,62815,5,2
240,112,63291,1,2
368,144,63766,2,0,B|432:192|384:272,1,140,0|8
320,224,64480,2,0,B|240:208|192:272,1,140,0|8
128,288,65194,2,8,B|80:288|48:288,1,70
64,160,65907,5,0
64,160,66145,1,0
64,160,66383,1,4
288,80,67572,6,0,B|368:96|384:176,1,140,0|8
400,240,68286,2,0,B|416:320|416:320|352:352,1,140,0|8
288,368,69000,1,0
288,368,69237,1,4
176,320,69713,5,0
128,272,69951,2,0,B|96:208|96:208|112:128,1,140,0|2
208,64,70902,1,2
352,96,71378,2,0,B|288:128|288:128|352:176|336:224|288:240,1,210,0|2
224,256,72330,6,0,B|144:256,1,70,0|8
96,320,72805,2,0,B|192:320,1,70,0|8
224,320,73281,2,2,B|416:336|432:144,1,280,2|6
96,192,90408,6,0,B|256:240|416:192,1,314.999990612269
406,194,94214,6,0,B|256:240|96:192,1,314.999990612269
224,160,98020,6,0,B|176:128|176:128|128:176|112:240|160:288|192:352|256:304|256:304|336:352|368:256|384:176|352:144|304:128|304:128|256:176|256:176|256:64,1,787.499976530672
256,192,101825,12,0,105631
96,192,120617,5,8
160,192,120855,2,0,B|272:224|272:224|368:208,1,210,0|8
432,176,121806,2,0,B|464:256|464:256|432:320,1,140,0|8
384,320,122520,2,0,B|224:320,1,140,2|8
176,320,123234,1,0
256,192,123709,1,4
336,320,124185,1,0
256,192,124661,6,0,B|320:176|320:80,1,140,0|4
208,80,125612,1,0
128,176,126088,2,8,B|64:224,2,70,8|8|8
240,160,127039,1,0
352,176,127515,2,8,B|416:256,2,70
240,112,128467,1,0
240,192,128705,1,0
240,272,128942,6,0,B|272:320|384:320,1,140,8|8
416,272,129656,2,0,B|368:240|368:128,1,140,8|8
352,80,130370,2,2,B|288:112|128:80,1,210
80,64,131321,2,0,B|80:208,1,140,4|4
144,288,132273,6,0,B|176:320|240:304,1,70
272,288,132748,1,4
368,240,133224,1,4
304,144,133700,1,0
256,192,134176,12,0,136079
