osu file format v9

[General]
AudioFilename: SoGreatandPowerful - On My Own.mp3
AudioLeadIn: 0
PreviewTime: -1
Countdown: 1
SampleSet: Soft
StackLeniency: 0.7
Mode: 0
LetterboxInBreaks: 1

[Editor]
DistanceSpacing: 0.8
BeatDivisor: 4
GridSize: 16

[Metadata]
Title:On My Own
Artist:SoGreatAndPowerful
Creator:anthonyyy0
Version:Hard
Source:My Little Pony: Friendship is Magic
Tags:

[Difficulty]
HPDrainRate:5
CircleSize:4
OverallDifficulty:4
ApproachRate:5
SliderMultiplier:1.4
SliderTickRate:1

[Events]
//Background and Video events
0,0,"apple_jack.jpg"
Video,0,"appolslol.wmv"
//Break Periods
2,75053,89201
2,105667,119410
//Storyboard Layer 0 (Background)
//Storyboard Layer 1 (Fail)
//Storyboard Layer 2 (Pass)
//Storyboard Layer 3 (Foreground)
//Storyboard Sound Samples
//Background Colour Transformations
3,100,163,162,255

[TimingPoints]
14290.2346081628,475.737392959086,4,2,0,100,1,0
91723,-200,4,2,0,100,0,0
94074,-100,4,2,0,100,0,0
95486,-200,4,2,0,100,0,0
97908,-100,4,2,0,100,0,0
99288,-200,4,2,0,100,0,0
101702,-100,4,2,0,100,0,0
103100,-200,4,2,0,100,0,0
120286,-100,4,2,0,100,0,0

[Colours]
Combo1 : 185,92,0
Combo2 : 255,142,17
Combo3 : 255,255,108

[HitObjects]
112,240,29513,1,0
176,192,29751,1,0
192,272,29989,2,8,B|240:320|240:320|336:320,1,140
384,304,30703,1,0
320,112,31178,5,0
272,176,31416,2,8,B|192:176|192:176|128:224,1,140
80,256,32130,1,0
144,320,32368,2,0,B|144:368,2,35
240,352,32843,1,4
320,288,33081,2,0,B|368:288,2,35,2|8|2
160,176,33795,6,0,B|128:128|160:80,1,70,0|8
240,64,34271,2,0,B|256:128|240:160,1,70,0|8
176,256,34984,5,0
112,320,35222,2,0,B|192:336|192:336|256:304,1,140,2|4
288,256,35936,1,0
352,192,36174,1,0
352,192,36293,2,0,B|384:128|320:96,1,105,2|4
144,80,37125,1,8
64,160,37601,6,0,B|112:176|96:240,1,70,0|8
48,288,38077,2,0,B|35:325|83:341,1,70,0|8
256,320,38790,1,2
336,288,39028,2,0,B|400:272|400:272|432:192,1,140,2|2
448,128,39742,1,4
400,64,39980,2,0,B|400:16,2,35
320,96,40455,1,0
240,64,40693,2,0,B|240:112,2,35
112,128,41407,6,0,B|48:208|96:272,1,140,8|8
128,320,42120,2,0,B|272:320,1,140,0|8
352,320,42834,1,0
224,224,43310,2,0,B|288:208|288:160,1,70,0|8
304,128,43785,1,0
160,96,44261,1,4
96,256,44737,6,0,B|144:304|176:288,1,70
224,272,45213,1,8
288,288,45451,2,0,B|352:288|352:240,1,70
384,208,45926,1,8
352,144,46164,2,2,B|256:96|144:96,1,210
192,256,47591,5,4
352,256,48067,1,4
256,144,48543,2,0,B|304:144|320:112,1,70
368,64,49019,1,8
448,80,49256,2,0,B|400:128|416:160,1,70
448,208,49732,1,8
384,256,49970,1,0
256,192,50208,12,0,51160
256,192,51873,5,0
256,192,52111,1,0
352,128,52349,2,0,B|368:176|368:224,1,70
336,256,52824,1,8
288,304,53062,2,0,B|208:320,1,70
160,320,53538,1,8
96,288,53776,2,0,B|64:192,1,70
208,112,54490,5,0
208,112,54727,2,0,B|256:112|288:160,1,70
208,192,55203,2,8,B|240:224|240:256,1,70
160,256,55679,2,8,B|176:304|128:336,1,70
80,320,56155,6,0,B|32:288|48:240,1,70
48,192,56630,1,8
112,160,56868,2,0,B|160:144|144:80,1,70
144,48,57344,1,8
208,16,57582,2,0,B|272:32|288:64,1,70
320,80,58058,5,2
192,160,58533,2,0,B|192:208|240:224,1,70,0|8
288,240,59009,1,0
384,272,59247,1,0
384,272,59366,2,8,B|432:224|432:192,1,70,2|8
352,80,59961,6,0,B|304:112|256:80,1,70
224,64,60436,1,2
160,96,60674,2,0,B|192:128|176:160,1,70
112,208,61150,1,4
144,272,61388,2,0,B|352:272,1,210
416,272,62339,1,0
288,144,62815,5,8
160,96,63291,1,8
112,208,63766,2,0,B|112:256|160:272,1,70
208,288,64242,1,8
272,256,64480,2,0,B|320:224|368:224,1,70
400,224,64956,1,4
448,288,65194,2,0,B|416:336|368:336,1,70
256,192,65669,12,0,66384
64,208,67572,5,0
176,272,68048,1,0
288,208,68524,1,0
400,128,69000,2,8,B|432:160|432:208,1,70
352,288,69713,5,0
288,320,69951,2,0,B|240:336|208:320,1,70
160,288,70427,2,8,B|112:272|112:208,1,70
80,176,70902,1,2
112,112,71140,1,4
176,80,71378,2,0,B|256:112|336:80,1,140
368,48,72092,1,0
432,80,72330,6,0,B|432:128|384:160,1,70,4|8
336,160,72805,2,2,B|336:224|384:224,1,70
416,256,73281,1,8
256,224,73757,1,0
176,240,73995,2,0,B|144:256|96:240,1,70
48,208,74471,1,8
48,208,74589,2,2,B|112:160,1,70
127,156,90408,6,2,B|207:156|207:60,1,140
272,64,91121,2,2,B|271:156|351:156,1,140
352,224,91835,2,2,B|272:224|208:256|240:336|96:336,1,280,2|10
32,336,93976,1,8
32,256,94214,2,2,B|16:160|80:128,1,140
112,192,94927,2,2,B|176:224|256:160,1,140
272,112,95641,2,2,B|336:112|400:128|320:304|448:176|480:288,1,280,2|10
512,336,97782,1,8
448,352,98020,6,2,B|368:368|288:320,1,140
256,288,98733,2,2,B|320:256|336:160,1,140
304,112,99447,2,2,B|272:80|272:80|240:112|240:112|208:80|208:80|176:112|176:112|144:80|144:80|96:112,1,280,2|10
48,144,101588,1,8
32,208,101825,2,2,B|80:240|176:240,1,140
224,224,102539,2,2,B|288:176|304:112,1,140
352,64,103253,2,2,B|416:144|400:256|288:304,1,280,2|10
240,320,105393,1,4
112,128,120617,5,8
192,128,120855,2,2,B|336:128,1,140
400,176,121569,1,0
464,224,121806,2,0,B|448:272|384:256,1,70,8|0
336,272,122282,1,8
256,256,122520,2,0,B|224:272|208:304,1,70,8|0
144,336,122996,1,8
80,304,123234,2,8,B|48:288|32:240,1,70
16,176,123709,2,0,B|48:128|128:96,1,140,2|2
256,96,124661,5,0
336,128,124899,1,0
272,176,125137,2,2,B|224:224|224:304,1,140
80,160,126088,1,0
144,96,126326,1,0
160,176,126564,2,8,B|192:224|288:224,1,140
400,80,127515,5,0
320,48,127753,1,0
320,128,127991,2,4,B|304:192|304:192|352:272,1,140
400,304,128705,1,0
336,336,128942,2,0,B|288:352|256:336,1,70
208,304,129418,1,8
144,336,129656,1,4
80,288,129894,2,0,B|32:256|64:224,1,70,0|8
96,176,130370,1,8
176,160,130608,2,0,B|224:160|240:128,1,70
272,80,131083,1,0
336,80,131321,6,2,B|384:112|384:208,1,140
240,272,132273,1,0
160,224,132510,1,0
80,272,132748,2,8,B|32:224|32:224|32:128,1,140
160,64,133700,1,0
224,112,133938,1,0
288,64,134176,2,0,B|336:80|336:80|368:144,1,105,4|4
256,192,134651,12,0,136079
