osu file format v9

[General]
AudioFilename: Snyder & Ray - Together In Love (Nightcore Mix).mp3
AudioLeadIn: 0
PreviewTime: 24908
Countdown: 0
SampleSet: Soft
StackLeniency: 0.4
Mode: 0
LetterboxInBreaks: 0

[Editor]
DistanceSpacing: 1
BeatDivisor: 4
GridSize: 4

[Metadata]
Title:Together In Love (Nightcore Mix)
Artist:Snyder & Ray
Creator:osuplayer111
Version:Insane
Source:
Tags:Trance

[Difficulty]
HPDrainRate:7
CircleSize:4
OverallDifficulty:8
ApproachRate:9
SliderMultiplier:1.6
SliderTickRate:1

[Events]
//Background and Video events
0,0,"BG.jpg"
//Break Periods
//Storyboard Layer 0 (Background)
//Storyboard Layer 1 (Fail)
//Storyboard Layer 2 (Pass)
//Storyboard Layer 3 (Foreground)
//Storyboard Sound Samples
//Background Colour Transformations
3,100,0,0,255

[TimingPoints]
2414,352.102344414777,4,2,1,65,1,0
13681,-133.333333333333,4,1,1,35,0,0
14033,-133.333333333333,4,2,1,65,0,0
15089,-133.333333333333,4,1,1,35,0,0
15441,-133.333333333333,4,2,1,65,0,0
16498,-133.333333333333,4,1,1,35,0,0
16850,-133.333333333333,4,2,1,65,0,0
17906,-133.333333333333,4,1,1,35,0,0
18258,-133.333333333333,4,2,1,65,0,0
19314,-133.333333333333,4,1,1,35,0,0
19667,-133.333333333333,4,2,1,65,0,0
20547,-133.333333333333,4,1,1,25,0,0
20723,-133.333333333333,4,1,1,35,0,0
21075,-133.333333333333,4,2,1,65,0,0
22131,-133.333333333333,4,1,1,35,0,0
22483,-133.333333333333,4,2,1,65,0,0
23540,-100,4,1,1,35,0,0
24244,-100,4,1,1,40,0,0
24948,-133.333333333333,4,2,1,80,0,1
25124,-100,4,1,1,80,0,1
28645,-95.2380952380952,4,1,1,80,0,1
28821,-100,4,1,1,80,0,1
36127,-100,4,1,1,80,0,0
36215,-100,4,1,1,80,0,1
46778,-100,4,1,1,65,0,1
47483,-100,4,1,1,50,0,0
54525,-100,4,1,1,65,0,0
57341,-100,4,1,1,80,0,0
59454,-100,4,1,1,70,0,0
61567,-100,4,1,1,80,0,0
62271,-100,4,1,1,50,0,0
64384,-100,4,1,1,80,0,0
65088,-100,4,1,1,50,0,0
65968,-100,4,1,1,65,0,0
66056,-100,4,1,1,50,0,0
66320,-100,4,1,1,65,0,0
66496,-100,4,1,1,50,0,0
66672,-100,4,1,1,65,0,0
66848,-100,4,1,1,50,0,0
67200,-100,4,1,1,80,0,0
82517,-100,4,1,1,65,0,0
82693,-100,4,1,1,50,0,0
83749,-100,4,1,1,65,0,0
84101,-100,4,1,1,80,0,0
90087,-100,4,1,1,5,0,0
91143,-100,4,1,1,80,0,0
91495,-100,4,1,1,5,0,0
92552,-100,4,1,1,80,0,0
93960,-100,4,1,1,50,0,0
94136,-100,4,1,1,80,0,0
95369,-100,4,2,1,50,0,0
96777,-100,4,1,1,80,0,0
108044,-100,4,1,1,80,0,1
119311,-100,4,1,1,80,0,0

[Colours]
Combo1 : 113,184,255
Combo2 : 160,66,255
Combo3 : 0,128,255
Combo4 : 128,128,255
SliderBorder : 200,200,200

[HitObjects]
256,56,2414,1,2
320,208,2766,1,0
256,152,2942,1,0
192,208,3118,2,0,B|256:256|256:256|320:208,1,160,2|0
168,288,3822,1,2
216,352,3998,1,0
296,352,4174,1,0
344,288,4350,1,0
184,88,5230,6,0,B|120:32,1,80,2|0
328,88,5582,2,0,B|392:32,1,80
312,184,5935,2,0,B|280:152|280:152|256:200|232:152|232:152|200:184,1,160,2|0
168,256,6463,2,0,B|112:248|96:304|96:304|32:320,1,160
344,256,7167,2,0,B|400:248|416:304|416:304|480:320,1,160
200,352,7871,1,0
312,352,8047,1,2
344,256,8223,6,0,B|352:208|384:184,1,80
168,256,8575,2,0,B|160:208|128:184,1,80,0|2
256,64,9103,2,0,B|256:224,1,160,0|2
224,296,9632,2,0,B|257:340|290:294,1,80
256,224,9984,1,0
120,112,10864,6,0,B|80:88|48:120,1,80,2|0
47,263,11216,2,0,B|80:296|120:272,1,80
144,192,11568,2,0,B|240:192|256:96,1,160,2|0
256,16,12096,1,0
496,192,12448,1,0
256,368,12801,1,0
192,312,12977,2,0,B|216:272|256:256|296:272|320:312,1,160,2|0
256,56,13681,6,0,B|128:64|72:192,2,239.999992847443,0|2|0
256,56,15441,1,0
256,56,15793,2,0,B|384:64|440:192,2,239.999992847443,2|0|2
312,160,17554,2,0,B|312:224|312:224|352:264,1,119.999996423721
200,160,18258,2,0,B|200:224|200:224|160:264,1,119.999996423721,0|2
80,40,19314,5,0
80,160,19667,2,0,B|80:224,2,59.9999982118607,0|0|2
432,344,20547,5,0
432,344,20723,1,0
432,224,21075,2,0,B|432:160,2,59.9999982118607,0|0|2
328,288,21779,1,0
256,192,22131,1,0
184,288,22483,2,0,B|144:344,2,59.9999982118607,0|0|2
256,192,23188,1,0
328,96,23540,5,0
320,72,23628,1,0
304,56,23716,1,0
280,48,23804,1,0
256,44,23892,1,0
232,48,23980,1,0
208,56,24068,1,0
192,72,24156,1,0
184,96,24244,2,0,B|152:96,16,20,0|0|0|0|0|0|0|0|0|0|0|0|0|0|0|0|4
256,160,25124,5,0
256,240,25300,1,0
152,360,25652,1,0
216,312,25828,1,0
296,312,26004,1,0
360,360,26180,2,0,B|440:360|488:272,1,160
496,192,26709,1,0
486,108,26885,2,0,B|440:24|360:24,1,160
320,96,27413,6,0,B|256:144|256:144|192:96,1,160
128,48,27941,1,0
88,120,28117,1,0
16,80,28293,1,0
56,8,28469,1,0
128,48,28645,2,0,B|88:120,1,83.9999997496605
48,192,28997,2,0,B|96:264|192:256,1,160
256,216,29525,1,0
463,192,29701,2,0,B|416:264|326:256,1,160
336,176,30230,6,0,B|368:104,1,80
176,176,30582,2,0,B|144:104,1,80,4|0
256,40,30934,2,0,B|256:136,1,80,8|0
256,280,31462,1,0
200,336,31638,2,0,B|228:380|228:380|284:380|284:380|312:336,1,160,8|0
352,264,32166,1,0
412,316,32342,1,8
468,260,32518,6,0,B|432:232|418:192|432:152|469:124,1,160
412,68,33046,1,8
352,120,33222,1,0
272,120,33399,1,0
212,68,33575,6,0,B|168:68|140:100,1,80,0|8
12,120,33927,2,0,B|56:120|84:152,1,80,0|0
12,264,34279,2,0,B|56:264|84:232,1,80,0|8
212,316,34631,2,0,B|168:316|140:284,1,80
204,236,34983,1,0
272,192,35159,1,8
204,148,35335,1,0
472,192,35863,5,0
392,192,36039,2,0,B|344:192,2,40,0|0|4
432,124,36391,2,0,B|368:76,1,80,0|8
432,260,36743,2,0,B|368:308,1,80
304,260,37096,1,0
260,192,37272,1,8
304,124,37448,1,0
144,140,37800,5,0
84,192,37976,1,8
144,244,38152,2,0,B|220:272|256:352,1,160
336,352,38680,2,0,B|408:320,1,80,8|0
412,240,39032,6,0,B|340:272,1,80
408,320,39384,1,8
336,352,39560,1,0
338,272,39736,1,0
412,240,39912,1,0
412,160,40088,1,8
340,192,40265,1,0
188,244,40617,5,0
116,280,40793,1,8
44,316,40969,2,0,B|-8:240|48:168,1,160
192,96,41497,2,0,B|244:172|188:244,1,160,8|0
116,280,42025,1,0
122,200,42201,1,8
116,120,42377,1,0
256,40,42729,5,0
256,40,42905,2,0,B|340:40|392:112,1,160,8|0
376,192,43433,2,0,B|296:192,1,80,0|8
256,344,43786,2,0,B|340:344|392:272,2,160
200,284,44666,1,0
128,320,44842,6,0,B|48:364,2,80,0|8|0
84,248,45370,1,0
156,212,45546,1,0
200,284,45722,1,8
384,64,45898,6,0,B|464:20,2,80
428,136,46426,1,0
356,172,46602,1,0
312,100,46778,2,0,B|292:72,16,20,0|0|0|0|0|0|0|0|0|0|0|0|0|0|0|0|4
60,332,48891,6,0,B|120:332|120:332|152:304|152:304|208:304,2,160
88,256,49771,1,0
156,216,49947,1,0
108,152,50123,2,0,B|144:128,1,40
256,92,50475,6,0,B|220:116,2,40
324,52,50828,2,0,B|368:52|392:88,1,80
392,168,51180,2,0,B|348:168|324:132,1,80
392,88,51532,1,0
392,168,51708,2,0,B|392:244|472:300,2,160
464,132,52588,1,0
464,52,52764,1,0
392,88,52940,2,0,B|360:48,1,40
248,44,53292,6,0,B|280:84,2,40,0|0|0
184,88,53644,1,0
232,152,53820,1,0
168,196,53996,1,0
216,260,54173,2,0,B|256:280|257:325,1,80
256,323,54525,5,4
256,61,55933,1,4
52,192,57341,5,4
256,192,58046,1,4
460,192,58750,1,4
256,348,59102,1,4
52,192,59454,2,0,B|16:192,16,20,4|0|0|0|0|0|0|0|4|0|0|0|0|0|0|0|4
256,36,61567,5,4
256,348,61919,1,4
312,192,62271,1,0
256,132,62447,1,0
200,192,62623,1,0
256,252,62799,2,0,B|220:276,1,40
104,292,63151,6,0,B|140:268,2,40
40,336,63503,1,0
28,256,63679,2,0,B|48:220|24:180,1,80
68,112,64031,1,0
132,156,64207,1,0
180,92,64384,6,4,B|224:70|255:64|286:70|332:92,1,160
400,236,65088,1,0
340,288,65264,1,0
396,348,65440,1,0
456,296,65616,2,0,B|492:264,1,40
340,288,65968,6,0,B|304:320,2,40,4|0|0
400,236,66320,1,4
456,296,66496,1,0
396,348,66672,1,4
344,176,66848,6,0,B|404:120,1,80
460,184,67200,1,0
256,40,67552,1,0
52,184,67905,2,0,B|92:160|92:120,1,80
132,54,68257,2,0,B|92:78|92:118,1,80
91,118,68521,1,0
104,304,68785,6,0,B|64:328,2,40
172,264,69137,2,0,B|200:228|176:188,1,80
256,188,69489,1,0
335,189,69665,2,0,B|312:228|340:264,1,80
408,304,70017,1,0
256,348,70369,1,0
256,188,70721,6,0,B|256:104,2,80
256,268,71250,1,0
256,308,71338,1,0
220,44,71602,1,0
256,32,71690,1,0
292,44,71778,1,0
340,108,71954,2,0,B|388:180,1,80
172,108,72306,2,0,B|124:180,1,80
256,144,72658,1,0
256,144,72834,6,0,B|240:200|288:232|288:232|256:284,2,160,4|0|0
196,84,73714,1,0
256,32,73890,1,0
316,84,74066,1,0
340,100,74154,2,0,B|404:104|440:160,1,120
456,188,74506,1,0
468,212,74594,2,0,B|408:268,1,80
289,270,74947,2,0,B|349:214,1,80
409,266,75299,1,0
348,216,75475,1,0
289,270,75651,6,0,B|204:272|160:352,2,160
348,324,76531,1,0
409,266,76707,1,0
348,216,76883,2,0,B|348:172,1,40
256,100,77235,6,0,B|256:144,2,40
204,40,77587,2,0,B|164:40|164:40|136:68,1,80
104,168,77939,2,0,B|144:168|144:168|172:140,1,80
136,68,78292,1,0
172,140,78468,1,0
256,276,78820,1,0
340,140,79172,1,0
296,204,79348,2,0,B|208:204,1,80
256,128,79700,2,0,B|256:84,1,40
256,276,80052,6,0,B|256:320,2,40
332,296,80404,2,0,B|352:336|312:368,1,80
180,296,80756,2,0,B|160:336|200:368,2,80
200,220,81284,6,0,B|256:163|256:163|312:220,2,160
132,176,82165,2,0,B|192:112,1,80
256,76,82517,2,0,B|256:24,2,40
325,117,82869,2,0,B|380:176,1,80
384,256,83221,1,0
332,316,83397,1,0
256,348,83573,1,0
180,316,83749,1,0
128,256,83925,1,0
256,192,84101,6,0,B|256:24,2,160,4|0|0
196,248,84981,1,0
256,304,85158,1,0
316,248,85334,2,0,B|344:280,1,40
196,248,85686,6,0,B|168:216,2,40
132,296,86038,1,0
84,232,86214,2,0,B|84:184|120:164,1,80
192,132,86566,1,0
256,180,86742,1,0
320,132,86918,6,0,B|400:132|400:132|424:100|472:100,2,160
256,80,87798,1,0
192,132,87974,1,0
112,132,88150,2,0,B|76:100,1,40
112,252,88503,6,0,B|76:284,2,40
192,252,88855,1,0
256,304,89031,2,0,B|296:304|296:304|328:332,1,80
256,80,89383,2,0,B|296:80|296:80|328:52,1,80
472,192,89735,6,0,B|312:192,1,160
40,192,91143,2,0,B|200:192,1,160
256,344,92552,1,0
256,40,93256,1,0
204,260,93960,6,0,B|160:192,1,80
308,260,94312,2,0,B|352:192,1,80
104,244,94664,2,0,B|60:176,1,80,0|0
408,244,95016,2,0,B|452:176,1,80,0|0
412,64,95369,1,0
256,344,95721,1,0
100,64,96073,1,0
464,296,96425,1,0
48,296,96777,5,4
116,336,96953,1,0
164,272,97129,1,0
96,232,97305,1,0
164,192,97481,2,0,B|224:156|196:88,2,120
464,88,98185,5,0
396,48,98361,1,0
348,112,98537,1,0
416,152,98713,1,0
348,192,98889,2,0,B|288:228|316:296,1,120
388,260,99330,6,0,B|428:276,3,40
380,340,99770,1,0
316,296,99946,1,0
264,352,100122,1,0
316,296,100298,2,0,B|256:260|284:192,2,120
356,228,101002,6,0,B|432:200,1,80
380,136,101354,2,0,B|456:108,2,80
344,64,101882,1,0
272,100,102058,1,0
236,28,102235,1,0
164,64,102411,6,0,B|96:104,2,80,4|0|8
196,136,102939,1,0
260,184,103115,2,0,B|308:236|268:292,2,120
208,244,103819,2,0,B|124:264,1,80
52,280,104171,1,8
68,360,104347,1,0
148,344,104523,6,0,B|200:376|200:376|256:364,1,120
332,332,104963,1,0
356,316,105051,1,0
372,296,105139,1,0
384,272,105227,2,0,B|404:232|368:196,1,80
284,152,105579,2,0,B|264:192|300:228,1,80,8|0
371,198,105932,2,0,B|396:144|396:144|363:94,2,120
297,226,106636,6,0,B|228:264,1,80
268,332,106988,1,0
196,364,107164,1,0
156,296,107340,2,0,B|116:320,1,40
68,256,107604,2,0,B|140:220,1,80
196,32,108044,5,4
316,32,108220,1,0
176,52,108396,1,8
336,52,108572,1,0
152,76,108748,1,0
360,76,108924,1,0
132,100,109101,6,0,B|200:152,1,80,8|0
380,100,109453,2,0,B|312:152,1,80
256,32,109805,2,0,B|256:124,1,80,8|0
256,112,110157,1,0
472,208,110421,6,0,B|472:252,1,40,0|8
472,328,110685,1,0
316,352,110861,5,0
196,352,111037,1,0
336,332,111213,1,8
176,332,111389,1,0
360,308,111565,1,0
152,308,111741,1,0
380,284,111918,6,0,B|312:232,1,80,8|0
132,284,112270,2,0,B|200:232,1,80
256,352,112622,2,0,B|256:260,1,80,8|0
256,272,112974,1,0
256,192,113150,2,0,B|256:144,2,40,0|0|8
256,272,113502,1,0
168,160,113678,6,0,B|136:128|160:88,1,80
212,28,114030,1,8
344,160,114206,2,0,B|376:128|352:88,1,80
300,28,114558,1,0
212,28,114734,2,0,B|256:94,1,80,8|0
300,28,115086,2,0,B|256:96,1,80
192,144,115438,1,8
256,188,115614,1,0
320,144,115790,1,0
40,208,116055,6,0,B|40:252,1,40,0|8
40,328,116319,1,0
168,224,116495,6,0,B|136:256|160:296,1,80
212,356,116847,1,8
344,224,117023,2,0,B|376:256|352:296,1,80
300,356,117375,1,0
212,356,117551,2,0,B|256:290,1,80,8|0
300,356,117903,2,0,B|256:288,1,80
192,240,118255,1,8
256,196,118431,1,0
320,240,118607,5,0
332,200,118695,1,0
324,160,118783,1,0
296,132,118871,1,0
256,120,118959,1,0
216,132,119047,1,0
188,160,119135,1,0
180,200,119223,1,0
192,240,119311,1,0
256,192,119400,12,4,120720
