osu file format v9

[General]
AudioFilename: Snyder & Ray - Together In Love (Nightcore Mix).mp3
AudioLeadIn: 0
PreviewTime: 24908
Countdown: 0
SampleSet: Soft
StackLeniency: 0.4
Mode: 0
LetterboxInBreaks: 0

[Editor]
DistanceSpacing: 0.8
BeatDivisor: 4
GridSize: 8

[Metadata]
Title:Together In Love (Nightcore Mix)
Artist:Snyder & Ray
Creator:osuplayer111
Version:Hard
Source:
Tags:Trance

[Difficulty]
HPDrainRate:5
CircleSize:4
OverallDifficulty:6
ApproachRate:7
SliderMultiplier:1.4
SliderTickRate:1

[Events]
//Background and Video events
0,0,"BG.jpg"
//Break Periods
//Storyboard Layer 0 (Background)
//Storyboard Layer 1 (Fail)
//Storyboard Layer 2 (Pass)
//Storyboard Layer 3 (Foreground)
//Storyboard Sound Samples
//Background Colour Transformations
3,100,0,0,255

[TimingPoints]
2414,352.102344414777,4,2,1,65,1,0
13681,-133.333333333333,4,1,1,35,0,0
14033,-133.333333333333,4,2,1,65,0,0
15089,-133.333333333333,4,1,1,35,0,0
15441,-133.333333333333,4,2,1,65,0,0
16498,-133.333333333333,4,1,1,35,0,0
16850,-133.333333333333,4,2,1,65,0,0
17906,-133.333333333333,4,1,1,35,0,0
18258,-133.333333333333,4,2,1,65,0,0
19314,-133.333333333333,4,1,1,35,0,0
19667,-133.333333333333,4,2,1,65,0,0
20547,-133.333333333333,4,1,1,25,0,0
20723,-133.333333333333,4,1,1,35,0,0
21075,-133.333333333333,4,2,1,65,0,0
22131,-133.333333333333,4,1,1,35,0,0
22483,-133.333333333333,4,2,1,65,0,0
23540,-100,4,1,1,35,0,0
24244,-100,4,1,1,40,0,0
24948,-100,4,2,1,80,0,1
25124,-100,4,1,1,80,0,1
36127,-100,4,1,1,80,0,0
36215,-100,4,1,1,80,0,1
46778,-100,4,1,1,65,0,1
47483,-100,4,1,1,50,0,0
54525,-100,4,1,1,65,0,0
57341,-100,4,1,1,80,0,0
59454,-100,4,1,1,70,0,0
61567,-100,4,1,1,80,0,0
62271,-100,4,1,1,50,0,0
64384,-100,4,1,1,80,0,0
65088,-100,4,1,1,50,0,0
65968,-100,4,1,1,65,0,0
67200,-100,4,1,1,80,0,0
82693,-100,4,1,1,50,0,0
83749,-100,4,1,1,65,0,0
84101,-100,4,1,1,80,0,0
93960,-100,4,1,1,50,0,0
94136,-100,4,1,1,80,0,0
95369,-100,4,2,1,50,0,0
96777,-100,4,1,1,80,0,0
108044,-100,4,1,1,80,0,1
119311,-100,4,1,1,80,0,0

[Colours]
Combo1 : 113,184,255
Combo2 : 160,66,255
Combo3 : 0,128,255
Combo4 : 128,128,255
SliderBorder : 200,200,200

[HitObjects]
136,48,2414,2,0,B|208:48|256:110|256:110|304:48|376:48,2,280,2|2|2
48,120,4174,2,0,B|104:176,1,70
464,120,5230,5,2
464,120,5582,2,0,B|408:176,2,70,0|0|2
384,48,6287,1,0
312,136,6639,1,2
256,352,7343,1,2
200,136,8047,5,2
128,48,8399,1,0
48,120,8751,2,0,B|48:179|153:192|153:192|49:201|49:264,1,280,2|2
128,336,9808,1,0
200,248,10160,1,2
416,192,10864,6,0,B|272:192,2,140,2|0|2
512,136,11920,1,0
512,248,12272,1,2
312,352,12977,1,2
200,352,13329,1,0
256,288,13681,6,0,B|256:176,1,104.999996870756
184,136,14385,2,0,B|256:60|256:60|328:136,1,209.999993741512,2|0
416,136,15441,1,0
376,64,15793,1,2
136,64,16498,5,0
96,136,16850,1,0
56,208,17202,2,0,B|168:248|184:368,1,209.999993741512,2|0
256,312,18258,1,0
329,361,18610,2,0,B|344:248|456:208,1,209.999993741512,2|0
416,136,19667,6,0,B|382:75,2,52.4999984353781,0|0|2
96,136,20547,2,0,B|130:75,1,52.4999984353781
208,80,21075,1,0
256,64,21251,1,0
304,80,21427,1,2
256,152,21779,1,0
256,232,22131,1,0
192,288,22483,5,0
232,320,22659,1,0
280,320,22835,1,2
320,288,23011,1,0
352,208,23364,2,0,B|376:152,2,52.4999984353781
160,208,24068,2,0,B|136:144,1,70
256,40,24948,5,4
256,152,25300,2,0,B|256:296,2,140
160,96,26356,1,0
256,40,26709,1,0
352,96,27061,1,0
256,152,27413,1,0
312,248,27765,1,0
200,248,28117,5,0
256,40,28821,1,0
312,248,29525,1,0
152,88,30230,1,0
256,40,30582,1,4
360,88,30934,6,8,B|464:64|496:160|496:160|424:248,2,280
256,152,32694,1,0
152,88,33046,2,8,B|48:64|16:160|16:160|88:248,1,280
152,336,34103,1,0
256,288,34455,1,8
360,336,34807,1,0
256,288,35159,2,0,B|256:208,1,70,8|0
256,48,35863,6,0,B|256:128,1,70
256,118,36215,1,4
344,192,36567,2,0,B|344:272|416:304,2,140,8|0|8
256,264,37624,1,0
168,192,37976,2,0,B|168:272|96:304,2,140,8|0|8
56,208,39032,5,0
256,104,39736,1,0
456,208,40441,1,0
256,312,41145,1,0
256,104,41849,5,0
168,176,42201,2,8,B|257:284|257:284|344:176,2,280
80,240,43962,2,0,B|176:352,1,140,0|8
432,240,45018,6,0,B|336:352,2,140,8|0|8
344,176,46074,1,0
256,112,46426,2,0,B|256:32,2,70
256,336,47483,1,4
72,192,48891,6,0,B|152:192|176:272,2,140
56,304,49947,1,0
56,304,50123,1,0
152,360,50475,1,0
152,360,50652,1,0
256,312,51004,1,0
360,360,51356,1,0
456,304,51708,6,0,B|456:232|456:232|408:176,1,140
336,104,52412,1,0
256,184,52764,2,0,B|184:184,1,70
88,128,53292,2,0,B|144:88,1,70
240,32,53820,1,0
352,32,54173,1,0
432,104,54525,5,4
256,344,55933,1,4
80,104,57341,1,4
256,344,58046,1,4
432,104,58750,5,4
256,192,59102,1,4
80,104,59454,1,4
256,344,59806,1,4
432,104,60158,1,4
72,328,61567,5,4
148,248,61919,1,4
256,208,62271,1,0
364,248,62623,2,0,B|416:192,1,70
440,328,63151,6,0,B|388:384,1,70
312,304,63679,1,0
200,304,64031,1,0
120,380,64384,1,4
96,272,64736,6,0,B|96:192|168:160,1,140,4|0
256,232,65440,2,0,B|256:160,1,70
416,272,65968,2,0,B|416:192|344:160,1,140,4|4
312,56,66672,1,4
200,56,67024,1,0
256,56,67200,5,0
168,128,67552,1,0
256,200,67905,1,0
344,128,68257,2,0,B|392:184,1,70
168,128,68785,2,0,B|120:184,1,70
184,280,69313,6,0,B|112:280|112:280|64:336,2,140
256,368,70369,1,0
328,280,70721,2,0,B|400:280|400:280|448:336,1,140
444,331,71250,1,0
456,216,71602,2,0,B|416:152,1,70
360,64,72130,1,0
256,104,72482,1,0
152,64,72834,6,0,B|72:64|32:128,2,140,4|0|0
160,176,73890,2,0,B|208:240,1,70
352,176,74418,2,0,B|304:240,1,70
256,336,74947,1,0
202,232,75299,1,0
310,232,75651,1,0
256,136,76003,6,0,B|328:136|368:64,2,140
256,136,76883,1,0
256,248,77235,2,0,B|256:320,1,70
144,344,77763,2,0,B|72:344|32:272,2,140
368,344,78820,2,0,B|440:344|480:272,2,140
368,344,79700,1,0
256,320,80052,6,0,B|256:240,1,70
192,160,80580,2,0,B|64:96,2,140
320,160,81637,2,0,B|448:96,2,140
320,160,82517,1,0
256,72,82869,1,0
256,72,83045,1,0
192,160,83397,1,0
208,272,83749,5,0
256,304,83925,1,0
304,272,84101,1,4
416,272,84453,2,0,B|472:224|456:144,1,140
392,56,85158,2,0,B|312:56,1,70
232,128,85686,2,0,B|160:128,1,70
72,192,86214,6,0,B|72:264|144:304,1,140
256,328,86918,1,0
368,303,87270,2,0,B|440:264|440:192,1,140
336,144,87974,2,0,B|368:80,1,70
176,144,88503,2,0,B|144:80,1,70
256,56,89031,2,0,B|256:200,1,140
256,304,89735,5,0
64,56,91143,1,0
448,56,92552,1,0
256,192,93256,1,0
112,52,93960,5,0
164,76,94136,2,0,B|180:124|244:108,2,70
220,60,94664,2,0,B|256:60|290:60,1,70
296,112,95016,2,0,B|332:116|349:76,1,70
400,52,95369,1,0
376,160,95721,1,0
256,192,96073,1,0
136,160,96425,1,0
112,52,96777,5,4
44,140,97129,1,0
64,248,97481,2,0,B|205:248|205:248|304:344,1,280
416,344,98537,1,0
448,240,98890,2,0,B|307:240|307:240|208:144,1,280
128,64,99946,1,0
240,64,100298,6,0,B|381:64|381:64|480:160,1,280
480,272,101354,2,0,B|408:272|360:344,1,140
256,340,102058,1,0
148,338,102411,2,0,B|104:272|32:272,1,140,4|8
144,80,103467,1,8
368,80,104171,1,8
256,80,104523,1,0
144,80,104875,6,8,B|192:160|256:168|320:160|368:80,1,280
424,176,105932,2,0,B|384:232|296:248,1,140,0|8
88,176,106636,2,0,B|128:232|216:248,1,140
186,359,107340,2,0,B|330:359,1,140
416,288,108044,6,0,B|480:248|480:168,1,140,4|8
416,80,108748,1,0
312,128,109101,1,8
200,128,109453,1,0
96,80,109805,1,8
32,170,110157,6,0,B|32:248|96:288,1,140,0|8
184,352,110861,1,0
256,264,111213,1,8
328,352,111565,1,0
384,256,111917,1,8
312,168,112269,1,0
200,168,112622,1,8
128,256,112974,1,0
88,152,113326,6,0,B|88:80|88:80|144:40,1,140,8|0
256,64,114030,1,8
368,40,114382,2,0,B|424:80|424:80|424:152,1,140,0|8
336,224,115086,1,0
256,304,115438,1,8
176,224,115790,1,0
256,144,116143,6,0,B|256:0,2,140,8|0|8
176,224,117199,2,0,B|120:264|160:304|96:344,1,140,0|8
336,224,117903,2,0,B|392:264|352:304|416:344,1,140,0|8
256,344,118607,2,0,B|256:272,4,70
256,192,119400,12,4,120720
