osu file format v12

[General]
AudioFilename: Snyder & Ray - Together In Love.mp3
AudioLeadIn: 500
PreviewTime: 24948
Countdown: 0
SampleSet: Normal
StackLeniency: 0.7
Mode: 0
LetterboxInBreaks: 1

[Editor]
DistanceSpacing: 0.8
BeatDivisor: 4
GridSize: 4

[Metadata]
Title:Together In Love (Nightcore Mix)
TitleUnicode:Together In Love (Nightcore Mix)
Artist:Snyder & Ray
ArtistUnicode:Snyder & Ray
Creator:Gabe
Version:Insane
Source:
Tags:Lally -Sekai- Sekai-nyan XinCrin Edit Remix Trance Dance
BeatmapID:217017
BeatmapSetID:76937

[Difficulty]
HPDrainRate:7
CircleSize:5
OverallDifficulty:7
ApproachRate:8
SliderMultiplier:2
SliderTickRate:2

[Events]
//Background and Video events
0,0,"Background.jpg",0,0
//Break Periods
2,49091,53775
//Storyboard Layer 0 (Background)
//Storyboard Layer 1 (Fail)
//Storyboard Layer 2 (Pass)
//Storyboard Layer 3 (Foreground)
//Storyboard Sound Samples
//Background Colour Transformations
3,100,163,162,255

[TimingPoints]
2414,352.102344414777,4,2,1,60,1,0
24948,-100,4,1,1,50,0,1
35863,-100,4,1,1,50,0,0
36215,-100,4,1,1,50,0,1
46778,-100,4,1,1,40,0,1
47130,-100,4,1,1,30,0,1
47483,-100,4,1,1,20,0,0
48891,-100,4,1,1,50,0,0
72834,-133.333333333333,4,1,1,30,0,0
73186,-100,4,1,1,50,0,0
93960,-100,4,1,1,40,0,0
94312,-100,4,1,1,50,0,0
94664,-100,4,1,1,60,0,0
95016,-100,4,1,1,50,0,0
108044,-100,4,1,1,50,0,1
118607,-100,4,1,1,40,0,1
118959,-100,4,1,1,30,0,1
120632,-100,4,1,1,30,0,0
120720,-100,4,1,1,30,0,1
120808,-100,4,1,1,30,0,0

[Colours]
Combo1 : 237,209,158
Combo2 : 124,205,243
Combo3 : 48,63,241
SliderBorder : 255,255,255

[HitObjects]
380,28,2414,2,0,P|404:100|324:188,1,200,0|0,0:0|0:0,0:0:0:0:
256,152,2942,1,0,0:0:0:0:
182,186,3118,2,0,P|107:99|131:27,2,200,2|0|0,0:0|0:0|0:0,0:0:0:0:
296,244,3998,6,0,P|348:336,1,100,0|0,0:0|0:0,0:0:0:0:
216,244,4350,2,0,P|164:336,1,100,0|2,0:0|0:0,0:0:0:0:
256,152,4878,1,0,0:0:0:0:
380,8,5230,6,0,P|346:44|346:44|298:60,1,100
132,8,5582,2,0,P|165:44|165:44|213:60,1,100
352,124,5935,2,0,P|256:152|256:152|160:124,1,200,2|0,0:0|0:0,0:0:0:0:
104,180,6463,6,0,P|92:232|132:272|132:272|92:312|104:364,1,200
408,362,7167,2,0,P|420:312|380:272|380:272|420:232|408:180,1,200,2|0,0:0|0:0,0:0:0:0:
352,124,7695,2,0,P|256:152|256:152|160:124,1,200,0|0,0:0|0:0,0:0:0:0:
64,248,8399,5,0,0:0:0:0:
24,180,8575,1,0,0:0:0:0:
104,180,8751,1,2,0:0:0:0:
256,360,9103,1,0,0:0:0:0:
368,248,9456,2,0,P|384:200|376:144,2,100
432,300,9984,2,0,P|460:220|444:100,2,200,2|0|0,0:0|0:0|0:0,0:0:0:0:
356,320,10864,6,0,P|308:312|308:312|288:368,1,100
156,320,11216,2,0,P|204:312|204:312|221:360,1,100
256,272,11568,2,0,P|256:68,1,200,2|0,0:0|0:0,0:0:0:0:
256,72,12096,5,0,0:0:0:0:
100,112,12448,1,0,0:0:0:0:
108,276,12801,2,0,P|176:220|320:328|400:252,1,300,2|0,0:0|0:0,0:0:0:0:
412,116,13681,6,0,P|400:188|464:200|464:200|520:300|420:380|284:336,1,400,4|2,1:2|0:0,0:0:0:0:
256,144,14737,1,0,0:0:0:0:
211,340,15089,6,0,P|92:380|-8:300|48:200|48:200|112:188|100:116,1,400,0|2,1:0|0:0,0:0:0:0:
256,188,16145,1,0,0:0:0:0:
412,119,16498,6,0,P|256:13|100:119,1,400,0|2,1:0|0:0,0:0:0:0:
256,188,17554,1,0,0:0:0:0:
336,224,17730,1,0,0:0:0:0:
416,256,17906,6,0,P|420:328|308:340,1,200,0|0,1:0|0:0,0:0:0:0:
96,320,18434,2,0,P|92:248|204:236,1,200,2|0,0:0|0:0,0:0:0:0:
256,288,18962,1,0,0:0:0:0:
96,320,19314,6,0,P|56:92,2,200,4|0|2,1:2|0:0|0:0,0:0:0:0:
256,288,20371,2,0,P|304:264|328:220,1,100
200,232,20723,6,0,P|180:304|300:352,2,200,0|0|2,1:0|0:0|0:0,0:0:0:0:
328,136,21779,1,0,0:0:0:0:
416,276,22131,5,0,1:0:0:0:
92,276,22835,1,0,1:0:0:0:
308,52,23540,6,0,P|320:96|308:148,1,100,0|0,1:0|0:0,0:0:0:0:
204,148,23892,2,0,P|192:104|204:52,1,100,0|0,0:0|0:0,0:0:0:0:
256,192,24244,2,0,P|256:244,7,50,0|0|0|0|0|0|0|0,1:0|0:0|0:0|0:0|1:0|0:0|0:0|0:0,0:0:0:0:
256,192,24948,6,0,P|176:252,1,100,4|0,0:0|0:0,0:0:0:0:
256,192,25300,2,0,P|176:132,1,100,0|0,0:0|0:0,0:0:0:0:
80,144,25652,2,0,P|100:192|100:192|80:240,2,100
20,192,26180,6,0,P|16:268|128:292,1,200
180,248,26709,2,0,P|220:276|220:276|220:332,1,100
292,327,27061,2,0,P|292:276|292:276|332:248,1,100
392,297,27413,2,0,P|496:268|492:192,1,200
436,136,27941,5,0,0:0:0:0:
380,80,28117,2,0,P|272:112,1,100
396,220,28469,2,0,P|504:188,1,100
436,136,28821,1,0,0:0:0:0:
352,304,28997,2,0,P|304:356|208:268|160:324,1,200
124,268,29525,5,0,0:0:0:0:
88,152,29701,1,0,0:0:0:0:
52,268,29877,1,0,0:0:0:0:
148,200,30054,1,0,0:0:0:0:
28,200,30230,1,0,0:0:0:0:
28,200,30318,1,0,0:0:0:0:
28,200,30406,1,0,0:0:0:0:
28,200,30494,1,0,0:0:0:0:
28,200,30582,6,0,P|8:100,1,100,4|0,0:0|0:0,0:0:0:0:
88,52,30934,2,0,P|88:152,1,100,8|0,0:0|0:0,0:0:0:0:
148,200,31286,2,0,P|204:228|252:220,1,100
208,156,31638,1,8,0:0:0:0:
416,88,31990,6,0,P|464:76|464:76|488:16,2,100,0|0|8,0:0|0:0|0:0,0:0:0:0:
336,96,32518,2,0,P|336:148|336:148|316:192|316:192|336:228|336:228|336:286,1,200
416,296,33046,2,0,P|464:308|464:308|488:368,1,100,8|0,0:0|0:0,0:0:0:0:
364,356,33399,5,0,0:0:0:0:
288,336,33575,1,0,0:0:0:0:
232,280,33751,2,0,P|276:260|340:276,1,100,8|0,0:0|0:0,0:0:0:0:
288,336,34103,2,0,P|244:356|194:348,1,100
364,356,34455,2,0,P|463:366,1,100,8|0,0:0|0:0,0:0:0:0:
472,268,34807,5,0,0:0:0:0:
388,216,34983,1,0,0:0:0:0:
288,224,35159,2,0,P|320:196|256:160|288:132,1,100,8|0,0:0|0:0,0:0:0:0:
256,60,35511,2,0,P|256:8,7,50,0|0|0|0|2|0|0|0,0:0|0:0|0:0|0:0|0:0|0:0|0:0|0:0,0:0:0:0:
256,10,36215,6,0,P|136:64,1,100,4|0,0:0|0:0,0:0:0:0:
256,108,36567,2,0,P|376:54,1,100,8|0,0:0|0:0,0:0:0:0:
424,76,36920,2,0,P|432:132|464:172,2,100,0|0|8,0:0|0:0|0:0,0:0:0:0:
512,136,37448,2,0,P|512:204|400:196,1,200
336,160,37976,6,0,P|296:268,1,100,8|0,0:0|0:0,0:0:0:0:
176,160,38328,2,0,P|216:268,1,100
352,320,38680,2,0,P|300:344|256:316|256:316|212:344|160:320,1,200,8|0,0:0|0:0,0:0:0:0:
36,276,39208,6,0,P|36:376,2,100,0|8|0,0:0|0:0|0:0,0:0:0:0:
84,212,39736,2,0,P|84:112,2,100,0|0|8,0:0|0:0|0:0,0:0:0:0:
124,280,40265,2,0,P|204:260|256:160,1,200
220,92,40793,6,0,P|132:172,1,100,8|0,0:0|0:0,0:0:0:0:
292,92,41145,2,0,P|380:172,1,100
428,208,41497,2,0,P|428:268,3,50,8|0|0|0,0:0|0:0|0:0|0:0,0:0:0:0:
428,256,41849,6,0,P|348:236|312:336,1,200,4|8,0:0|0:0,0:0:0:0:
203,328,42377,2,0,P|164:236|84:256,1,200
8,228,42905,2,0,P|36:180|32:136,1,100,8|0,0:0|0:0,0:0:0:0:
8,60,43257,6,0,P|120:8,1,100
200,136,43609,2,0,P|88:84,1,100,8|0,0:0|0:0,0:0:0:0:
264,88,43962,2,0,P|448:184,2,200,0|8|0,0:0|0:0|0:0,0:0:0:0:
200,136,44842,5,0,0:0:0:0:
192,216,45018,1,8,0:0:0:0:
220,292,45194,2,0,P|148:368,1,100
292,292,45546,2,0,P|364:368,2,100,0|8|0,0:0|0:0|0:0,0:0:0:0:
256,192,46074,12,0,47483,0:0:0:0:
256,192,47571,12,4,48891,0:0:0:0:
256,192,54525,69,4,0:0:0:0:
256,192,55933,5,4,0:0:0:0:
256,192,57341,5,4,0:0:0:0:
324,192,58046,1,4,0:0:0:0:
392,192,58750,5,4,0:0:0:0:
256,340,59102,1,4,0:0:0:0:
120,192,59454,2,0,P|68:192,8,50,4|0|0|0|4|0|0|0|4,0:0|0:0|0:0|0:0|0:0|0:0|0:0|0:0|0:0,0:0:0:0:
352,264,61567,6,0,P|304:284|304:284|288:344,1,100
220,330,61919,2,0,P|208:284|208:284|160:264,1,100,8|0,0:0|0:0,0:0:0:0:
144,184,62271,1,0,0:0:0:0:
220,212,62447,1,0,0:0:0:0:
292,212,62623,1,0,0:0:0:0:
368,184,62799,1,0,0:0:0:0:
368,184,62887,2,0,P|392:140|392:140|368:96,1,100
368,96,63151,5,0,0:0:0:0:
256,28,63327,1,0,0:0:0:0:
256,28,63503,1,0,0:0:0:0:
144,96,63679,2,0,P|164:144|144:184,1,100
84,304,64031,2,0,P|64:256|84:216,1,100
152,260,64384,5,0,0:0:0:0:
360,260,64736,1,8,0:0:0:0:
220,184,65088,2,0,P|220:76,1,100
292,200,65440,2,0,P|292:308,1,100
292,300,65704,1,0,0:0:0:0:
476,348,65968,6,0,P|464:304|476:252,2,100
416,120,66496,2,0,P|428:164|416:216,2,100
416,120,67024,1,0,0:0:0:0:
388,44,67200,6,0,P|284:44,1,100,4|0,0:0|0:0,0:0:0:0:
208,120,67552,2,0,P|256:128|256:128|308:120,1,100,8|0,0:0|0:0,0:0:0:0:
224,44,67905,2,0,P|124:44,2,100,0|0|8,0:0|0:0|0:0,0:0:0:0:
256,192,68433,1,0,0:0:0:0:
256,208,68521,1,0,0:0:0:0:
256,224,68609,1,0,0:0:0:0:
120,208,68785,6,0,P|201:266,1,100,0|8,0:0|0:0,0:0:0:0:
312,264,69137,2,0,P|396:204,1,100
468,184,69489,1,0,0:0:0:0:
492,260,69665,1,8,0:0:0:0:
436,320,69841,1,0,0:0:0:0:
352,328,70017,6,0,P|256:360|256:360|160:328,1,200,0|8,0:0|0:0,0:0:0:0:
184,172,70721,2,0,P|216:216|216:216|216:272,1,100
328,172,71073,2,0,P|296:216|296:216|296:272,1,100,8|0,0:0|0:0,0:0:0:0:
296,261,71338,1,0,0:0:0:0:
424,156,71602,5,0,0:0:0:0:
408,120,71690,1,0,0:0:0:0:
380,92,71778,1,8,0:0:0:0:
300,92,71954,2,0,P|340:0,1,100
212,92,72306,2,0,P|172:0,1,100,0|8,0:0|0:0,0:0:0:0:
172,0,72658,1,0,0:0:0:0:
60,140,72834,6,0,P|88:192|88:192|60:240,1,112.500004291535,0|0,0:0|0:0,0:0:0:0:
61,238,73186,2,0,P|121:333,1,100,12|0,0:0|0:0,0:0:0:0:
166,262,73538,2,0,P|222:350,1,100
296,346,73890,2,0,P|350:262,1,100,8|0,0:0|0:0,0:0:0:0:
350,262,74154,1,0,0:0:0:0:
304,152,74418,5,0,0:0:0:0:
304,152,74506,1,0,0:0:0:0:
304,152,74594,2,0,P|256:168|256:168|208:152,1,100,8|0,0:0|0:0,0:0:0:0:
208,72,74947,2,0,P|256:56|256:56|304:72,1,100,0|0,0:0|0:0,0:0:0:0:
340,80,75211,1,0,0:0:0:0:
368,108,75299,1,8,0:0:0:0:
376,188,75475,1,0,0:0:0:0:
336,256,75651,6,0,P|256:316|256:316|176:256,1,200,0|8,0:0|0:0,0:0:0:0:
184,88,76355,2,0,P|216:136|218:177,1,100
328,88,76707,2,0,P|296:136|294:177,1,100,8|0,0:0|0:0,0:0:0:0:
294,177,76971,1,0,0:0:0:0:
340,292,77235,5,0,0:0:0:0:
256,348,77411,1,8,0:0:0:0:
172,292,77587,2,0,P|124:184,1,100
340,292,77939,2,0,P|388:184,1,100,0|8,0:0|0:0,0:0:0:0:
412,128,78292,1,0,0:0:0:0:
492,116,78468,6,0,P|448:56|336:104,1,200,0|8,0:0|0:0,0:0:0:0:
20,244,79172,2,0,P|64:304|176:256,1,200,0|8,0:0|0:0,0:0:0:0:
192,192,79700,5,0,0:0:0:0:
192,192,79788,1,0,0:0:0:0:
192,192,79876,2,0,P|92:156,1,100
216,108,80228,2,0,P|316:144,1,100,8|0,0:0|0:0,0:0:0:0:
352,212,80580,2,0,P|360:268|346:308,1,100
432,240,80932,2,0,P|424:184|437:143,1,100,8|0,0:0|0:0,0:0:0:0:
484,80,81284,5,0,0:0:0:0:
28,80,81637,1,8,0:0:0:0:
256,208,81989,2,0,P|256:108,2,100,0|0|8,0:0|0:0|0:0,0:0:0:0:
256,288,82517,2,0,P|256:352,1,50
256,192,82693,12,8,83749,0:0:0:0:
180,96,84101,6,0,P|256:40|332:96,1,200,4|8,0:0|0:0,0:0:0:0:
256,128,84629,1,0,0:0:0:0:
208,192,84805,2,0,P|160:300,1,100
304,192,85158,2,0,P|352:300,1,100,8|0,0:0|0:0,0:0:0:0:
300,352,85510,6,0,P|376:356|420:252,1,200,0|8,0:0|0:0,0:0:0:0:
92,256,86214,2,0,P|136:357|212:353,1,200,0|8,0:0|0:0,0:0:0:0:
256,284,86742,1,0,0:0:0:0:
224,212,86918,6,0,P|188:248|184:304,1,100
330,294,87270,2,0,P|324:248|288:212,1,100,8|0,0:0|0:0,0:0:0:0:
220,144,87622,2,0,P|140:72,2,100,0|0|8,0:0|0:0|0:0,0:0:0:0:
292,144,88150,2,0,P|372:72,1,100
444,60,88503,5,0,0:0:0:0:
444,60,88591,1,0,0:0:0:0:
444,60,88679,2,0,P|464:100|456:156,1,100,8|0,0:0|0:0,0:0:0:0:
404,260,89031,2,0,P|384:220|392:164,1,100
472,252,89383,2,0,P|456:304|376:320,2,100,8|0|4,0:0|0:0|0:0,0:0:0:0:
472,252,91143,5,4,0:0:0:0:
472,252,92552,5,4,0:0:0:0:
256,16,93256,1,4,0:0:0:0:
40,252,93960,6,0,P|144:260,1,100
212,344,94312,2,0,P|108:336,1,100
72,176,94664,6,0,P|60:72,1,100
168,48,95016,2,0,P|180:152,1,100
256,192,95369,12,2,96425,0:0:0:0:
292,80,96777,6,0,P|372:156,1,100
292,304,97129,2,0,P|372:228,1,100
468,192,97481,1,0,0:0:0:0:
256,192,97745,1,0,0:0:0:0:
44,192,98009,1,0,0:0:0:0:
124,256,98185,6,0,P|168:300|240:312,1,100
388,256,98537,2,0,P|344:300|272:312,1,100
256,372,98890,1,0,0:0:0:0:
256,192,99154,1,0,0:0:0:0:
256,12,99330,2,0,P|256:64,2,50
256,12,99594,6,0,P|376:48,1,100
256,12,99946,2,0,P|136:48,1,100
108,104,100298,1,0,0:0:0:0:
256,192,100562,1,0,0:0:0:0:
404,104,100826,1,0,0:0:0:0:
392,184,101002,6,0,P|340:220|356:288,1,100
404,104,101354,2,0,P|480:40,1,100
480,39,101706,5,0,0:0:0:0:
504,136,101882,1,0,0:0:0:0:
468,228,102058,1,0,0:0:0:0:
480,328,102235,1,0,0:0:0:0:
384,352,102411,6,0,P|280:392,1,100
221,387,102763,2,0,P|128:352,1,100,8|0,0:0|0:0,0:0:0:0:
296,316,103115,2,0,P|334:223,1,100,0|0,0:0|0:0,0:0:0:0:
216,316,103467,2,0,P|176:220,1,100,8|0,0:0|0:0,0:0:0:0:
256,152,103819,6,0,P|256:36,1,100,0|0,0:0|0:0,0:0:0:0:
348,148,104171,2,0,P|400:176|404:244,1,100,8|0,0:0|0:0,0:0:0:0:
256,152,104523,2,0,P|152:40,2,150,0|8|0,0:0|0:0|0:0,0:0:0:0:
348,148,105227,6,0,P|400:176|404:244,1,100
100,212,105579,2,0,P|112:176|164:148,1,100,8|0,0:0|0:0,0:0:0:0:
256,224,105932,2,0,P|248:284|248:284|264:308|264:308|256:368,2,150,0|8|0,0:0|0:0|0:0,0:0:0:0:
256,192,106636,12,0,107692,0:0:0:0:
60,32,108044,6,0,P|156:36|156:36|212:124,1,200,4|8,0:0|0:0,0:0:0:0:
452,32,108748,2,0,P|356:36|356:36|300:124,1,200,0|8,0:0|0:0,0:0:0:0:
256,192,109277,1,0,0:0:0:0:
180,236,109453,6,0,P|256:292|332:236,1,200,0|8,0:0|0:0,0:0:0:0:
180,148,110157,2,0,P|256:92|332:148,1,200,0|8,0:0|0:0,0:0:0:0:
256,192,110685,1,0,0:0:0:0:
180,236,110861,6,0,P|80:280,1,100
180,148,111213,2,0,P|80:104,1,100,8|0,0:0|0:0,0:0:0:0:
8,96,111565,2,0,P|36:192|36:192|8:288,1,200,0|8,0:0|0:0,0:0:0:0:
8,288,112093,1,0,0:0:0:0:
68,340,112269,6,0,P|192:356,1,100
316,256,112622,2,0,P|216:300,1,100,8|0,0:0|0:0,0:0:0:0:
292,344,112974,2,0,P|504:364,1,200,0|8,0:0|0:0,0:0:0:0:
504,264,113502,1,0,0:0:0:0:
484,164,113678,6,0,P|500:92|488:52,1,100
404,112,114030,2,0,P|388:184|400:224,1,100,8|0,0:0|0:0,0:0:0:0:
504,264,114382,2,0,P|424:356,1,100
340,348,114734,2,0,P|420:256,1,100,8|0,0:0|0:0,0:0:0:0:
405,272,115086,5,0,0:0:0:0:
352,136,115262,1,0,0:0:0:0:
308,272,115438,1,8,0:0:0:0:
428,192,115614,1,0,0:0:0:0:
280,192,115790,2,0,P|232:240|256:336,1,150
239,316,116143,2,0,P|224:360|176:392,1,100,8|0,0:0|0:0,0:0:0:0:
100,348,116495,6,0,P|76:300|76:300|76:228,1,100
136,172,116847,2,0,P|136:125|136:125|112:77,1,100,8|0,0:0|0:0,0:0:0:0:
16,48,117199,2,0,P|48:144,1,100
216,116,117551,2,0,P|184:20,2,100,8|0|0,0:0|0:0|0:0,0:0:0:0:
256,208,118079,1,0,0:0:0:0:
256,208,118255,1,8,0:0:0:0:
256,208,118431,1,0,0:0:0:0:
168,248,118607,6,0,P|136:184,4,50,0|0|0|0|8,0:0|0:0|0:0|0:0|0:0,0:0:0:0:
192,288,119047,1,0,0:0:0:0:
232,312,119135,1,0,0:0:0:0:
280,312,119223,1,0,0:0:0:0:
320,288,119311,1,0,0:0:0:0:
256,192,119488,12,4,120720,0:0:0:0:
