osu file format v5

[General]
AudioFilename: 1 Chain.mp3
AudioLeadIn: 0
PreviewTime: -1
Countdown: 0
SampleSet: Soft
StackLeniency: 0.7
Mode: 0
LetterboxInBreaks: 1

[Editor]
Bookmarks: 2400,7200,11520,11760,16320,19200,19440,25200,28320,30960,33000,34200,36000,37400,38000,40600,42000,44200,45000,49200,49600,116200,121400,179200,180800,184400
DistanceSpacing: 0.800000011920929
BeatDivisor: 4
GridSize: 32

[Metadata]
Title:Chain
Artist:Snow
Creator:fluidwind
Version:Normal
Source:
Tags:

[Difficulty]
HPDrainRate:5
CircleSize:5
OverallDifficulty:5
SliderMultiplier:1
SliderTickRate:2

[Events]
//Background and Video events
0,0,"shigofumi.jpg"
//Break Periods
2,3898,6239
2,30557,31776
2,116200,120200
//Storyboard Layer 0 (Background)
//Storyboard Layer 1 (Fail)
//Storyboard Layer 2 (Pass)
//Storyboard Layer 3 (Foreground)
//Storyboard Sound Samples
//Background Colour Transformations
3,100,163,162,255

[TimingPoints]
2950,374.158144175605,4,2,0,100,1,0
178800,-200,4,2,0,100,0,0
181600,-100,4,2,0,100,0,0

[Colours]
Combo1 : 255,200,117
Combo2 : 138,253,138
Combo3 : 145,145,253
Combo4 : 252,129,129

[HitObjects]
76,96,2856,1,2
133,151,3137,1,2
193,104,3417,1,2
248,160,3698,1,2
416,64,7439,5,0
440,90,7626,1,0
419,127,7814,1,0
439,158,8001,1,0
391,233,8562,1,0
315,276,9030,2,0,B|251:244,1,50
195,211,9591,2,0,B|159:152|94:168,1,100
113,164,10152,1,0
51,129,12023,5,0
124,70,12397,2,0,B|215:16|304:84,1,175
339,97,13426,2,0,B|388:145,3,50
408,177,14174,2,0,B|393:263|296:243,1,125
268,264,14829,2,0,B|161:307|64:232,1,200
68,106,16419,6,0,B|134:76,1,50
156,64,16793,1,0
199,56,16980,1,0
246,56,17168,2,0,B|313:76,1,50
334,104,17635,1,0
355,157,17822,1,0
315,196,18196,2,0,B|233:141|177:237,1,150
450,174,19412,6,0,B|418:238|354:238,1,100
315,299,20161,2,0,B|251:267|187:299,1,125
132,300,21003,1,0
106,276,21190,1,0
90,194,21564,1,0
140,134,21938,1,0
181,120,22125,2,0,B|245:120|277:184,1,100
460,130,23996,5,0
320,76,24370,1,0
128,64,25399,5,0
155,92,25586,1,0
196,75,25773,1,0
227,112,25960,1,0
273,106,26241,1,0
373,146,26615,1,0
420,178,26802,2,0,B|420:269|277:302,1,200
57,80,28392,6,0,B|112:80,1,50
146,64,28766,1,0
193,76,28953,1,0
244,84,29234,1,0
294,106,29608,2,0,B|330:101|332:147,1,50
349,180,30170,1,0
395,205,30357,1,0
64,113,32976,6,0,B|260:57|328:232,1,300
424,273,35969,6,0,B|223:287|156:136,1,300
142,81,38027,6,0,B|171:63|206:79,1,50
228,115,38588,1,0
189,148,38775,2,0,B|139:199,1,50
115,224,39149,2,0,B|179:320|467:320,1,350
96,192,41955,6,0,B|405:214,2,300
223,99,45042,6,0,B|164:175,2,75
284,94,45884,1,0
285,95,46071,2,0,B|343:328|71:323,1,375
64,320,49439,5,0
123,319,49626,2,0,B|183:284,1,50
224,292,50000,2,0,B|273:312|305:252|301:252,1,75
333,239,50561,2,0,B|392:201,1,50
414,176,51029,1,0
392,134,51216,1,0
297,112,51590,1,0
248,86,51871,1,0
214,128,52058,2,0,B|88:56|39:175,1,200
183,74,54022,5,0
97,162,54396,1,0
63,251,55425,5,0
85,214,55612,1,0
133,228,55799,1,0
145,184,55986,1,0
193,177,56173,1,0
304,145,56641,1,0
341,102,56828,1,0
423,58,58418,5,0
378,86,58606,1,0
338,105,58793,1,0
298,88,58980,1,0
252,103,59167,2,0,B|194:78|163:131,1,100
125,151,59822,2,0,B|105:222,1,50
112,200,60196,1,0
128,64,61412,5,0
175,53,61599,1,0
223,74,61786,1,0
260,64,61973,1,0
398,108,62628,1,0
372,193,63002,1,0
332,202,63189,1,0
244,228,63563,2,0,B|253:288|160:290,1,100
180,287,64124,1,0
141,233,65995,5,0
186,204,66182,1,0
196,161,66369,1,0
64,128,67398,5,0
106,98,67585,1,0
155,128,67772,1,0
196,89,67959,1,0
246,109,68240,1,0
377,127,68614,1,0
420,160,68801,1,0
158,234,70392,5,0
143,186,70579,1,0
199,169,70766,1,0
190,112,70953,1,0
243,97,71233,1,0
337,95,71608,2,0,B|401:95,1,50
434,160,72169,1,0
464,202,72356,1,0
309,268,72730,5,0
210,209,73291,1,0
32,64,73759,6,0,B|61:125,1,50
86,149,74227,1,0
193,131,74601,1,0
240,118,74788,1,0
454,124,75443,5,0
418,80,75723,2,0,B|377:42|314:72,1,100
277,96,76284,1,0
219,80,76565,2,0,B|154:106,1,50
121,125,77033,1,0
225,198,77407,1,0
356,186,77781,1,0
417,295,78155,1,0
223,296,78717,5,0
353,244,79278,1,0
487,186,79839,6,0,B|450:149,1,50
402,121,80213,1,0
295,76,80587,1,0
257,107,80774,1,0
29,320,81336,6,0,B|93:320|99:252,1,100
119,210,82084,1,0
124,154,82271,2,0,B|144:96|214:110,1,100
256,224,83019,1,0
304,160,83394,1,0
400,178,83768,1,0
452,71,84142,1,0
338,64,84610,6,0,B|230:26|144:98,1,200
105,112,85638,1,0
73,147,85826,1,0
55,193,86013,1,0
36,66,87135,6,0,B|93:72,1,50
137,79,87509,2,0,B|201:10|339:112,1,200
370,127,88632,1,0
426,153,89006,1,0
452,206,89380,1,0
301,283,90409,5,0
231,255,90596,1,0
67,122,91812,5,0
117,93,91999,1,0
249,70,92373,1,0
296,100,92560,1,0
393,113,93309,6,0,B|366:178,1,50
400,216,93683,2,0,B|381:276|308:275,1,100
236,257,94338,1,0
117,227,94618,1,0
73,193,94805,1,0
40,188,96583,6,0,B|69:290|203:270,1,200
253,269,97612,1,0
300,281,97799,1,0
332,246,97986,1,0
71,64,99108,6,0,B|133:77,1,50
180,72,99482,2,0,B|264:66|323:124,1,150
354,155,100231,2,0,B|391:221|296:244,1,125
258,260,100979,2,0,B|131:304,1,125
135,88,102382,5,0
191,97,102569,2,0,B|279:37|345:99,1,150
428,74,103785,6,0,B|392:130,1,50
335,166,104440,1,0
287,197,104627,1,0
39,308,105282,5,0
90,280,105469,1,0
77,239,105656,1,0
76,150,106124,1,0
159,121,106311,2,0,B|250:66,1,100
302,64,106872,2,0,B|498:228|321:341,1,325
455,245,109772,5,0
423,293,109959,1,0
372,317,110239,2,0,B|314:278,1,50
277,281,110614,1,0
242,324,110801,2,0,B|187:289,1,50
147,312,111175,1,0
94,283,111362,2,0,B|145:67|320:70,1,325
256,192,113981,12,0,115945
83,70,121371,5,0
118,108,121558,1,0
168,87,121838,1,0
213,114,122025,2,0,B|230:58|305:76,1,100
337,86,122587,2,0,B|381:136,1,50
399,167,122961,1,0
355,205,123241,1,0
254,253,123616,1,0
152,226,123896,1,0
105,198,124083,1,0
103,109,125954,6,0,B|162:67,1,50
188,50,126422,1,0
83,49,127357,5,0
105,99,127638,1,0
150,80,127825,1,0
186,115,128012,1,0
232,154,128199,2,0,B|301:153,1,50
333,127,128573,1,0
367,164,128760,1,0
428,282,130444,6,0,B|364:264,1,50
327,256,130818,1,0
279,283,131005,1,0
227,263,131192,2,0,B|172:218,1,50
143,203,131566,1,0
117,158,131753,2,0,B|160:113,1,50
185,84,132221,1,0
57,155,133437,6,0,B|109:57|191:77,1,150
274,74,134560,1,0
396,94,135027,1,0
434,137,135214,1,0
423,231,135495,2,0,B|412:292|335:288,1,100
351,287,136056,1,0
216,272,138021,6,0,B|144:187,1,100
87,162,139424,5,0
110,112,139611,1,0
163,128,139798,1,0
194,83,139985,1,0
240,49,140172,2,0,B|307:70,1,50
341,81,140546,1,0
378,121,140827,2,0,B|260:230,1,150
93,290,142417,5,0
145,266,142604,1,0
126,212,142791,1,0
180,198,142978,1,0
167,141,143165,2,0,B|221:100,1,50
255,95,143633,1,0
290,80,143820,1,0
365,86,144101,1,0
396,125,144288,1,0
88,80,145784,6,0,B|141:104,1,50
180,109,146159,2,0,B|230:80,1,50
276,72,146626,1,0
329,98,146813,1,0
476,180,147187,6,0,B|456:236|388:244,1,100
323,224,148029,1,0
296,276,148216,1,0
194,296,148591,1,0
108,247,149058,1,0
168,172,149432,1,0
72,136,149713,1,0
105,42,150181,1,0
187,48,151771,6,0,B|252:90,1,75
274,110,152239,1,0
223,201,152613,1,0
185,242,152800,1,0
94,274,153268,6,0,B|52:267|29:227,1,75
34,177,153735,1,0
118,141,154016,1,0
148,92,154203,2,0,B|208:47|261:115,1,125
216,184,155045,1,0
324,222,155419,1,0
355,115,155793,1,0
479,62,156074,1,0
466,157,156635,6,0,B|458:263|311:236,1,200
254,230,157570,1,0
204,212,157757,1,0
175,257,158038,1,0
95,187,159161,6,0,B|37:44,2,150
154,197,160564,1,0
222,105,161031,1,0
357,94,161405,1,0
431,226,162247,6,0,B|400:320|307:299,2,150
344,171,163838,1,0
307,130,164025,1,0
171,186,164399,1,0
135,143,164586,1,0
51,135,165334,5,0
108,72,165615,2,0,B|147:29|204:52,1,100
285,85,166270,1,0
383,67,166644,1,0
425,109,166831,1,0
465,44,168608,6,0,B|424:160|300:171,1,200
271,145,169637,1,0
250,186,169824,1,0
200,182,170011,1,0
34,302,171134,5,0
89,300,171321,1,0
92,252,171508,1,0
184,202,171975,1,0
229,232,172163,2,0,B|288:267|319:200,1,100
388,296,173004,1,0
436,228,173379,2,0,B|490:170|454:72,1,150
400,58,174314,6,0,B|228:45|171:151,1,250
97,78,175811,5,0
120,130,175998,1,0
239,121,176372,1,0
288,144,176559,1,0
87,275,177307,6,0,B|36:252,2,50
124,225,177962,2,0,B|57:159|116:90,1,150
172,81,178804,2,0,B|273:19|383:82,1,212.5
66,95,181797,5,0
105,57,181984,1,0
156,76,182171,2,0,B|207:100,1,50
252,79,182545,1,0
300,92,182732,2,0,B|345:124,1,50
393,147,183107,1,0
423,188,183294,1,0
