osu file format v5

[General]
AudioFilename: 1 Chain.mp3
AudioLeadIn: 1000
PreviewTime: -1
Countdown: 0
SampleSet: Soft
StackLeniency: 0.7
Mode: 0
LetterboxInBreaks: 1

[Editor]
Bookmarks: 2400,7200,11520,11760,16320,19200,19440,25200,28320,30960,33000,34200,36000,37400,38000,40600,42000,44200,45000,49200,49600,116200,121400,184400
DistanceSpacing: 0.800000011920929
BeatDivisor: 4
GridSize: 32

[Metadata]
Title:Chain
Artist:Snow
Creator:fluidwind
Version:Easy
Source:
Tags:

[Difficulty]
HPDrainRate:5
CircleSize:5
OverallDifficulty:0
SliderMultiplier:0.5
SliderTickRate:1

[Events]
//Background and Video events
0,0,"shigofumi.jpg"
//Break Periods
//Storyboard Layer 0 (Background)
//Storyboard Layer 1 (Fail)
//Storyboard Layer 2 (Pass)
//Storyboard Layer 3 (Foreground)
//Storyboard Sound Samples
//Background Colour Transformations
3,100,163,162,255

[TimingPoints]
2950,374.158144175605,4,2,0,100,1,0

[Colours]
Combo1 : 255,168,81
Combo2 : 128,255,128
Combo3 : 162,162,255
Combo4 : 255,128,128

[HitObjects]
400,245,7439,6,0,B|410:307|343:301,1,75
257,313,8655,2,0,B|206:321|194:272,1,75
137,212,9591,2,0,B|149:165|198:167,1,75
205,91,12023,5,0
284,142,12397,1,0
293,229,13519,6,0,B|313:291|381:272,1,100
463,219,14642,1,0
438,171,14829,1,0
139,188,16513,6,0,B|73:194|55:145,1,100
62,80,17635,1,0
115,61,17916,1,0
178,62,18290,2,0,B|211:33|255:76,1,75,0|0
387,222,19412,6,0,B|392:261|345:269,1,50
308,271,20161,2,0,B|284:300|248:285,1,50
168,275,21003,1,0
116,259,21190,1,0
59,187,21564,2,0,B|20:152|69:126,1,75
182,166,23996,5,0
283,126,24370,1,0
438,92,25493,6,0,B|408:36|346:52,1,100
283,69,26521,2,0,B|250:44|230:67,1,50
220,108,28392,6,0,B|190:46|121:69,1,112.5
58,89,29608,1,0
27,136,29795,1,0
78,241,30170,1,0
78,241,30357,2,0,B|117:330|207:295,1,150
471,239,32976,6,0,B|412:285|300:222,1,150
247,204,35969,6,0,B|172:240|99:157,1,150
122,118,38027,6,0,B|134:55|200:69,1,100
302,104,39149,2,0,B|334:206|210:201,1,150
99,196,41955,6,0,B|408:218,1,300
445,153,44949,6,0,B|449:112|399:107,1,50
282,134,45884,1,0
282,134,46071,2,0,B|263:234|383:212,1,150
56,222,49439,6,0,B|76:270|125:256,1,75
177,194,50561,1,0
132,163,50935,2,0,B|146:128,1,25
214,75,51590,2,0,B|272:105,1,50
257,98,52151,1,0
402,242,54022,6,0,B|389:280|348:278,1,50
81,224,55425,6,0,B|102:276|170:262,1,100
228,175,56548,1,0
284,153,56828,1,0
386,112,58418,6,0,B|343:70|286:84,1,100
242,102,59541,1,0
186,93,59822,1,0
137,117,60196,1,0
101,256,61412,6,0,B|121:300|167:277,1,75
287,281,62534,2,0,B|317:292|345:269,1,50
367,237,63189,1,0
380,184,63563,2,0,B|384:157|336:142,1,50
352,148,64124,1,0
170,272,65995,5,0
130,263,66182,1,0
115,236,66369,1,0
94,113,67398,6,0,B|100:68|151:74,1,75
204,79,68240,1,0
284,82,68614,1,0
326,111,68801,1,0
62,206,70392,6,0,B|24:170|61:130,1,75
95,101,71233,2,0,B|92:67|138:73,1,50
177,95,71795,1,0
227,172,72169,1,0
274,193,72356,1,0
92,76,73759,6,0,B|81:110|113:128,1,50
176,166,74601,1,0
157,212,74788,1,0
82,291,75349,6,0,B|95:324|132:309,1,50
175,291,76097,1,0
224,274,76284,1,0
196,198,76659,2,0,B|176:213|144:204,1,50
105,164,77407,1,0
136,100,77781,2,0,B|140:72|187:81,1,50
446,43,79839,6,0,B|428:43|417:53,1,25
344,76,80587,1,0
299,106,80774,1,0
441,256,81336,5,0
398,301,81710,2,0,B|352:296|356:248,1,75
297,224,82645,1,0
214,247,83019,1,0
166,169,83394,1,0
108,245,83768,1,0
55,169,84142,1,0
62,59,84703,5,0
149,92,85638,2,0,B|181:64|196:102,1,50
314,132,87135,5,0
315,88,87322,1,0
352,63,87509,2,0,B|397:24|446:58,1,100
470,103,88632,1,0
469,170,89006,1,0
385,226,89380,2,0,B|369:266|335:246,1,50
259,286,90409,5,0
201,289,90596,2,0,B|147:302|101:264,1,100
61,79,91812,6,0,B|101:66,1,25
171,56,92373,1,0
226,65,92560,1,0
321,102,93309,6,0,B|352:79|374:105,1,50
398,142,94057,1,0
361,187,94244,1,0
293,231,94618,1,0
236,233,94805,1,0
460,77,96583,6,0,B|407:51|367:61,1,87.5
315,122,97612,1,0
349,163,97799,1,0
302,191,97986,2,0,B|272:220|232:199,1,75
126,233,99108,5,0
80,206,99295,1,0
46,152,99482,2,0,B|32:88|96:77,1,100
166,42,100605,1,0
222,65,100979,1,0
259,108,101353,2,0,B|284:144|337:109,1,75
82,133,102288,5,0
136,108,102476,2,0,B|155:61|228:70,1,100
397,101,103785,6,0,B|403:120|391:135,1,25
371,177,104346,1,0
333,216,104533,1,0
45,305,105282,6,0,B|89:305|95:276,1,50
74,205,106124,1,0
116,171,106311,1,0
153,94,106685,1,0
196,82,106872,2,0,B|277:34|326:139,1,150
434,204,109865,6,0,B|453:248|423:256,1,50
399,300,110614,1,0
346,298,110801,1,0
286,235,111175,1,0
239,207,111362,2,0,B|186:128|100:177,1,150
256,192,113981,12,0,116413
