osu file format v12

[General]
AudioFilename: Chain (TV size).mp3
AudioLeadIn: 0
PreviewTime: 31426
Countdown: 0
SampleSet: Soft
StackLeniency: 0.7
Mode: 0
LetterboxInBreaks: 0

[Editor]
Bookmarks: 56349,85037
DistanceSpacing: 1
BeatDivisor: 4
GridSize: 8

[Metadata]
Title:Chain (TV Size)
TitleUnicode:Chain (TV Size)
Artist:Snow*
ArtistUnicode:Snow*
Creator:[-Google-]
Version:Normal
Source:Shigofumi
Tags:OST taiko_maniac1811 Frans_Niko S_h_i_e_R_e Rewrite LoliSora
BeatmapID:243818
BeatmapSetID:87008

[Difficulty]
HPDrainRate:4
CircleSize:3
OverallDifficulty:4
ApproachRate:5
SliderMultiplier:1.60000000596046
SliderTickRate:2

[Events]
//Background and Video events
0,0,"shigofumi.jpg",0,0
Video,6572,"Shigofumi.flv"
//Break Periods
//Storyboard Layer 0 (Background)
//Storyboard Layer 1 (Fail)
//Storyboard Layer 2 (Pass)
//Storyboard Layer 3 (Foreground)
//Storyboard Sound Samples
//Background Colour Transformations
3,100,163,162,255

[TimingPoints]
300,750,4,2,1,15,1,0
2622,836.00390135154,4,2,1,15,1,0
2831,960,4,2,1,15,1,0
3071,749.344323716748,4,2,1,15,1,0
6068,749.344323716748,4,2,1,15,1,0
6300,743.99226248047,4,2,1,50,1,0
10027,765.999821266708,4,2,1,50,1,0
13073,737.998302603904,4,2,1,50,1,0
16024,737.998302603904,4,2,1,50,1,0
16038,800,4,2,1,50,1,0
18282,750,4,2,1,50,1,0
19602,750,4,2,1,50,1,0
20197,750,4,2,1,50,1,0
21746,681.818181818182,4,2,1,50,1,0
22001,-100,4,2,2,40,0,0
22172,-100,4,2,1,50,0,0
22761,750,4,2,1,50,1,0
23559,750,4,2,1,50,1,0
27301,750,4,2,1,50,1,0
30488,-100,4,2,1,40,0,0
31988,-100,4,2,1,50,0,0
36019,-100,4,2,2,50,0,0
36207,-100,4,2,1,50,0,0
36488,-100,4,2,1,40,0,0
37988,-100,4,2,1,50,0,0
42301,-83.3333333333333,4,2,0,70,0,1
42488,-83.3333333333333,4,2,1,70,0,1
48394,-83.3333333333333,4,2,2,70,0,1
48582,-83.3333333333333,4,2,1,70,0,1
53738,-100,4,2,1,50,0,0
54301,-83.3333333333333,4,2,0,70,0,1
54488,-83.3333333333333,4,2,1,70,0,1
66301,-100,4,2,1,50,0,0
67787,769.230769230769,4,2,1,50,1,0
69287,750,4,1,0,50,1,0
69849,-100,4,2,1,50,0,0
85782,705.882352941176,4,2,1,50,1,0
86840,-100,4,2,1,40,0,0
87106,750,4,2,1,40,1,0
87668,-100,4,2,1,30,0,0
88231,-100,4,2,1,20,0,0
88606,-100,4,2,1,10,0,0
88981,-100,4,2,1,5,0,0

[Colours]
Combo1 : 87,87,179
Combo2 : 225,136,77
Combo3 : 190,86,125
Combo4 : 217,196,130

[HitObjects]
256,192,2550,12,4,6300,0:0:0:0:
404,256,7043,6,0,B|384:296|344:320,1,80.000000298023,2|0,0:0|0:0,0:0:0:0:
276,344,7787,2,0,B|236:324|212:284,1,80.000000298023,2|0,0:0|0:0,0:0:0:0:
184,220,8531,2,0,B|204:180|244:156,1,80.000000298023,2|0,0:0|0:0,0:0:0:0:
308,124,9275,2,0,B|348:144|372:184,1,80.000000298023,2|0,0:0|0:0,0:0:0:0:
412,244,10027,5,0,0:0:0:0:
384,320,10409,1,0,0:0:0:0:
304,332,10792,1,2,0:0:0:0:
144,328,11558,5,2,0:0:0:0:
156,248,11941,1,0,0:0:0:0:
232,220,12324,1,2,0:0:0:0:
356,308,13073,6,0,B|392:284|408:244,1,80.000000298023
404,168,13810,2,0,P|332:132|248:124,1,160.000000596046,2|0,0:0|0:0,0:0:0:0:
160,252,15286,5,2,0:0:0:0:
292,328,16038,2,0,B|340:256|300:176,1,160.000000596046,0|2,0:0|0:0,0:0:0:0:
228,216,17238,1,0,0:0:0:0:
232,136,17638,2,0,P|276:96|336:80,1,129.000000447034,0|4,0:0|0:0,0:0:0:0:
432,220,19032,2,0,B|452:260|428:298,1,80.000000298023
360,252,19789,6,0,B|340:208|371:169,1,80.000000298023,2|0,0:0|0:0,0:0:0:0:
280,172,20572,1,0,0:0:0:0:
256,96,20947,1,0,0:0:0:0:
184,60,21322,2,0,B|108:20|29:59,1,163.000000596046,2|0,0:0|0:0,0:0:0:0:
104,180,22761,1,2,0:0:0:0:
204,316,23559,5,0,0:0:0:0:
232,240,23934,1,0,0:0:0:0:
308,220,24309,1,2,0:0:0:0:
424,332,25059,6,0,B|459:301|456:259,1,80.000000298023
388,220,25809,1,2,0:0:0:0:
312,200,26184,2,0,B|280:224|232:224,1,80.000000298023
156,236,26934,1,0,0:0:0:0:
120,164,27301,2,0,P|112:124|120:84,2,80.000000298023,2|0|0,0:0|0:0|0:0,0:0:0:0:
192,124,28426,6,0,B|236:124|264:168,1,80.000000298023,0|2,0:0|0:0,0:0:0:0:
192,204,29176,1,0,0:0:0:0:
260,244,29551,1,4,3:0:0:0:
328,200,29926,1,0,0:0:0:0:
328,120,30301,5,8,0:0:0:0:
264,72,30676,2,0,L|228:54,1,40.0000001490115,0|8,1:0|0:0,0:0:0:0:
108,64,31426,6,0,P|68:52|32:68,1,80.000000298023,0|8,1:0|0:0,0:0:0:0:
72,136,32176,2,0,L|72:176,1,40.0000001490115,0|2,0:0|0:0,0:0:0:0:
176,240,32926,1,0,0:0:0:0:
96,248,33301,6,0,B|96:296|136:316,1,80.000000298023,8|0,0:0|0:0,0:0:0:0:
172,328,33863,1,8,0:0:0:0:
252,344,34238,1,0,0:0:0:0:
328,320,34613,2,0,P|368:316|412:284,1,80.000000298023,10|0,0:0|0:0,0:0:0:0:
344,240,35363,1,8,0:0:0:0:
264,244,35738,2,0,B|264:180|316:132,1,120.000000447034,2|8,0:0|0:0,0:0:0:0:
376,88,36676,5,0,1:0:0:0:
376,88,36863,1,8,0:0:0:0:
468,168,37426,6,0,B|463:203|426:234,1,80.000000298023,0|8,1:0|0:0,0:0:0:0:
404,312,38176,1,0,0:0:0:0:
404,312,38363,1,8,0:0:0:0:
284,316,38926,5,0,0:0:0:0:
312,240,39301,2,0,B|280:232|259:181,1,80.000000298023,8|0,0:0|0:0,0:0:0:0:
240,144,39863,2,0,B|224:96|176:80,1,80.000000298023,10|0,0:0|0:0,0:0:0:0:
152,160,40613,5,4,0:0:0:0:
96,224,40988,1,4,0:0:0:0:
144,288,41363,1,4,0:0:0:0:
200,232,41738,1,4,0:0:0:0:
336,288,42301,6,0,P|295:260|271:218,1,95.9999974279402,4|0,0:0|0:0,0:0:0:0:
216,144,43051,2,0,B|188:89|151:76,1,95.9999974279402
104,68,43613,1,8,0:0:0:0:
84,160,43988,2,0,L|104:204,1,47.9999987139701
116,300,44551,5,0,0:0:0:0:
156,324,44738,1,0,0:0:0:0:
204,316,44926,2,0,L|236:272,2,47.9999987139701,0|0|8,0:0|0:0|0:0,0:0:0:0:
304,316,45676,5,0,0:0:0:0:
308,220,46051,1,0,0:0:0:0:
380,160,46426,1,0,0:0:0:0:
440,236,46801,2,0,L|440:292,2,47.9999987139701,8|0|0,0:0|0:0|0:0,0:0:0:0:
380,160,47551,1,8,0:0:0:0:
284,152,47926,5,0,0:0:0:0:
284,152,48113,2,0,B|220:152|220:200|151:199,1,143.99999614191
112,112,49051,1,8,0:0:0:0:
196,64,49426,2,0,L|244:64,1,47.9999987139701
284,152,49988,2,0,L|324:180,1,47.9999987139701
340,84,50551,1,8,0:0:0:0:
428,44,50926,6,0,B|472:24,2,47.9999987139701,0|0|0,0:0|0:0|0:0,0:0:0:0:
429,139,51676,2,0,L|392:180,1,47.9999987139701,0|10,0:0|0:0,0:0:0:0:
317,229,52238,2,0,L|266:252,1,47.9999987139701,8|0,0:0|0:0,0:0:0:0:
176,255,52801,2,0,B|120:255|84:223,1,95.9999974279402,8|0,0:0|0:0,0:0:0:0:
50,136,53551,2,0,B|50:88,1,47.9999987139701,8|4,0:0|0:0,0:0:0:0:
196,88,54301,6,0,P|288:64|380:88,1,191.99999485588,4|8,0:0|0:0,0:0:0:0:
408,128,55238,2,0,L|428:176,2,47.9999987139701
376,268,56176,2,0,P|336:296|290:304,1,95.9999974279402,0|8,0:0|0:0,0:0:0:0:
244,288,56738,2,0,L|200:316,2,47.9999987139701
276,252,57301,2,0,B|276:204|224:176,1,95.9999974279402,8|0,0:0|0:0,0:0:0:0:
312,132,58051,6,0,B|271:121|246:67,1,95.9999974279402,8|0,0:0|0:0,0:0:0:0:
152,76,58801,2,0,B|110:87|84:141,1,95.9999974279402,8|0,0:0|0:0,0:0:0:0:
60,236,59551,2,0,P|88:272|132:304,1,95.9999974279402,8|0,0:0|0:0,0:0:0:0:
224,300,60301,5,8,0:0:0:0:
304,244,60676,2,0,B|280:196,1,47.9999987139701,0|8,0:0|0:0,0:0:0:0:
256,60,61426,1,0,0:0:0:0:
168,96,61801,1,8,0:0:0:0:
128,184,62176,2,0,B|172:216,1,47.9999987139701,0|8,1:0|0:0,0:0:0:0:
292,288,62926,6,0,B|352:304,2,47.9999987139701,0|0|8,0:0|0:0|0:0,0:0:0:0:
197,307,63676,2,0,L|141:295,1,47.9999987139701,0|8,0:0|0:0,0:0:0:0:
93,219,64238,2,0,L|44:204,1,47.9999987139701,8|4,0:0|0:0,0:0:0:0:
256,192,64613,12,0,66113,0:0:0:0:
392,64,67426,6,0,L|424:96,1,40.0000001490115
432,128,67787,2,0,P|407:160|366:180,2,80.000000298023
288,72,69287,5,0,0:0:0:0:
140,132,70037,1,8,0:0:0:0:
196,188,70412,2,0,B|276:176|340:244,1,160.000000596046,0|0,0:0|1:0,0:0:0:0:
272,288,71537,2,0,B|335:355|415:343,1,160.000000596046,8|0,0:0|1:0,0:0:0:0:
460,276,72662,1,0,0:0:0:0:
412,212,73037,2,0,B|396:164|356:148,2,80.000000298023,8|0|0,0:0|0:0|0:0,0:0:0:0:
264,156,74537,6,0,B|280:204|320:220,2,80.000000298023,8|0|0,0:0|0:0|1:0,0:0:0:0:
116,92,76037,2,0,B|198:234|147:226|147:226|166:178|248:320,1,320.000001192092,8|8,0:0|0:3,0:0:0:0:
332,184,78287,5,2,0:0:0:0:
172,160,79037,1,2,0:0:0:0:
224,312,79787,1,2,0:0:0:0:
384,300,80537,6,0,B|384:260|415:229,2,80.000000298023,2|0|2,0:0|0:0|0:0,0:0:0:0:
228,336,82037,1,2,0:0:0:0:
254,178,82787,1,2,0:0:0:0:
118,240,83537,2,2,B|330:192|254:424|178:192|388:240,1,320.000001192092,0|0,0:0|0:0,0:0:0:0:
256,192,85782,12,0,88981,0:0:0:0:
