osu file format v5

[General]
AudioFilename: 01-namikaze-satellite.mp3
AudioLeadIn: 0
PreviewTime: -1
Countdown: 1
SampleSet: Normal

[Metadata]
Title:Namikaze Satellite
Artist:Snorkel
Creator:KyotoPlayer
Version:Normal

[Difficulty]
HPDrainRate:6
CircleSize:7
OverallDifficulty:6
SliderMultiplier:1.3
SliderTickRate:1

[Events]
//Background and Video events
0,0,"th_naruto.jpg"
//Break Periods
2,44200,50950
2,114200,120950
2,167200,171950
//Storyboard Layer 0 (Background)
//Storyboard Layer 1 (Failing)
//Storyboard Layer 2 (Passing)
//Storyboard Layer 3 (Foreground)
//Storyboard Sound Samples
//Background Colour Transformations
3,100,163,162,255

[TimingPoints]
0,666.666666666667,4,1,0,100

[HitObjects]
255,188,26000,1,0
315,189,27000,1,0
152,191,29000,1,0
213,195,30000,1,0
259,192,32000,1,0
330,207,33000,1,0
258,192,35000,1,0
205,193,36000,1,0
124,190,38000,1,0
183,195,39000,1,0
236,196,40000,1,0
16,183,42000,2,0,B|405:177,1,280
256,192,52000,5,0
333,200,53000,1,0
134,189,54000,1,0
260,192,56000,1,0
333,194,57000,1,0
250,188,58000,5,0
312,195,59000,1,0
191,193,60000,1,0
260,191,61000,1,0
345,187,63000,1,0
258,192,64000,1,0
176,196,65000,1,0
262,198,66000,1,0
355,197,68000,1,0
250,193,70000,1,0
12,175,72000,2,0,B|507:196,1,420
256,194,78000,1,0
305,199,79000,1,0
374,196,80000,1,0
259,194,82000,1,0
257,144,83000,1,0
256,192,85000,12,0,87000
254,200,89000,1,0
196,196,91000,1,0
256,193,92000,1,0
352,196,93000,1,0
28,188,97000,2,0,B|436:208,1,280
260,192,102000,1,0
320,196,103000,1,0
184,196,104000,1,0
255,197,105000,1,0
342,186,107000,1,0
260,144,109000,1,0
257,200,110000,1,0
173,198,112000,1,0
303,194,113000,1,0
249,194,114000,1,0
259,196,122000,1,0
313,202,123000,1,0
351,196,124000,1,0
247,189,125000,1,0
25,185,127000,2,0,B|479:207,2,420
262,192,135000,1,0
384,208,136000,1,0
384,208,137000,1,0
252,193,138000,1,0
148,194,140000,1,0
259,194,141000,1,0
312,191,142000,1,0
260,188,144000,1,0
339,190,147000,1,0
245,195,149000,1,0
172,196,151000,1,0
256,203,152000,1,0
260,172,153000,1,0
256,132,155000,1,0
261,194,157000,1,0
209,192,160000,1,0
66,194,162000,6,0,B|464:228,1,280
253,195,165000,1,0
265,154,166000,1,0
164,204,167000,1,0
260,194,173000,1,0
256,192,174000,12,0,175000
252,184,177000,1,0
191,186,179000,1,0
259,190,180000,5,0
148,191,182000,1,0
56,194,184000,2,0,B|404:208|413:136|36:61,1,560
256,192,190000,12,0,191000
256,192,193000,12,0,194000
258,191,197000,1,0
340,191,198000,1,0
252,188,200000,1,0
120,186,202000,1,0
256,148,204000,1,0
256,201,205000,1,0
164,191,207000,1,0
323,196,208000,1,0
51,204,211000,2,0,B|483:180,1,420
260,189,216000,1,0
298,194,218000,1,0
246,191,220000,1,0
165,185,223000,1,0
261,188,225000,1,0
256,192,227000,12,0,230000
256,192,232000,12,0,234000
256,192,235000,12,0,237000
