osu file format v5

[General]
AudioFilename: 01-namikaze-satellite.mp3
AudioLeadIn: 0
PreviewTime: -1
Countdown: 1
SampleSet: Normal

[Metadata]
Title:Namikaze Satellite
Artist:Snorkel
Creator:KyotoPlayer
Version:Hard

[Difficulty]
HPDrainRate:6
CircleSize:7
OverallDifficulty:6
SliderMultiplier:1.4
SliderTickRate:1

[Events]
//Background and Video events
0,0,"th_naruto.jpg"
//Break Periods
2,35623,45219
2,79469,83065
2,115200,119950
//Storyboard Layer 0 (Background)
//Storyboard Layer 1 (Failing)
//Storyboard Layer 2 (Passing)
//Storyboard Layer 3 (Foreground)
//Storyboard Sound Samples
//Background Colour Transformations
3,100,163,162,255

[TimingPoints]
0,461.538461538462,4,1,0,100
0,461.538461538462,4,1,0,100

[HitObjects]
256,192,25384,1,0
288,192,25615,1,0
320,192,25961,1,0
352,192,26423,1,0
352,192,26653,1,0
384,192,26884,1,0
416,192,27115,1,0
416,192,27346,1,0
448,192,27692,1,0
416,192,28153,1,0
416,192,28384,1,0
384,192,28730,1,0
352,192,28961,5,0
352,192,29307,1,0
320,192,29653,1,0
288,192,30115,1,0
256,192,30230,1,0
160,192,30807,1,0
160,192,30923,1,0
160,192,31269,1,0
160,192,31615,1,0
160,160,31961,1,0
160,160,32192,1,0
192,192,32653,5,0
192,192,32769,1,0
224,192,33346,1,0
256,192,33692,2,0,B|512:160,1,245
320,160,35307,1,0
320,160,35423,1,0
256,192,45576,5,0
288,192,45923,1,0
288,192,46269,1,0
320,192,46730,1,0
288,160,47192,1,0
288,160,47423,1,0
224,160,48000,1,0
224,128,48346,1,0
224,128,48461,1,0
160,128,48807,1,0
160,128,49384,1,0
128,160,49846,1,0
128,160,50423,1,0
128,160,50769,1,0
128,160,51000,1,0
160,160,51346,1,0
192,160,51807,1,0
256,160,52384,1,0
256,160,52846,1,0
256,160,53307,1,0
256,160,53423,1,0
288,160,53769,1,0
288,160,54115,1,0
320,160,54461,1,0
384,160,54692,1,0
384,160,55038,1,0
384,160,55384,1,0
320,160,55961,1,0
320,160,56307,1,0
288,160,56653,1,0
256,160,57000,1,0
256,160,57346,1,0
224,160,57576,1,0
224,160,57923,1,0
224,160,58269,1,0
256,160,58846,1,0
256,160,58961,1,0
256,160,59192,1,0
320,128,59538,1,0
288,128,59884,1,0
256,128,60230,1,0
256,128,60576,1,0
256,128,60807,1,0
64,192,61038,2,0,B|448:192,2,350
448,192,63807,2,0,B|64:160,2,350
64,160,66576,2,0,B|480:320|256:64,1,420
128,96,68884,1,0
160,96,69115,1,0
224,96,69461,1,0
224,96,69692,1,0
224,96,70038,1,0
288,96,70269,1,0
288,96,70730,1,0
320,128,70961,1,0
288,160,71653,5,0
224,128,71884,1,0
192,128,72230,1,0
160,128,72576,1,0
128,128,72923,1,0
128,96,73153,1,0
160,96,73500,1,0
224,96,73961,1,0
256,96,74076,1,0
256,96,74423,1,0
256,96,74769,1,0
256,128,75000,1,0
160,160,75923,5,0
192,160,76269,1,0
192,160,76615,1,0
256,160,76846,1,0
256,160,77192,1,0
288,160,77538,1,0
320,160,78000,1,0
320,160,78230,1,0
352,160,78576,1,0
352,160,78807,1,0
352,128,79269,1,0
352,128,84115,1,0
288,128,84576,1,0
192,160,85038,1,0
256,128,86076,1,0
256,128,86307,1,0
320,160,86653,1,0
320,160,87000,1,0
320,160,87346,1,0
320,160,87692,1,0
224,160,87923,1,0
224,160,88384,1,0
192,160,88500,1,0
192,160,88961,1,0
192,160,89307,1,0
224,128,89769,1,0
224,128,91038,5,0
256,128,91384,1,0
256,128,91730,1,0
320,160,92076,1,0
320,192,92423,1,0
320,192,92769,1,0
256,192,93000,1,0
256,192,93346,1,0
256,192,93576,1,0
256,128,93923,1,0
128,128,96115,1,0
160,160,96346,1,0
256,192,96692,1,0
288,224,97038,1,0
352,256,97384,1,0
352,288,97730,1,0
384,192,98076,1,0
384,192,98307,1,0
384,192,98538,1,0
320,160,99000,1,0
288,160,99346,1,0
64,160,101076,2,0,B|448:288|384:96,2,385
352,96,104076,2,0,B|96:320|96:96,2,350
64,64,107192,2,0,B|384:320|416:96,1,420
416,96,109269,2,0,B|256:224,3,175
64,160,111576,2,0,B|416:320|416:160,2,385
256,192,120230,1,0
256,192,120576,1,0
288,192,121038,1,0
320,192,121500,1,0
352,192,121730,1,0
352,192,122076,1,0
288,160,122423,1,0
288,160,123000,1,0
288,160,123346,1,0
256,160,123692,1,0
192,160,124153,1,0
192,160,124500,1,0
192,160,124730,1,0
256,128,125192,1,0
256,128,125423,1,0
160,128,125769,1,0
160,128,126000,1,0
160,128,126346,1,0
160,128,126576,1,0
256,64,126923,1,0
256,96,127269,1,0
288,128,127500,1,0
288,128,127961,1,0
288,128,128653,5,0
256,128,129000,1,0
224,128,129346,1,0
192,128,129923,1,0
192,128,130269,1,0
192,128,130500,1,0
192,192,130961,1,0
224,192,131423,1,0
256,192,131538,1,0
288,192,131884,1,0
288,160,132230,1,0
320,128,132461,1,0
320,160,132807,1,0
352,160,133153,1,0
352,128,133615,1,0
352,96,133846,1,0
352,64,134307,1,0
320,64,134884,1,0
288,64,135461,1,0
256,64,135807,1,0
256,96,136153,1,0
288,96,136500,1,0
288,128,136846,1,0
256,128,137192,1,0
224,128,137538,1,0
192,96,137769,1,0
192,128,138115,1,0
192,128,138461,1,0
224,128,138807,1,0
256,128,139153,1,0
288,128,139500,1,0
320,128,139846,1,0
352,128,140423,1,0
320,96,140884,1,0
320,96,141115,1,0
288,96,141461,1,0
288,96,141807,1,0
256,160,142384,1,0
256,160,142846,1,0
160,352,144346,5,0
128,320,144923,1,0
96,288,145153,1,0
64,256,145500,1,0
64,224,145615,1,0
128,160,145961,1,0
96,192,146192,1,0
160,128,146538,1,0
192,96,146884,1,0
224,96,147461,1,0
256,96,147692,1,0
288,96,148269,1,0
320,128,148730,1,0
352,160,148846,1,0
384,192,149192,1,0
384,224,150115,1,0
384,256,150346,1,0
352,288,150692,1,0
320,320,151038,1,0
288,352,151384,1,0
256,384,151730,1,0
224,384,152076,1,0
192,384,152653,1,0
192,352,153346,1,0
192,320,153692,1,0
192,288,153923,1,0
192,256,154269,1,0
224,224,154500,1,0
256,192,155307,1,0
224,128,155884,1,0
224,160,156461,1,0
224,192,156576,1,0
256,192,156923,1,0
288,192,157846,1,0
288,192,158076,1,0
352,192,158423,1,0
352,192,158769,1,0
352,192,159000,1,0
352,160,159346,1,0
352,160,159692,1,0
256,128,160153,1,0
320,128,160500,1,0
352,128,160846,1,0
384,96,161076,1,0
256,128,162000,5,0
256,96,162346,1,0
320,64,162923,1,0
320,128,163500,1,0
288,128,163615,1,0
256,160,164192,1,0
256,160,164538,1,0
256,192,164884,1,0
288,224,165115,1,0
320,256,165461,1,0
352,224,165807,1,0
352,224,166153,1,0
352,192,166500,1,0
320,160,166846,1,0
288,160,167076,1,0
256,128,167423,1,0
160,128,168461,1,0
192,192,169615,1,0
192,192,169846,1,0
224,192,170192,1,0
256,192,170423,1,0
288,192,170769,1,0
320,192,171115,1,0
320,192,171461,1,0
320,192,171807,1,0
352,160,172269,1,0
320,160,172730,1,0
320,128,173192,1,0
288,128,173538,1,0
256,96,173884,1,0
224,96,174115,1,0
288,64,174576,1,0
224,64,174807,1,0
256,64,175153,1,0
192,64,175500,1,0
192,96,176307,1,0
160,128,177000,1,0
128,128,177230,1,0
96,192,177346,2,0,B|448:192,3,315
320,128,180923,1,0
256,128,181269,1,0
256,128,181615,1,0
160,128,181846,1,0
160,128,182192,1,0
192,128,182769,1,0
192,128,183230,1,0
256,128,183923,1,0
256,128,184384,1,0
288,128,184615,1,0
320,128,184961,1,0
352,128,185307,1,0
352,160,185538,1,0
352,160,185884,1,0
320,160,186461,1,0
320,160,186807,1,0
256,160,187153,1,0
256,160,187730,1,0
224,160,188076,1,0
224,160,188423,1,0
192,160,189000,1,0
192,128,189346,1,0
224,128,189692,1,0
256,128,190038,1,0
256,128,190384,1,0
256,128,190846,1,0
288,128,191307,1,0
288,128,191538,1,0
320,128,192115,1,0
320,96,192576,1,0
256,96,193961,1,0
224,96,194307,1,0
192,128,194653,1,0
192,160,194884,1,0
192,160,195346,1,0
192,192,195576,1,0
192,192,196038,1,0
224,192,196269,1,0
224,192,196500,1,0
256,192,196846,1,0
256,192,197192,1,0
352,192,198923,5,0
288,192,199269,1,0
288,192,199730,1,0
288,192,199961,1,0
256,192,200307,1,0
256,192,200653,1,0
192,192,201000,1,0
192,192,201230,1,0
160,192,201576,1,0
160,192,201807,1,0
160,192,202153,1,0
96,192,202500,1,0
224,192,204000,1,0
224,192,204346,1,0
256,192,204576,1,0
256,160,204923,1,0
256,160,205269,1,0
256,160,205615,1,0
256,128,206076,1,0
256,128,206307,1,0
256,128,206653,1,0
288,128,207000,1,0
320,128,207346,1,0
320,96,208500,1,0
288,64,209192,1,0
256,64,209769,1,0
224,96,210115,1,0
224,128,210461,1,0
224,160,210807,1,0
224,160,211153,1,0
224,192,211730,5,0
256,192,212076,1,0
288,160,212423,1,0
320,128,213000,1,0
352,96,214038,1,0
320,128,214500,1,0
288,160,214846,1,0
288,192,215423,2,0,B|0:320,2,280
448,32,218307,2,0,B|96:352|448:192|448:352,3,455
448,288,223269,2,0,B|64:96,1,420
64,192,225923,2,0,B|338:332|313:128|480:256|288:96,3,455
256,96,230769,1,0
256,96,231000,1,0
288,128,231346,1,0
320,128,231692,1,0
320,160,232038,1,0
320,192,232500,1,0
288,192,232730,1,0
256,192,233076,1,0
224,192,233307,1,0
192,192,233653,1,0
192,192,234000,1,0
160,192,234346,1,0
128,160,234576,1,0
160,128,235153,1,0
192,128,235269,1,0
224,128,235846,1,0
256,128,236192,1,0
256,160,236538,1,0
224,192,236884,1,0
224,192,237230,1,0
256,192,238500,12,0,239769
