osu file format v10

[General]
AudioFilename: breakfast.mp3
AudioLeadIn: 0
PreviewTime: 21339
Countdown: 0
SampleSet: Normal
StackLeniency: 0.4
Mode: 0
LetterboxInBreaks: 1

[Editor]
Bookmarks: 5354,21363,68000,72000
DistanceSpacing: 1
BeatDivisor: 8
GridSize: 4

[Metadata]
Title:Brunch (Sequel to BreakFast)
TitleUnicode:Brunch (Sequel to BreakFast)
Artist:SniperSnake19
ArtistUnicode:SniperSnake19
Creator:grumd
Version:Insane
Source:
Tags:[Luanny PhNyx] Shiro Odaril breakcore
BeatmapID:167655
BeatmapSetID:55235

[Difficulty]
HPDrainRate:7
CircleSize:4
OverallDifficulty:9
ApproachRate:9
SliderMultiplier:1.75
SliderTickRate:1

[Events]
//Background and Video events
0,0,"72028-1024x768.jpg"
//Break Periods
//Storyboard Layer 0 (Background)
//Storyboard Layer 1 (Fail)
//Storyboard Layer 2 (Pass)
//Storyboard Layer 3 (Foreground)
//Storyboard Sound Samples
//Background Colour Transformations
3,100,163,162,255

[TimingPoints]
21,333.333333333333,4,2,0,30,1,0
5354,-125,4,2,0,30,0,0
6687,-125,4,2,0,35,0,0
7604,-125,4,2,0,30,0,0
10187,-125,4,2,0,25,0,0
10270,-125,4,2,0,30,0,0
10687,-125,4,2,0,25,0,0
11354,-125,4,2,0,30,0,0
12020,-125,4,2,0,35,0,0
13354,-125,4,2,0,30,0,0
14687,-125,4,2,0,35,0,0
15520,-125,4,2,0,30,0,0
17354,-125,4,2,0,35,0,0
18020,-125,4,2,0,30,0,0
20020,-125,4,2,0,35,0,0
21339,333.333333333333,4,1,0,40,1,0
47005,-133.333333333333,4,1,0,40,0,0
72005,-100,4,1,0,40,0,0
88005,-100,4,1,0,40,0,1
89338,-100,4,1,0,40,0,0
101338,-100,4,1,0,40,0,1
102338,-100,4,1,0,40,0,0
109338,-100,4,1,0,33,0,0
109838,-100,4,1,0,40,0,0
110505,-100,4,1,0,33,0,0
110672,-100,4,1,0,40,0,0
114672,-100,4,1,0,40,0,1
115172,-100,4,1,0,40,0,0

[Colours]
Combo1 : 203,196,184
Combo2 : 134,128,111

[HitObjects]
296,248,5354,2,0,B|368:229|434:260,2,140,0|0|2,0:0|0:0|0:0,0:0:0
169,309,6354,1,0,0:0:0
55,227,6687,1,0,0:0:0
55,227,6854,2,0,B|50:153|92:93,2,140,0|2|2,0:0|0:0|0:0,0:0:0
117,258,7687,2,0,B|142:233|178:228,1,70
239,193,8020,6,0,B|313:191|367:131,1,140
426,11,8687,1,2,0:0:0
300,73,9020,2,0,B|238:120|239:195,1,140
289,241,9520,2,0,B|360:228|424:269,2,140,0|2|0,0:0|0:0|0:0,0:0:0
225,271,10354,2,0,B|211:304|182:326,1,70
229,201,10687,6,0,B|168:159|152:84,1,140
288,121,11354,1,2,0:0:0
198,13,11687,1,0,0:0:0
145,142,12020,1,0,0:0:0
84,177,12187,2,0,B|92:248|50:314,2,140,0|2|2,0:0|0:0|0:0,0:0:0
84,106,13020,2,0,B|59:80|52:43,1,70
145,142,13354,6,0,B|211:157|263:219,1,140
383,283,14020,2,0,B|400:214|455:164,1,140,2|0,0:0|0:0,0:0:0
383,283,14687,1,0,0:0:0
383,283,14854,2,0,B|319:318|248:306,1,140,0|2,0:0|0:0,0:0:0
120,248,15520,2,0,B|85:261|61:287,2,70
132,178,16020,6,0,B|202:184|269:151,2,140,0|0|2,0:0|0:0|0:0,0:0:0
20,92,17020,1,0,0:0:0
156,57,17354,1,0,0:0:0
156,57,17520,2,0,B|224:63|284:112,1,140,0|2,0:0|0:0,0:0:0
308,177,18020,2,0,B|334:205|372:208,1,70,0|0,0:0|0:0,0:0:0
238,167,18354,2,0,B|200:175|179:206,1,70,0|0,0:0|0:0,0:0:0
188,274,18687,6,0,B|192:201|148:140,1,140
46,47,19354,1,2,0:0:0
149,142,19687,2,0,B|207:179|285:176,1,140
337,131,20187,2,0,B|391:87|469:83,1,140,0|2,0:0|0:0,0:0:0
60,100,21339,6,0,B|49:57,2,43.75
140,134,21672,2,0,B|209:138|263:94,1,131.25,8|0,0:0|0:0,0:0:0
279,75,22005,2,0,B|317:99|364:97,1,87.5
438,142,22339,1,8,0:0:0
451,228,22505,1,0,0:0:0
451,228,22589,1,0,0:0:0
451,228,22672,6,0,B|453:274|420:309,1,87.5,0|0,0:0|0:0,0:0:0
340,273,23005,2,0,B|294:270|256:290,1,87.5,8|0,0:0|0:0,0:0:0
232,303,23255,1,0,0:0:0
211,319,23338,1,0,0:0:0
195,340,23422,1,0,0:0:0
184,363,23505,1,8,0:0:0
98,345,23672,1,0,0:0:0
93,319,23755,1,0,0:0:0
88,293,23838,1,8,0:0:0
123,160,24005,5,0,0:0:0
128,186,24088,1,0,0:0:0
133,212,24171,1,0,0:0:0
219,226,24338,2,0,B|245:164|307:131,1,131.25,8|0,0:0|0:0,0:0:0
331,123,24672,1,0,0:0:0
205,80,24839,1,0,0:0:0
331,123,25005,1,8,0:0:0
415,98,25172,2,0,B|459:82,1,43.75
415,98,25338,6,0,B|429:143|409:185,1,87.5
331,223,25672,2,0,B|285:212|245:234,1,87.5,8|0,0:0|0:0,0:0:0
224,247,25922,1,0,0:0:0
205,265,26005,1,0,0:0:0
166,343,26172,1,8,0:0:0
96,176,26338,1,0,0:0:0
96,176,26422,1,0,0:0:0
96,176,26505,1,8,0:0:0
166,343,26672,5,0,0:0:0
166,343,26755,1,0,0:0:0
166,343,26838,1,0,0:0:0
253,337,27005,2,0,B|295:316|295:316|336:326|381:310,1,131.25,8|0,0:0|0:0,0:0:0
402,301,27338,2,0,B|416:256|450:228,1,87.5
402,301,27672,1,8,0:0:0
344,235,27838,1,0,0:0:0
329,212,27922,1,0,0:0:0
320,187,28005,6,0,B|307:141|320:99,1,87.5,0|0,0:0|0:0,0:0:0
389,50,28338,1,8,0:0:0
444,117,28505,2,0,B|488:128,2,43.75
384,245,28838,1,8,0:0:0
328,115,29005,2,0,B|284:104,2,43.75,0|0|8,0:0|0:0|0:0,0:0:0
273,183,29338,5,0,0:0:0
247,190,29422,1,0,0:0:0
222,197,29505,1,0,0:0:0
135,180,29672,2,0,B|78:148|56:76,1,131.25,8|0,0:0|0:0,0:0:0
48,53,30005,2,0,B|24:140,1,87.5
29,298,30338,2,0,B|53:211,1,87.5,8|0,0:0|0:0,0:0:0
52,213,30588,1,0,0:0:0
52,213,30672,5,0,0:0:0
120,159,30838,1,0,0:0:0
178,243,31005,1,8,0:0:0
226,142,31172,1,0,0:0:0
251,137,31255,1,0,0:0:0
274,126,31338,1,0,0:0:0
296,111,31422,1,0,0:0:0
316,94,31505,1,8,0:0:0
400,116,31672,1,0,0:0:0
413,138,31755,1,0,0:0:0
430,157,31838,1,8,0:0:0
439,278,32005,6,0,B|455:234,2,43.75
363,322,32338,2,0,B|307:288|237:298,2,131.25,8|0|0,0:0|0:0|0:0,0:0:0
439,278,33005,2,0,B|419:238|424:193,1,87.5,8|0,0:0|0:0,0:0:0
429,167,33255,1,0,0:0:0
437,142,33338,5,0,0:0:0
394,17,33505,1,0,0:0:0
353,129,33672,1,8,0:0:0
279,20,33839,1,0,0:0:0
244,98,34005,6,0,B|214:132|167:141,1,87.5,0|8,0:0|0:0,0:0:0
12,73,34338,1,0,0:0:0
12,73,34422,1,0,0:0:0
12,73,34505,1,8,0:0:0
169,140,34672,5,0,0:0:0
169,140,34755,1,0,0:0:0
169,140,34838,1,0,0:0:0
234,199,35005,2,0,B|302:190|360:227,1,131.25,8|0,0:0|0:0,0:0:0
380,243,35338,2,0,B|418:269|466:265,1,87.5,8|0,0:0|0:0,0:0:0
345,324,35672,2,0,B|307:298|259:302,1,87.5,8|0,0:0|0:0,0:0:0
154,283,36005,6,0,B|130:198,1,87.5,8|0,0:0|0:0,0:0:0
196,82,36338,2,0,B|220:167,1,87.5,8|0,0:0|0:0,0:0:0
219,166,36588,1,0,0:0:0
219,166,36672,1,8,0:0:0
56,139,36838,1,8,0:0:0
66,114,36922,1,0,0:0:0
76,90,37005,1,0,0:0:0
86,66,37088,1,0,0:0:0
95,41,37172,1,8,0:0:0
181,51,37338,5,0,0:0:0
204,62,37422,1,0,0:0:0
229,68,37505,2,0,B|273:77|316:62,1,87.5,0|8,0:0|0:0,0:0:0
397,32,37838,1,0,0:0:0
416,49,37922,1,0,0:0:0
431,70,38005,1,0,0:0:0
437,95,38088,1,0,0:0:0
437,121,38172,1,0,0:0:0
374,181,38338,2,0,B|304:169|252:216,1,131.25,8|0,0:0|0:0,0:0:0
234,235,38672,6,0,B|190:224|148:248,1,87.5,0|0,0:0|0:0,0:0:0
72,205,39005,2,0,B|118:156|105:82,1,131.25,8|0,0:0|0:0,0:0:0
99,57,39338,2,0,B|183:36,1,87.5,0|0,0:0|0:0,0:0:0
270,51,39672,1,8,0:0:0
284,72,39755,1,0,0:0:0
301,91,39838,1,0,0:0:0
321,107,39922,1,0,0:0:0
343,119,40005,5,8,0:0:0
340,144,40088,1,0,0:0:0
340,170,40172,1,0,0:0:0
347,195,40255,1,0,0:0:0
358,218,40338,2,0,B|380:256,1,43.75,8|0,0:0|0:0,0:0:0
297,255,40505,2,0,B|308:300,1,43.75,8|0,0:0|0:0,0:0:0
228,274,40672,2,0,B|227:316,1,43.75,8|0,0:0|0:0,0:0:0
153,269,40838,2,0,B|108:262|68:288,1,87.5,0|8,0:0|0:0,0:0:0
30,137,41172,1,0,0:0:0
30,137,41255,1,0,0:0:0
30,137,41338,6,0,B|68:160|114:154,1,87.5,8|0,0:0|0:0,0:0:0
185,102,41672,2,0,B|221:78|268:81,2,87.5,0|8|0,0:0|0:0|0:0,0:0:0
196,188,42172,1,0,0:0:0
221,194,42255,1,0,0:0:0
245,203,42338,1,8,0:0:0
267,216,42422,1,0,0:0:0
286,233,42505,1,0,0:0:0
303,252,42588,1,0,0:0:0
316,272,42672,5,0,0:0:0
332,280,43338,1,0,0:0:0
348,288,44005,1,0,0:0:0
364,296,44338,5,0,0:0:0
372,300,44505,1,0,0:0:0
380,304,44672,1,0,0:0:0
372,132,45338,5,0,0:0:0
219,92,46005,1,0,0:0:0
175,246,46672,1,0,0:0:0
307,252,47005,2,0,B|340:253|371:274,2,65.6249980442227,0|8|0,0:0|0:0|0:0,0:0:0
175,246,48005,5,0,0:0:0
219,92,48672,1,0,0:0:0
372,132,49338,1,0,0:0:0
379,250,49672,5,0,0:0:0
444,285,49838,1,8,0:0:0
441,212,50005,1,0,0:0:0
232,276,50672,5,0,0:0:0
133,193,51005,1,4,0:0:0
163,66,51338,1,0,0:0:0
344,148,52005,6,0,B|412:150|467:104,1,131.249996088445
410,58,52505,1,8,0:0:0
465,105,52672,1,0,0:0:0
434,233,53005,1,4,0:0:0
321,300,53338,6,0,B|278:315|278:315|192:308,1,131.249996088445
96,223,54005,2,0,B|161:249|192:308,1,131.249996088445,0|4,0:0|0:0,0:0:0
249,192,54672,6,0,B|241:262|192:308,1,131.249996088445
125,332,55172,1,8,0:0:0
192,307,55338,1,0,0:0:0
321,336,55672,1,4,0:0:0
419,249,56005,6,0,B|383:220|376:172|376:172|391:132,1,131.249996088445,0|4,0:0|0:0,0:0:0
276,99,56672,2,0,B|319:83|364:101|364:101|390:133,1,131.249996088445,0|4,0:0|0:0,0:0:0
478,52,57338,6,0,B|471:97|432:127|432:127|391:133,1,131.249996088445,0|0,0:0|0:0,0:0:0
296,223,57838,2,0,B|304:192|329:167,1,65.6249980442227,8|0,0:0|0:0,0:0:0
205,122,58338,1,4,0:0:0
83,173,58672,5,0,0:0:0
205,122,59005,2,0,B|219:203|219:203|250:243,1,131.249996088445,4|0,0:0|0:0,0:0:0
375,264,59672,2,0,B|297:235|297:235|249:242,1,131.249996088445,4|0,0:0|0:0,0:0:0
149,327,60338,6,0,B|224:316,1,65.6249980442227,0|8,0:0|0:0,0:0:0
102,264,60672,2,0,B|166:254,1,65.6249980442227,0|8,0:0|0:0,0:0:0
56,201,61005,2,0,B|131:190,1,65.6249980442227
55,201,61338,6,0,B|81:132|81:132|79:101|60:77,1,131.25000500679,0|4,0:0|0:0,0:0:0
182,42,62005,2,0,B|260:65|260:65|308:63,1,131.249996088445,0|4,0:0|0:0,0:0:0
322,193,62672,5,0,0:0:0
372,84,63005,2,0,B|340:80|309:62,1,65.6249980442227,0|8,0:0|0:0,0:0:0
407,148,63338,2,0,B|439:152|469:169,1,65.6249980442227,0|8,0:0|0:0,0:0:0
494,238,63672,6,0,B|469:297|400:325,1,131.249996088445
266,308,64338,2,0,B|334:300,1,65.6249980442227,0|8,0:0|0:0,0:0:0
214,259,64672,2,0,B|146:251,1,65.6249980442227,0|8,0:0|0:0,0:0:0
90,206,65005,5,0,0:0:0
90,206,65338,1,0,0:0:0
155,44,65672,2,0,B|148:109,1,65.6249980442227,0|8,0:0|0:0,0:0:0
227,69,66005,2,0,B|220:134,1,65.6249980442227,0|8,0:0|0:0,0:0:0
206,260,66338,1,0,0:0:0
357,340,66672,6,0,B|364:275,1,65.6249980442227,0|8,0:0|0:0,0:0:0
285,315,67005,2,0,B|292:250,1,65.6249980442227,0|8,0:0|0:0,0:0:0
357,136,67338,2,0,B|350:201,1,65.6249980442227,0|8,0:0|0:0,0:0:0
429,161,67671,2,0,B|422:226,1,65.6249980442227,0|8,0:0|0:0,0:0:0
383,287,68005,5,0,0:0:0
331,337,68172,1,0,0:0:0
260,351,68338,1,0,0:0:0
188,338,68505,1,0,0:0:0
125,302,68672,2,0,B|89:298|61:310,2,65.6249980442227
161,239,69172,1,0,0:0:0
120,179,69338,5,0,0:0:0
100,174,69422,1,0,0:0:0
81,166,69505,1,0,0:0:0
64,155,69588,1,0,0:0:0
49,141,69672,1,8,0:0:0
67,71,69838,1,8,0:0:0
131,38,70005,1,0,0:0:0
149,43,70088,1,0,0:0:0
166,51,70172,1,8,0:0:0
213,104,70338,1,8,0:0:0
282,122,70505,1,8,0:0:0
301,119,70588,1,8,0:0:0
320,114,70672,6,0,B|352:104|380:83,1,65.6249980442227,8|0,0:0|0:0,0:0:0
449,98,71005,2,0,B|480:104,2,32.8124990221113,0|0|8,0:0|0:0|0:0,0:0:0
417,163,71338,2,0,B|449:169,2,32.8124990221113,0|0|8,0:0|0:0|0:0,0:0:0
348,183,71672,1,8,0:0:0
388,241,71838,2,8,B|424:248,1,32.8124990221113
372,259,72005,5,0,0:0:0
352,276,72088,1,0,0:0:0
330,290,72172,1,0,0:0:0
256,335,72338,2,0,B|214:316|170:324,1,87.5,8|0,0:0|0:0,0:0:0
91,362,72672,1,0,0:0:0
91,362,72755,1,0,0:0:0
91,362,72838,1,0,0:0:0
146,196,73005,1,8,0:0:0
69,238,73172,6,0,B|25:244,2,43.75,0|0|0,0:0|0:0|0:0,0:0:0
201,262,73505,1,0,0:0:0
160,112,73672,2,0,B|86:120|35:75,1,131.25,8|0,0:0|0:0,0:0:0
37,77,74005,1,0,0:0:0
228,172,74172,1,0,0:0:0
304,128,74338,1,8,0:0:0
329,122,74422,1,0,0:0:0
354,116,74505,1,8,0:0:0
470,181,74672,5,0,0:0:0
445,187,74756,1,0,0:0:0
420,193,74839,1,0,0:0:0
359,255,75005,2,0,B|342:323|272:352,1,131.25,8|0,0:0|0:0,0:0:0
254,335,75338,2,0,B|216:309|169:316,1,87.5
89,349,75672,1,8,0:0:0
224,227,75838,1,0,0:0:0
224,227,75922,1,0,0:0:0
224,227,76005,5,0,0:0:0
360,330,76172,1,0,0:0:0
306,262,76338,1,8,0:0:0
368,201,76505,2,0,B|412:193,1,43.75
345,132,76672,2,0,B|395:112,1,43.75
306,70,76838,2,0,B|264:79|220:60,1,87.5,0|8,0:0|0:0,0:0:0
197,47,77088,1,0,0:0:0
175,31,77172,1,8,0:0:0
73,111,77338,5,0,0:0:0
67,136,77422,1,0,0:0:0
62,161,77505,1,0,0:0:0
93,250,77672,1,8,0:0:0
256,300,77838,1,8,0:0:0
93,250,78005,1,0,0:0:0
168,205,78172,1,0,0:0:0
198,121,78338,1,8,0:0:0
139,53,78505,6,0,B|94:42,2,43.75
284,102,78838,1,0,0:0:0
105,140,79005,2,0,B|111:185|80:225,1,87.5,8|0,0:0|0:0,0:0:0
64,242,79255,1,0,0:0:0
90,242,79338,2,0,B|136:244|170:270,1,87.5,8|0,0:0|0:0,0:0:0
254,321,79672,1,8,0:0:0
279,313,79755,1,0,0:0:0
304,305,79838,1,0,0:0:0
469,316,80005,5,0,0:0:0
444,324,80088,1,0,0:0:0
419,332,80171,1,0,0:0:0
395,231,80338,2,0,B|420:200|420:200|432:156|419:109,1,131.25,8|0,0:0|0:0,0:0:0
408,85,80672,2,0,B|361:92|324:70,1,87.5
148,97,81005,1,8,0:0:0
265,27,81172,1,8,0:0:0
265,27,81255,1,0,0:0:0
265,27,81338,6,0,B|285:114,1,87.5
215,167,81672,2,0,B|151:189|123:256,1,131.25,8|0,0:0|0:0,0:0:0
115,280,82005,2,0,B|81:310|81:310|41:323,1,87.5
200,285,82338,6,0,B|234:255,1,43.75
274,318,82505,2,0,B|315:296,1,43.75
333,369,82672,2,0,B|383:356,1,43.75
448,343,82838,2,0,B|460:254,2,87.5,0|8|0,0:0|0:0|0:0,0:0:0
384,214,83338,2,0,B|376:277,2,43.75
446,152,83672,2,0,B|392:193|317:177,1,131.25,8|0,0:0|0:0,0:0:0
296,169,84005,6,0,B|276:127|235:108,1,87.5
148,115,84338,2,0,B|112:142|64:142,1,87.5,8|0,0:0|0:0,0:0:0
39,226,84672,1,0,0:0:0
46,250,84755,1,0,0:0:0
53,274,84838,1,0,0:0:0
73,290,84922,1,0,0:0:0
93,306,85005,1,8,0:0:0
181,299,85172,1,0,0:0:0
261,333,85338,5,0,0:0:0
261,333,85422,1,0,0:0:0
261,333,85505,1,0,0:0:0
432,293,85672,2,0,B|449:334,1,43.75,8|8,0:0|0:0,0:0:0
445,207,85922,2,0,B|428:161|428:161|433:123,1,87.5
413,110,86172,1,8,0:0:0
390,97,86255,1,0,0:0:0
367,84,86338,1,8,0:0:0
312,235,86505,1,0,0:0:0
264,84,86672,5,0,0:0:0
264,84,86755,1,0,0:0:0
264,84,86838,2,0,B|226:108|180:106,1,87.5,0|8,0:0|0:0,0:0:0
95,81,87172,1,0,0:0:0
95,81,87255,1,0,0:0:0
95,81,87338,2,0,B|48:66,1,43.75
66,152,87505,2,0,B|14:144,1,43.75
57,227,87672,1,8,0:0:0
57,227,88005,6,0,B|145:245,1,87.5,12|0,0:0|0:0,0:0:0
340,301,88338,1,12,0:0:0
314,307,88422,1,0,0:0:0
288,313,88505,1,0,0:0:0
262,319,88588,1,0,0:0:0
236,325,88672,1,4,0:0:0
300,152,88838,1,12,0:0:0
434,237,89005,2,0,B|416:196|424:152,1,87.5,12|0,0:0|0:0,0:0:0
429,125,89255,1,0,0:0:0
436,99,89338,5,0,0:0:0
323,48,89505,1,8,0:0:0
208,96,89672,1,8,0:0:0
124,72,89838,5,0,0:0:0
124,72,89922,1,0,0:0:0
124,72,90005,1,8,0:0:0
69,140,90172,1,0,0:0:0
96,222,90338,1,8,0:0:0
96,222,90422,1,0,0:0:0
96,222,90505,1,0,0:0:0
67,304,90672,6,0,B|106:252|175:231,1,131.25
199,225,91005,1,8,0:0:0
151,151,91172,1,0,0:0:0
151,151,91255,1,0,0:0:0
151,151,91338,2,0,B|219:161|279:133,1,131.25,12|0,0:0|0:0,0:0:0
302,119,91672,2,0,B|333:152|380:157,1,87.5,12|0,0:0|0:0,0:0:0
457,196,92005,6,0,B|425:225|417:272,1,87.5
240,314,92338,1,8,0:0:0
417,271,92505,1,8,0:0:0
240,314,92672,2,0,B|197:300|197:300|165:275,1,87.5,0|8,0:0|0:0,0:0:0
144,255,92922,1,0,0:0:0
124,237,93005,1,8,0:0:0
149,153,93172,1,0,0:0:0
212,92,93338,6,0,B|203:51,2,43.75
295,119,93672,1,8,0:0:0
128,67,93838,1,0,0:0:0
105,80,93922,1,0,0:0:0
85,97,94005,1,0,0:0:0
69,117,94088,1,0,0:0:0
56,140,94172,1,0,0:0:0
47,226,94338,2,0,B|91:231|124:268,1,87.5,8|0,0:0|0:0,0:0:0
137,287,94588,1,0,0:0:0
148,310,94672,6,0,B|234:297,1,87.5
393,338,95005,1,8,0:0:0
356,184,95172,1,8,0:0:0
427,134,95338,2,0,B|420:92|420:92|392:52,1,87.5
307,73,95672,2,0,B|265:57,1,43.75,8|0,0:0|0:0,0:0:0
264,135,95838,2,0,B|219:130,1,43.75
245,209,96005,5,0,0:0:0
265,225,96088,1,0,0:0:0
280,246,96172,1,0,0:0:0
236,321,96338,2,0,B|190:306|190:306|150:309,1,87.5,8|0,0:0|0:0,0:0:0
124,312,96588,1,0,0:0:0
97,315,96672,1,0,0:0:0
39,249,96838,1,0,0:0:0
57,163,97005,1,8,0:0:0
141,140,97172,1,0,0:0:0
165,132,97255,1,0,0:0:0
188,120,97338,6,0,B|226:96|244:53,1,87.5,12|0,0:0|0:0,0:0:0
316,104,97672,2,0,B|317:148|346:185,1,87.5,12|0,0:0|0:0,0:0:0
362,205,97922,1,0,0:0:0
380,223,98005,1,0,0:0:0
254,278,98172,1,0,0:0:0
422,305,98338,1,8,0:0:0
422,305,98422,1,0,0:0:0
422,305,98505,1,0,0:0:0
254,278,98672,5,0,0:0:0
254,278,98755,1,0,0:0:0
254,278,98838,1,0,0:0:0
186,221,99005,2,0,B|137:271|67:275,1,131.25,8|0,0:0|0:0,0:0:0
43,274,99338,2,0,B|68:235|61:189,1,87.5,12|0,0:0|0:0,0:0:0
109,49,99672,2,0,B|102:95|127:134,1,87.5,12|0,0:0|0:0,0:0:0
150,143,99922,1,0,0:0:0
173,153,100005,5,0,0:0:0
251,114,100172,1,0,0:0:0
325,158,100338,1,8,0:0:0
411,143,100505,1,0,0:0:0
411,143,100588,1,0,0:0:0
411,143,100672,2,0,B|393:233,1,87.5,12|0,0:0|0:0,0:0:0
447,343,101005,2,0,B|465:253,1,87.5,12|0,0:0|0:0,0:0:0
280,268,101338,6,8,B|324:279,1,43.75,8|8,0:0|0:0,0:0:0
210,301,101505,2,8,B|166:290,1,43.75,8|8,0:0|0:0,0:0:0
118,233,101672,1,8,0:0:0
20,353,101838,1,8,0:0:0
56,166,102005,2,0,B|88:104|152:76,1,131.25,8|0,0:0|0:0,0:0:0
174,70,102338,2,0,B|226:84|226:84|258:79,1,87.5,8|0,0:0|0:0,0:0:0
285,72,102588,1,0,0:0:0
310,66,102672,6,0,B|355:63|393:89,1,87.5,8|0,0:0|0:0,0:0:0
456,192,103005,2,0,B|411:195|373:169,1,87.5,8|0,0:0|0:0,0:0:0
347,175,103255,1,0,0:0:0
321,181,103338,1,8,0:0:0
272,330,103505,1,0,0:0:0
321,181,103672,1,8,0:0:0
321,181,103755,1,0,0:0:0
321,181,103838,1,8,0:0:0
272,330,104005,5,0,0:0:0
272,330,104088,1,0,0:0:0
272,330,104172,1,0,0:0:0
197,287,104338,2,0,B|160:258|116:260,1,87.5,8|0,0:0|0:0,0:0:0
89,263,104588,1,0,0:0:0
64,271,104672,1,0,0:0:0
43,287,104755,1,0,0:0:0
27,307,104838,1,0,0:0:0
33,168,105005,2,0,B|90:199|161:184,1,131.25,8|0,0:0|0:0,0:0:0
185,175,105338,6,0,B|228:159|250:119,1,87.5
319,66,105672,2,0,B|364:67|400:95,1,87.5,8|0,0:0|0:0,0:0:0
417,114,105922,2,0,B|464:106,1,43.75
394,201,106172,1,0,0:0:0
233,247,106338,1,8,0:0:0
233,247,106422,1,0,0:0:0
233,247,106505,1,0,0:0:0
394,201,106672,5,0,0:0:0
394,201,106755,1,0,0:0:0
394,201,106838,1,0,0:0:0
424,283,107005,1,8,0:0:0
424,283,107172,1,0,0:0:0
353,333,107338,1,0,0:0:0
327,326,107422,1,0,0:0:0
301,319,107505,1,0,0:0:0
259,241,107672,2,0,B|220:215|171:220,1,87.5,8|0,0:0|0:0,0:0:0
150,225,107922,1,0,0:0:0
125,234,108005,5,0,0:0:0
83,364,108172,1,0,0:0:0
44,190,108338,2,0,B|36:144|61:105,1,87.5,8|0,0:0|0:0,0:0:0
77,85,108588,2,0,B|123:91|160:67,1,87.5
181,50,108838,1,0,0:0:0
266,70,109005,1,8,0:0:0
273,95,109088,1,0,0:0:0
280,120,109172,1,0,0:0:0
348,184,109338,6,0,B|374:191,10,21.875,0|0|0|0|0|0|0|0|0|0|0,0:0|0:0|0:0|0:0|0:0|0:0|0:0|0:0|0:0|0:0|0:0,0:0:0
326,193,109838,1,8,0:0:0
238,200,110005,1,0,0:0:0
359,100,110172,1,0,0:0:0
384,106,110255,1,0,0:0:0
409,112,110338,1,8,0:0:0
448,192,110505,6,0,B|474:185,4,21.875
440,217,110755,1,0,0:0:0
432,241,110838,1,0,0:0:0
376,309,111005,2,0,B|330:295|290:314,1,87.5,8|0,0:0|0:0,0:0:0
268,330,111255,1,0,0:0:0
251,349,111338,1,8,0:0:0
163,333,111505,1,0,0:0:0
127,253,111672,2,0,B|195:258|254:215,1,131.25,8|0,0:0|0:0,0:0:0
269,198,112005,6,0,B|257:112,2,87.5,0|0|8,0:0|0:0|0:0,0:0:0
354,219,112505,1,0,0:0:0
354,219,112588,1,0,0:0:0
354,219,112672,1,0,0:0:0
422,164,112838,1,0,0:0:0
428,76,113005,2,0,B|475:65,2,43.75,8|0|0,0:0|0:0|0:0,0:0:0
341,60,113338,5,0,0:0:0
315,66,113422,1,0,0:0:0
289,72,113505,1,0,0:0:0
146,94,113672,1,8,0:0:0
172,100,113756,1,0,0:0:0
198,106,113838,2,0,B|202:150|233:184,1,87.5
253,201,114088,1,0,0:0:0
275,214,114172,1,0,0:0:0
299,223,114255,1,0,0:0:0
324,227,114338,2,0,B|374:221,1,43.75,8|0,0:0|0:0,0:0:0
289,298,114505,2,0,B|239:305,1,43.75,8|0,0:0|0:0,0:0:0
363,330,114672,6,0,B|449:318,1,87.5,4|0,0:0|0:3,0:3:0
256,187,115005,2,0,B|169:198,1,87.5,12|0,0:0|0:0,0:0:0
