osu file format v14

[General]
AudioFilename: spring.mp3
AudioLeadIn: 0
PreviewTime: 25460
Countdown: 0
SampleSet: Soft
StackLeniency: 0.7
Mode: 0
LetterboxInBreaks: 0
WidescreenStoryboard: 0

[Editor]
Bookmarks: 15501,25607,35712,55923,76133,96344,126659,146870,167080,189817
DistanceSpacing: 1.4
BeatDivisor: 4
GridSize: 4
TimelineZoom: 2.4

[Metadata]
Title:Haru yo, Koi
TitleUnicode:春よ、来い
Artist:Smooth J
ArtistUnicode:Smooth J
Creator:Streliteela
Version:Insane
Source:
Tags:Smooth Sound Collection 2 Narcissu Atrue appleeaterx Mei Minakami Yuki
BeatmapID:664611
BeatmapSetID:295880

[Difficulty]
HPDrainRate:6
CircleSize:4
OverallDifficulty:8
ApproachRate:9
SliderMultiplier:3.2
SliderTickRate:1

[Events]
//Background and Video events
0,0,"BG.jpg",0,0
//Break Periods
//Storyboard Layer 0 (Background)
//Storyboard Layer 1 (Fail)
//Storyboard Layer 2 (Pass)
//Storyboard Layer 3 (Foreground)
//Storyboard Sound Samples

[TimingPoints]
15513,631.578947368421,4,2,1,70,1,0
15513,-133.333333333333,4,2,1,70,0,0
20565,-133.333333333333,4,2,1,70,0,0
25618,-100,4,2,1,80,0,0
66039,-100,4,2,1,60,0,0
68565,-100,4,2,1,65,0,0
69197,-100,4,2,1,70,0,0
69828,-100,4,2,1,75,0,0
71091,-100,4,2,1,80,0,0
76144,-133.333333333333,4,2,1,80,0,0
126670,-100,4,2,1,80,0,0

[Colours]
Combo1 : 242,242,119
Combo2 : 190,247,159
SliderBorder : 90,140,60

[HitObjects]
98,41,15513,6,0,P|113:97|102:162,1,120.000004577637,2|0,0:0|0:0,0:0:0:0:
64,245,15986,1,0,0:0:0:0:
121,321,16144,2,0,P|150:311|186:307,1,60.0000022888184,2|0,0:0|0:0,0:0:0:0:
481,338,16618,1,0,0:0:0:0:
410,255,16776,6,0,P|403:218|411:129,1,120.000004577637,2|0,0:0|0:0,0:0:0:0:
432,43,17249,1,0,0:0:0:0:
339,67,17407,2,0,P|308:75|272:77,1,60.0000022888184,2|0,0:0|0:0,0:0:0:0:
257,275,17881,1,0,0:0:0:0:
124,167,18039,6,0,P|185:158|246:178,1,120.000004577637,2|0,0:0|0:0,0:0:0:0:
257,275,18513,1,0,0:0:0:0:
337,222,18670,2,0,P|337:187|327:154,1,60.0000022888184,2|0,0:0|0:0,0:0:0:0:
46,36,19144,1,0,0:0:0:0:
124,167,19302,6,0,L|190:157,1,60.0000022888184,2|0,1:0|0:0,0:0:0:0:
274,52,19618,1,0,0:0:0:0:
402,153,19776,2,0,P|424:212|411:278,1,120.000004577637
337,322,20249,1,2,0:0:0:0:
337,322,20565,6,0,P|283:299|221:312,1,120.000004577637,2|0,0:0|0:0,0:0:0:0:
151,374,21039,1,0,0:0:0:0:
73,315,21197,2,0,P|49:290|33:261,1,60.0000022888184,2|0,0:0|0:0,0:0:0:0:
263,151,21670,1,0,0:0:0:0:
354,198,21828,6,0,P|361:134|337:82,1,120.000004577637,2|0,0:0|0:0,0:0:0:0:
259,18,22302,1,0,0:0:0:0:
194,88,22460,2,0,P|161:99|120:101,1,60.0000022888184,2|0,0:0|0:0,0:0:0:0:
148,287,22934,1,0,0:0:0:0:
2,179,23091,6,0,P|54:176|123:204,1,120.000004577637,2|0,0:0|0:0,0:0:0:0:
148,288,23565,1,0,0:0:0:0:
225,344,23723,2,0,P|249:339|284:320,1,60.0000022888184,2|0,0:0|0:0,0:0:0:0:
284,156,24197,1,0,0:0:0:0:
360,64,24355,6,0,P|375:99|375:139,1,60.0000022888184,2|0,1:0|0:0,0:0:0:0:
284,155,24670,1,0,0:0:0:0:
467,107,24828,2,0,P|470:170|450:228,1,120.000004577637
382,318,25302,1,2,0:0:0:0:
382,318,25618,6,0,P|321:277|239:297,1,160,8|2,0:0|0:0,0:0:0:0:
154,367,26091,1,0,0:0:0:0:
57,310,26249,2,0,L|52:230,1,80,8|0,1:0|0:0,0:0:0:0:
132,151,26565,2,0,L|137:231,1,80,2|8,0:0|0:0,0:0:0:0:
43,123,26881,6,8,P|87:65|171:68,1,160,8|2,0:0|0:0,0:0:0:0:
220,145,27355,1,0,0:0:0:0:
292,212,27513,2,0,L|372:198,1,80,8|0,1:0|0:0,0:0:0:0:
399,101,27828,2,0,L|319:115,1,80,2|8,0:0|0:0,0:0:0:0:
463,174,28144,6,0,P|491:249|483:331,1,160,8|2,0:0|0:0,0:0:0:0:
380,276,28618,1,0,0:0:0:0:
291,328,28776,2,0,L|195:339,1,80,8|0,1:0|0:0,0:0:0:0:
66,271,29091,2,0,L|168:260,1,80,2|8,0:0|0:0,0:0:0:0:
145,262,29565,5,2,0:0:0:0:
240,154,29723,2,0,L|234:245,1,80,0|2,0:0|0:0,0:0:0:0:
292,328,30039,1,8,1:0:0:0:
371,194,30197,2,0,L|381:274,1,80,8|8,0:0|1:0,0:0:0:0:
478,55,30670,6,0,P|470:134|472:220,1,160,8|2,0:0|0:0,0:0:0:0:
476,320,31144,1,0,0:0:0:0:
370,193,31302,1,8,1:0:0:0:
380,290,31460,1,0,0:0:0:0:
370,193,31618,2,0,P|322:210|258:218,1,80,2|8,0:0|0:0,0:0:0:0:
61,258,31934,6,0,P|136:247|219:293,1,160,8|2,0:0|0:0,0:0:0:0:
288,353,32407,1,0,0:0:0:0:
210,283,32565,2,0,P|209:227|218:193,1,80,8|0,1:0|0:0,0:0:0:0:
122,182,32881,2,0,P|143:143|178:120,1,80,2|8,0:0|0:0,0:0:0:0:
97,45,33197,6,0,P|172:15|246:49,1,160,8|2,0:0|0:0,0:0:0:0:
283,134,33670,1,0,0:0:0:0:
363,71,33828,1,8,1:0:0:0:
283,134,33986,1,0,0:0:0:0:
431,145,34144,2,0,P|442:185|440:230,1,80,2|8,0:0|0:0,0:0:0:0:
281,350,34460,5,8,0:0:0:0:
348,206,34618,1,0,0:0:0:0:
243,245,34776,1,2,0:0:0:0:
387,312,34934,1,8,0:0:0:0:
433,144,35091,5,8,1:0:0:0:
386,312,35249,1,0,0:0:0:0:
243,245,35407,2,0,P|180:243|130:270,1,120,8|0,1:0|0:0,0:0:0:0:
113,282,35723,6,0,P|104:243|114:204,1,80,8|0,0:0|0:0,0:0:0:0:
209,145,36039,2,0,P|209:103|193:65,1,80,2|0,0:0|0:0,0:0:0:0:
98,66,36355,1,8,1:0:0:0:
209,145,36513,1,0,0:0:0:0:
281,20,36670,2,0,P|308:51|322:96,1,80,2|8,0:0|0:0,0:0:0:0:
440,203,36986,6,0,P|439:161|450:105,1,80,8|0,0:0|0:0,0:0:0:0:
342,172,37302,2,0,P|304:199|265:213,1,80,2|0,0:0|0:0,0:0:0:0:
297,297,37618,2,0,P|250:301|209:294,1,80,8|0,1:0|0:0,0:0:0:0:
195,377,37934,2,0,P|152:357|120:330,1,80,2|0,0:0|0:0,0:0:0:0:
72,181,38249,6,0,P|56:221|58:261,1,80,8|0,0:0|0:0,0:0:0:0:
126,336,38565,1,2,0:0:0:0:
170,222,38723,1,0,0:0:0:0:
145,110,38881,2,0,P|113:92|60:87,1,80,8|0,1:0|0:0,0:0:0:0:
72,181,39197,2,0,P|26:192|-12:226,1,80,2|8,0:0|0:0,0:0:0:0:
126,336,39513,5,2,0:0:0:0:
170,222,39670,1,8,0:0:0:0:
145,110,39828,1,8,0:0:0:0:
64,37,39986,1,2,0:0:0:0:
141,117,40144,5,8,1:0:0:0:
249,143,40302,1,2,0:0:0:0:
358,120,40460,1,8,1:0:0:0:
451,58,40618,1,2,0:0:0:0:
451,58,40776,6,0,P|468:101|469:141,1,80,8|0,0:0|0:0,0:0:0:0:
394,219,41091,2,8,P|380:258|387:302,1,80,2|0,0:0|0:0,1:0:0:0:
482,352,41407,1,8,1:0:0:0:
394,219,41565,1,0,0:0:0:0:
308,359,41723,2,0,P|283:327|271:283,1,80,2|8,0:0|0:0,0:0:0:0:
259,98,42039,6,0,P|200:148|115:154,1,160,8|2,0:0|0:0,0:0:0:0:
34,203,42513,1,0,0:0:0:0:
34,203,42670,2,0,P|31:251|49:292,1,80,8|0,1:0|0:0,0:0:0:0:
137,339,42986,1,2,0:0:0:0:
194,228,43144,1,8,0:0:0:0:
150,83,43302,6,0,P|126:123|121:161,1,80,8|0,0:0|0:0,0:0:0:0:
299,254,43618,2,0,P|297:206|276:168,1,80,2|0,0:0|0:0,0:0:0:0:
194,228,43934,1,8,1:0:0:0:
284,177,44091,1,0,0:0:0:0:
390,228,44249,2,0,P|392:274|382:313,1,80,2|8,0:0|0:0,0:0:0:0:
372,127,44565,5,2,0:0:0:0:
299,255,44723,1,0,0:0:0:0:
187,212,44881,2,0,P|182:170|196:123,1,80,2|2,0:0|0:0,0:0:0:0:
284,177,45197,5,8,1:0:0:0:
229,330,45355,1,8,0:0:0:0:
97,282,45513,2,0,P|77:244|75:195,1,80,8|0,1:0|0:0,0:0:0:0:
372,128,45828,6,0,P|399:184|399:290,1,160,8|2,0:0|0:0,0:0:0:0:
330,367,46302,1,0,0:0:0:0:
229,330,46460,2,0,P|225:289|231:246,1,80,8|0,1:0|0:0,0:0:0:0:
150,180,46776,2,0,P|158:137|187:95,1,80,2|8,0:0|0:0,0:0:0:0:
245,31,47091,6,0,P|177:72|88:76,1,160,8|2,0:0|0:0,0:0:0:0:
39,172,47565,1,0,0:0:0:0:
83,260,47723,2,0,P|119:277|159:278,1,80,8|0,1:0|0:0,0:0:0:0:
240,212,48039,2,0,P|280:214|316:231,1,80,2|0,0:0|0:0,0:0:0:0:
411,317,48355,5,8,0:0:0:0:
433,116,48670,2,0,P|445:153|447:193,1,80,2|0,0:0|0:0,0:0:0:0:
292,48,48986,2,0,P|320:74|342:107,1,80,8|0,1:0|0:0,0:0:0:0:
168,105,49302,2,0,P|206:113|241:131,1,80,2|8,0:0|0:0,0:0:0:0:
242,131,49776,5,2,0:0:0:0:
290,336,49934,2,0,P|302:299|304:259,1,80,8|2,0:0|0:0,0:0:0:0:
205,269,50249,2,0,P|196:230|178:195,1,80,8|0,1:0|0:0,0:0:0:0:
95,248,50565,2,0,P|72:217|35:197,1,80,8|8,1:0|0:0,0:0:0:0:
0,304,50881,5,8,0:0:0:0:
90,370,51039,2,0,P|128:357|183:353,1,80,0|2,0:0|0:0,0:0:0:0:
290,337,51355,1,0,0:0:0:0:
219,190,51513,2,0,P|204:251|210:284,1,80,8|0,1:0|0:0,0:0:0:0:
323,197,51828,2,0,P|319:154|299:112,1,80,2|8,0:0|0:0,0:0:0:0:
48,115,52144,6,0,P|128:128|198:85,1,160,8|2,0:0|0:0,0:0:0:0:
221,0,52618,1,0,0:0:0:0:
124,33,52776,2,0,B|107:69|107:69|136:204,1,160,8|8,1:0|0:0,0:0:0:0:
179,288,53249,1,8,0:0:0:0:
271,228,53407,6,0,L|276:149,1,80,8|0,0:0|0:0,0:0:0:0:
444,209,53723,2,0,L|453:292,1,80,2|0,0:0|0:0,0:0:0:0:
381,96,54039,1,8,1:0:0:0:
346,301,54197,1,0,0:0:0:0:
262,124,54355,2,0,P|217:137|188:161,1,80,2|8,0:0|0:0,0:0:0:0:
381,96,54670,5,8,0:0:0:0:
271,228,54828,1,2,0:0:0:0:
118,183,54986,2,0,P|117:137|135:102,1,80,8|8,0:0|0:0,0:0:0:0:
185,285,55302,5,8,1:0:0:0:
262,124,55460,1,8,0:0:0:0:
430,327,55618,1,8,1:0:0:0:
430,327,55934,6,0,P|426:279|406:243,1,80,8|0,0:0|0:0,0:0:0:0:
317,308,56249,1,2,0:0:0:0:
343,165,56407,1,0,0:0:0:0:
245,220,56565,1,8,1:0:0:0:
168,72,56723,1,0,0:0:0:0:
168,72,56881,1,8,0:0:0:0:
20,137,57039,6,0,P|40:199|41:301,1,160,8|2,0:0|0:0,0:0:0:0:
160,375,57513,2,0,P|155:330|163:289,1,80,2|0,0:0|0:0,0:0:0:0:
245,219,57828,5,8,1:0:0:0:
43,294,57986,1,0,0:0:0:0:
245,219,58144,1,2,0:0:0:0:
43,294,58302,1,0,0:0:0:0:
119,178,58460,5,8,0:0:0:0:
160,374,58618,1,0,0:0:0:0:
119,178,58776,1,2,0:0:0:0:
160,374,58934,1,0,0:0:0:0:
246,118,59091,5,8,1:0:0:0:
334,253,59249,2,0,P|343:291|338:331,1,80,2|8,0:0|0:0,0:0:0:0:
246,118,59565,6,0,P|278:142|329:153,1,80,8|2,0:0|0:0,0:0:0:0:
475,148,59881,2,0,P|437:163|402:202,1,80,0|2,0:0|0:0,0:0:0:0:
425,293,60197,1,0,0:0:0:0:
249,297,60355,2,0,P|239:254|249:208,2,80,8|0|8,1:0|0:0|1:0,0:0:0:0:
249,297,60986,6,0,P|181:250|97:252,1,160,8|2,0:0|0:0,0:0:0:0:
26,315,61460,1,0,0:0:0:0:
26,315,61618,2,0,P|9:282|6:234,1,80,8|0,1:0|0:0,0:0:0:0:
111,84,61934,2,0,P|128:117|131:165,1,80,2|0,0:0|0:0,0:0:0:0:
31,142,62249,5,8,0:0:0:0:
115,248,62407,1,0,0:0:0:0:
232,183,62565,2,0,P|288:166|338:173,1,80,2|0,0:0|0:0,0:0:0:0:
432,168,62881,5,8,1:0:0:0:
341,258,63039,1,0,0:0:0:0:
233,183,63197,2,0,P|190:143|177:115,1,80,2|0,0:0|0:0,0:0:0:0:
173,2,63513,5,8,0:0:0:0:
258,73,63670,1,0,0:0:0:0:
233,183,63828,2,0,P|219:239|202:265,1,80,2|0,0:0|0:0,0:0:0:0:
70,341,64144,2,0,P|126:324|156:326,1,80,8|0,1:0|0:0,0:0:0:0:
233,351,64460,1,2,0:0:0:0:
124,232,64618,6,0,P|71:233|6:260,1,120,8|0,0:0|0:0,0:0:0:0:
0,263,64934,2,0,P|2:217|18:185,1,80,0|2,0:0|0:0,0:0:0:0:
148,306,65249,2,0,P|126:265|124:229,1,80,0|8,0:0|1:0,0:0:0:0:
289,234,65565,2,0,P|250:209|230:179,1,80,8|8,0:0|1:0,0:0:0:0:
231,181,66039,5,8,0:0:0:0:
255,75,66197,1,0,0:0:0:0:
165,109,66355,1,2,0:0:0:0:
313,150,66513,1,0,0:0:0:0:
165,109,66670,1,8,1:0:0:0:
313,150,66828,1,0,0:0:0:0:
166,109,67144,5,0,0:0:0:0:
313,150,67302,5,8,0:0:0:0:
412,55,67460,1,0,0:0:0:0:
316,169,67618,1,2,0:0:0:0:
422,74,67776,1,0,0:0:0:0:
321,190,67934,5,8,1:0:0:0:
162,127,68091,1,0,0:0:0:0:
326,209,68249,1,2,0:0:0:0:
159,147,68407,1,0,0:0:0:0:
265,38,68565,5,8,0:0:0:0:
156,168,68723,1,0,0:0:0:0:
264,57,68881,1,2,0:0:0:0:
154,188,69039,1,0,0:0:0:0:
263,76,69197,5,8,1:0:0:0:
453,184,69355,1,0,0:0:0:0:
263,93,69513,1,2,0:0:0:0:
455,203,69670,1,0,0:0:0:0:
256,332,69828,5,8,0:0:0:0:
457,225,69986,1,0,0:0:0:0:
257,309,70144,1,2,0:0:0:0:
459,242,70302,1,0,0:0:0:0:
259,284,70460,5,8,1:0:0:0:
403,349,70618,1,2,0:0:0:0:
260,259,70776,1,8,1:0:0:0:
112,351,70934,1,2,0:0:0:0:
353,275,71091,6,0,P|350:234|328:181,1,80,8|0,0:0|0:0,0:0:0:0:
189,35,71407,2,0,P|176:73|174:113,1,80,2|0,0:0|0:0,0:0:0:0:
352,275,71723,2,0,P|396:271|436:248,1,80,8|0,1:0|0:0,0:0:0:0:
174,113,72039,2,0,P|130:117|90:140,1,80,2|0,0:0|0:0,0:0:0:0:
165,252,72355,5,8,0:0:0:0:
174,113,72513,1,0,0:0:0:0:
84,327,72670,1,2,0:0:0:0:
93,188,72828,1,0,0:0:0:0:
251,310,72986,5,8,1:0:0:0:
390,178,73144,1,0,0:0:0:0:
261,202,73302,1,2,0:0:0:0:
401,74,73460,1,0,0:0:0:0:
434,279,73618,1,8,0:0:0:0:
434,279,73934,6,0,P|401:306|353:312,1,80,2|0,0:0|0:0,0:0:0:0:
262,201,74249,2,0,L|269:117,2,80,8|0|2,1:0|0:0|0:0,0:0:0:0:
251,310,74723,1,0,0:0:0:0:
93,282,74881,6,0,P|132:260|176:255,1,80,8|0,0:0|0:0,0:0:0:0:
251,310,75197,1,0,0:0:0:0:
201,151,75355,2,0,P|239:173|265:209,1,80,10|8,0:0|1:0,0:0:0:0:
251,310,75670,1,0,0:0:0:0:
363,182,75828,2,0,P|362:226|344:267,1,80,8|0,1:0|0:0,0:0:0:0:
472,362,76144,6,0,P|488:304|485:243,1,120.000004577637,8|2,0:0|0:0,0:0:0:0:
452,143,76618,1,0,0:0:0:0:
370,78,76776,2,0,P|330:98|307:102,1,60.0000022888184,8|0,1:0|0:0,0:0:0:0:
143,137,77091,2,0,P|174:141|218:160,1,60.0000022888184,8|0,1:0|0:0,0:0:0:0:
292,322,77407,6,0,P|296:238|285:197,2,120.000004577637,2|0|8,0:0|0:0|1:0,0:0:0:0:
197,343,78197,1,0,0:0:0:0:
102,324,78355,1,2,0:0:0:0:
49,243,78513,1,0,0:0:0:0:
50,147,78670,6,0,P|59:104|76:75,1,60.0000022888184,8|0,0:0|0:0,0:0:0:0:
148,40,78986,1,2,0:0:0:0:
461,226,79302,6,0,P|446:301|411:337,1,120.000004577637,8|2,1:0|0:0,0:0:0:0:
363,243,79776,1,0,0:0:0:0:
267,222,79934,6,0,P|267:270|277:297,1,60.0000022888184,8|0,0:0|0:0,0:0:0:0:
194,146,80249,2,0,P|171:188|166:216,1,60.0000022888184,2|0,0:0|0:0,0:0:0:0:
311,118,80565,1,10,1:0:0:0:
268,223,80723,1,0,0:0:0:0:
311,118,80881,2,0,P|304:88|288:60,1,60.0000022888184,8|0,1:0|0:0,0:0:0:0:
96,120,81197,6,0,P|72:175|76:235,1,120.000004577637,8|2,0:0|0:0,0:0:0:0:
157,318,81670,1,0,0:0:0:0:
285,280,81828,2,0,P|279:248|266:220,1,60.0000022888184,8|0,1:0|0:0,0:0:0:0:
365,345,82144,2,0,P|378:300|374:273,1,60.0000022888184,8|0,1:0|0:0,0:0:0:0:
445,118,82460,6,0,P|461:173|459:248,2,120.000004577637,2|0|8,0:0|0:0|1:0,0:0:0:0:
370,56,83249,1,0,0:0:0:0:
274,44,83407,1,2,0:0:0:0:
186,83,83565,1,0,0:0:0:0:
140,164,83723,6,0,P|139:223|147:248,1,60.0000022888184,8|0,0:0|0:0,0:0:0:0:
175,313,84039,1,2,0:0:0:0:
427,343,84355,6,0,P|438:290|433:218,1,120.000004577637,8|2,1:0|0:0,0:0:0:0:
350,156,84828,1,0,0:0:0:0:
264,264,84986,6,0,P|253:235|250:206,1,60.0000022888184,8|0,0:0|0:0,0:0:0:0:
141,165,85302,2,0,P|146:135|158:108,1,60.0000022888184,2|0,0:0|0:0,0:0:0:0:
349,156,85618,1,10,1:0:0:0:
271,50,85776,1,0,0:0:0:0:
350,156,85934,2,0,P|367:200|369:227,1,60.0000022888184,8|0,1:0|0:0,0:0:0:0:
477,333,86249,6,0,P|486:256|478:213,1,120.000004577637,8|2,0:0|0:0,0:0:0:0:
444,103,86723,1,0,0:0:0:0:
349,156,86881,2,0,P|312:180|285:184,1,60.0000022888184,8|0,1:0|0:0,0:0:0:0:
218,251,87197,2,0,P|178:230|161:209,1,60.0000022888184,8|0,1:0|0:0,0:0:0:0:
86,132,87513,6,0,P|60:185|59:245,2,120.000004577637,2|0|8,0:0|0:0|1:0,0:0:0:0:
173,79,88302,1,0,0:0:0:0:
271,84,88460,1,2,0:0:0:0:
349,139,88618,1,0,0:0:0:0:
376,234,88776,6,0,P|373:268|359:299,1,60.0000022888184,8|0,0:0|0:0,0:0:0:0:
271,350,89091,1,0,0:0:0:0:
161,170,89407,2,0,P|148:226|156:287,1,120.000004577637,8|2,1:0|0:0,0:0:0:0:
271,351,89881,1,0,0:0:0:0:
376,235,90039,2,0,P|334:238|304:247,2,60.0000022888184,2|0|2,0:0|0:0|0:0,0:0:0:0:
376,235,90670,6,0,P|386:194|385:167,1,60.0000022888184,8|0,1:0|0:0,0:0:0:0:
292,81,90986,2,0,P|282:122|283:149,1,60.0000022888184,8|0,1:0|0:0,0:0:0:0:
376,236,91302,5,8,0:0:0:0:
293,81,91460,1,0,0:0:0:0:
376,236,91618,1,8,0:0:0:0:
293,81,91776,1,0,0:0:0:0:
377,234,91934,6,0,P|346:204|322:192,1,60.0000022888184,8|0,1:0|0:0,0:0:0:0:
201,229,92249,2,0,P|231:258|255:270,1,60.0000022888184,8|0,1:0|0:0,0:0:0:0:
376,234,92565,5,8,0:0:0:0:
200,229,92723,1,0,0:0:0:0:
376,234,92881,1,8,0:0:0:0:
200,229,93039,1,0,0:0:0:0:
439,162,93197,6,0,P|465:211|459:282,1,120.000004577637,8|2,1:0|0:0,0:0:0:0:
374,336,93670,1,0,0:0:0:0:
291,199,93828,6,0,P|285:228|289:258,1,60.0000022888184,8|0,0:0|0:0,0:0:0:0:
354,104,94144,2,0,P|353:74|342:46,1,60.0000022888184,2|0,0:0|0:0,0:0:0:0:
197,131,94460,2,0,P|176:190|186:248,1,120.000004577637,8|0,1:0|0:0,0:0:0:0:
374,337,95091,5,8,0:0:0:0:
380,242,95249,1,0,0:0:0:0:
291,199,95407,2,0,P|236:223|211:227,1,60.0000022888184,2|0,0:0|0:0,0:0:0:0:
105,166,95723,5,10,1:0:0:0:
99,71,95881,1,0,0:0:0:0:
192,21,96039,2,0,P|247:45|272:49,1,60.0000022888184,8|0,1:0|0:0,0:0:0:0:
448,95,96355,6,0,P|391:93|330:111,1,120.000004577637,8|2,0:0|0:0,0:0:0:0:
291,198,96828,1,0,0:0:0:0:
192,246,96986,2,0,P|186:214|191:184,1,60.0000022888184,8|0,1:0|0:0,0:0:0:0:
317,352,97302,2,0,P|323:320|318:290,1,60.0000022888184,8|0,1:0|0:0,0:0:0:0:
407,196,97618,6,0,P|427:249|426:313,2,120.000004577637,2|0|8,0:0|0:0|1:0,0:0:0:0:
345,122,98407,1,0,0:0:0:0:
249,107,98565,1,2,0:0:0:0:
157,138,98723,1,0,0:0:0:0:
101,214,98881,6,0,P|103:250|112:286,1,60.0000022888184,8|0,0:0|0:0,0:0:0:0:
183,333,99197,1,2,0:0:0:0:
367,239,99513,2,0,P|302:238|245:261,1,120.000004577637,8|2,1:0|0:0,0:0:0:0:
183,333,99986,1,0,0:0:0:0:
252,256,100144,6,0,P|253:222|240:181,1,60.0000022888184,8|0,0:0|0:0,0:0:0:0:
367,239,100460,2,0,P|360:268|362:298,1,60.0000022888184,2|0,0:0|0:0,0:0:0:0:
427,140,100776,5,10,1:0:0:0:
361,298,100934,1,0,0:0:0:0:
427,139,101091,2,0,P|404:118|378:105,1,60.0000022888184,8|0,1:0|0:0,0:0:0:0:
109,94,101407,6,0,P|171:98|233:71,1,120.000004577637,8|2,0:0|0:0,0:0:0:0:
315,28,101881,1,0,0:0:0:0:
109,94,102039,2,0,P|97:137|103:169,1,60.0000022888184,8|0,1:0|0:0,0:0:0:0:
257,216,102355,2,0,P|256:186|246:158,1,60.0000022888184,8|0,1:0|0:0,0:0:0:0:
155,224,102670,6,0,P|148:284|165:352,2,120.000004577637,2|0|8,0:0|0:0|1:0,0:0:0:0:
200,138,103460,1,0,0:0:0:0:
292,113,103618,1,2,0:0:0:0:
379,146,103776,1,0,0:0:0:0:
426,229,103934,6,0,P|429:273|423:305,1,60.0000022888184,8|0,0:0|0:0,0:0:0:0:
363,360,104249,1,2,0:0:0:0:
262,206,104565,2,0,P|251:257|272:332,1,120.000004577637,8|2,1:0|0:0,0:0:0:0:
363,360,105039,1,0,0:0:0:0:
262,206,105197,6,0,P|225:214|199:227,1,60.0000022888184,8|0,0:0|0:0,0:0:0:0:
62,181,105513,2,0,P|99:173|125:160,1,60.0000022888184,2|0,0:0|0:0,0:0:0:0:
171,84,105828,5,10,1:0:0:0:
125,308,105986,1,0,0:0:0:0:
171,84,106144,2,0,P|191:122|196:156,1,60.0000022888184,2|0,0:0|0:0,0:0:0:0:
125,307,106460,6,0,P|122:273|134:241,2,60.0000022888184,8|0|2,0:0|0:0|0:0,0:0:0:0:
215,352,106934,1,0,0:0:0:0:
284,261,107091,2,0,P|276:232|262:207,1,60.0000022888184,8|0,1:0|0:0,0:0:0:0:
417,279,107407,2,0,P|396:324|393:356,1,60.0000022888184,8|0,1:0|0:0,0:0:0:0:
372,190,107723,6,0,P|370:123|347:64,2,120.000004577637,2|0|8,0:0|0:0|1:0,0:0:0:0:
326,275,108513,1,0,0:0:0:0:
233,298,108670,1,2,0:0:0:0:
143,262,108828,1,0,0:0:0:0:
110,171,108986,2,0,P|111:135|126:102,1,60.0000022888184,8|0,0:0|0:0,0:0:0:0:
182,38,109302,1,2,0:0:0:0:
13,132,109618,6,0,P|-7:82|6:17,1,120.000004577637,8|2,1:0|0:0,0:0:0:0:
87,69,110091,1,2,0:0:0:0:
109,172,110249,2,0,P|81:208|54:223,1,60.0000022888184,8|0,0:0|0:0,0:0:0:0:
0,286,110565,2,0,P|45:292|71:308,1,60.0000022888184,2|0,0:0|0:0,0:0:0:0:
159,325,110881,6,0,P|141:282|142:251,1,60.0000022888184,8|0,1:0|0:0,0:0:0:0:
187,113,111197,2,0,P|205:156|204:187,1,60.0000022888184,8|2,1:0|0:0,0:0:0:0:
159,325,111513,5,8,0:0:0:0:
187,113,111670,1,2,0:0:0:0:
159,325,111828,1,8,0:0:0:0:
187,113,111986,1,2,0:0:0:0:
357,243,112144,6,0,P|328:280|301:294,1,60.0000022888184,8|0,1:0|0:0,0:0:0:0:
160,325,112460,2,0,P|188:287|215:273,1,60.0000022888184,8|0,1:0|0:0,0:0:0:0:
357,243,112776,5,8,0:0:0:0:
160,325,112934,1,2,0:0:0:0:
357,243,113091,1,8,0:0:0:0:
160,325,113249,1,2,0:0:0:0:
188,113,113407,6,0,P|234:118|260:135,1,60.0000022888184,8|0,1:0|0:0,0:0:0:0:
357,243,113723,2,0,P|310:237|284:220,1,60.0000022888184,8|0,1:0|0:0,0:0:0:0:
187,113,114039,5,8,0:0:0:0:
255,320,114197,1,0,0:0:0:0:
442,282,114355,2,0,P|447:254|441:210,1,60.0000022888184,2|0,0:0|0:0,0:0:0:0:
334,37,114670,2,0,P|310:97|326:166,1,120.000004577637,8|2,1:0|0:0,0:0:0:0:
357,243,115144,1,0,0:0:0:0:
424,108,115302,5,8,0:0:0:0:
357,243,115460,1,0,0:0:0:0:
221,198,115618,2,0,P|217:155|221:126,1,60.0000022888184,2|0,0:0|0:0,0:0:0:0:
316,152,115934,5,8,1:0:0:0:
255,319,116091,1,0,0:0:0:0:
115,260,116249,2,0,P|106:217|107:183,1,60.0000022888184,2|0,0:0|0:0,0:0:0:0:
105,201,116565,5,8,0:0:0:0:
255,319,116723,1,0,0:0:0:0:
316,152,116881,2,0,P|319:110|316:83,1,60.0000022888184,2|0,0:0|0:0,0:0:0:0:
428,173,117197,2,0,P|446:239|437:294,1,120.000004577637,8|2,1:0|0:0,0:0:0:0:
360,362,117670,1,0,0:0:0:0:
238,222,117828,5,8,0:0:0:0:
361,363,117986,1,0,0:0:0:0:
238,221,118144,2,0,P|210:224|169:242,1,60.0000022888184,2|0,0:0|0:0,0:0:0:0:
106,359,118460,5,8,1:0:0:0:
12,262,118618,1,0,0:0:0:0:
106,359,118776,2,0,P|133:355|174:337,1,60.0000022888184,2|0,0:0|0:0,0:0:0:0:
163,343,119091,5,8,0:0:0:0:
238,221,119249,1,0,0:0:0:0:
163,122,119407,2,0,P|136:111|98:107,1,60.0000022888184,2|0,0:0|0:0,0:0:0:0:
12,262,119723,2,0,B|44:261|80:238|80:238|107:239|148:258,1,120.000004577637,8|2,1:0|0:0,0:0:0:0:
163,343,120197,1,0,0:0:0:0:
238,221,120355,5,8,0:0:0:0:
163,343,120513,1,0,0:0:0:0:
33,295,120670,2,0,P|34:260|43:227,1,60.0000022888184,2|0,0:0|0:0,0:0:0:0:
163,343,120986,5,8,1:0:0:0:
238,221,121144,1,0,0:0:0:0:
370,317,121302,2,0,P|369:282|360:249,1,60.0000022888184,2|0,0:0|0:0,0:0:0:0:
363,257,121618,5,8,0:0:0:0:
254,363,121776,1,0,0:0:0:0:
143,233,121934,2,0,P|141:195|151:166,1,60.0000022888184,2|0,0:0|0:0,0:0:0:0:
270,91,122249,2,0,P|238:111|207:117,1,60.0000022888184,8|0,1:0|0:0,0:0:0:0:
88,52,122565,2,0,P|121:69|142:92,1,60.0000022888184,8|0,1:0|0:0,0:0:0:0:
136,84,122881,5,8,0:0:0:0:
237,206,123039,1,0,0:0:0:0:
364,98,123197,2,0,P|360:66|349:38,1,60.0000022888184,2|0,0:0|0:0,0:0:0:0:
443,144,123513,2,0,P|472:156|502:161,1,60.0000022888184,8|0,1:0|0:0,0:0:0:0:
367,186,123828,2,0,P|341:205|322:228,1,60.0000022888184,8|0,1:0|0:0,0:0:0:0:
323,226,124144,5,8,0:0:0:0:
242,334,124302,1,0,0:0:0:0:
122,236,124460,2,0,P|117:200|122:173,1,60.0000022888184,2|0,0:0|0:0,0:0:0:0:
95,335,124776,2,0,P|66:356|40:365,1,60.0000022888184,8|0,1:0|0:0,0:0:0:0:
191,306,125091,2,0,P|224:320|244:337,1,60.0000022888184,8|0,1:0|0:0,0:0:0:0:
242,335,125407,5,8,0:0:0:0:
211,169,125565,1,0,0:0:0:0:
242,335,125723,2,0,P|276:327|306:309,1,60.0000022888184,2|0,0:0|0:0,0:0:0:0:
373,165,126039,5,10,1:0:0:0:
298,314,126197,1,0,0:0:0:0:
373,165,126355,2,0,P|407:173|437:191,1,60.0000022888184,8|0,1:0|0:0,0:0:0:0:
428,184,126670,6,0,P|426:144|411:106,1,80,8|0,0:0|0:0,0:0:0:0:
376,255,126986,1,2,0:0:0:0:
285,64,127144,1,0,0:0:0:0:
178,245,127302,1,8,1:0:0:0:
87,128,127460,2,0,P|128:127|170:140,2,80,0|2|0,0:0|0:0|0:0,0:0:0:0:
179,245,127934,6,0,P|220:246|262:233,1,80,8|0,0:0|0:0,0:0:0:0:
134,346,128249,2,0,P|91:326|41:323,1,80,2|0,0:0|0:0,0:0:0:0:
180,246,128565,1,8,1:0:0:0:
134,345,128723,1,0,0:0:0:0:
291,242,128881,2,0,P|313:282|317:322,1,80,2|0,0:0|0:0,0:0:0:0:
361,154,129197,5,8,0:0:0:0:
316,316,129355,1,0,0:0:0:0:
361,154,129513,2,0,P|324:134|282:127,1,80,2|0,0:0|0:0,0:0:0:0:
64,101,129828,2,0,P|142:93|212:50,1,160,8|2,1:0|0:0,0:0:0:0:
198,160,130302,1,0,0:0:0:0:
64,100,130460,6,0,P|63:62|78:21,1,80,8|0,0:0|0:0,0:0:0:0:
198,160,130776,2,0,P|214:198|215:242,1,80,2|0,0:0|0:0,0:0:0:0:
158,81,131091,1,8,1:0:0:0:
133,333,131249,1,0,0:0:0:0:
29,218,131407,1,8,1:0:0:0:
29,218,131723,6,0,P|96:229|133:230,1,80,8|0,0:0|0:0,0:0:0:0:
211,320,132039,2,0,P|163:323|129:336,1,80,2|0,0:0|0:0,0:0:0:0:
199,160,132355,1,8,1:0:0:0:
133,333,132513,1,0,0:0:0:0:
311,202,132670,1,2,0:0:0:0:
333,336,132828,1,0,0:0:0:0:
357,98,132986,6,0,P|394:127|410:158,1,80,8|2,0:0|0:0,0:0:0:0:
387,266,133302,1,0,0:0:0:0:
271,111,133460,2,0,P|275:71|294:36,1,80,2|8,0:0|1:0,0:0:0:0:
227,235,133776,2,0,P|190:251|151:251,1,80,2|0,0:0|0:0,0:0:0:0:
150,250,134091,1,0,0:0:0:0:
387,266,134249,6,0,P|431:263|474:275,1,80,8|0,0:0|0:0,0:0:0:0:
465,271,134565,1,2,0:0:0:0:
447,161,134723,1,0,0:0:0:0:
207,67,134881,2,0,P|193:112|199:146,1,80,8|0,1:0|0:0,0:0:0:0:
268,203,135197,1,2,0:0:0:0:
278,16,135355,6,0,P|205:54|116:58,1,160,8|0,0:0|0:0,0:0:0:0:
34,121,135828,2,0,P|86:153|119:160,1,80,2|0,0:0|0:0,0:0:0:0:
46,268,136144,2,0,P|106:259|136:243,1,80,8|0,1:0|0:0,0:0:0:0:
158,353,136460,2,0,P|205:315|223:286,1,80,8|0,1:0|0:0,0:0:0:0:
268,203,136776,5,8,0:0:0:0:
200,39,136934,2,0,P|209:98|225:128,1,80
443,238,137249,2,0,P|386:216|352:215,1,80,2|8,0:0|1:0,0:0:0:0:
268,203,137565,1,0,0:0:0:0:
327,114,137723,2,0,P|364:100|404:97,1,80,2|0,0:0|0:0,0:0:0:0:
328,313,138039,1,8,0:0:0:0:
328,313,138355,6,0,L|242:310,1,80,2|0,0:0|0:0,0:0:0:0:
83,217,138670,2,0,L|179:209,1,80,8|0,1:0|0:0,0:0:0:0:
327,113,138986,2,0,L|248:107,1,80,2|0,0:0|0:0,0:0:0:0:
403,46,139302,5,8,0:0:0:0:
328,113,139460,1,0,0:0:0:0:
403,46,139618,1,2,0:0:0:0:
367,200,139776,1,0,0:0:0:0:
403,46,139934,1,8,1:0:0:0:
455,244,140091,1,0,0:0:0:0:
455,244,140249,5,8,0:0:0:0:
403,46,140407,1,2,0:0:0:0:
506,73,140565,2,0,P|513:124|501:162,2,80,0|0|2,0:0|0:0|0:0,0:0:0:0:
308,19,141197,2,0,L|207:31,1,80,8|2,1:0|0:0,0:0:0:0:
215,128,141513,2,0,L|114:140,1,80,8|2,1:0|0:0,0:0:0:0:
273,212,141828,5,8,0:0:0:0:
372,178,141986,2,0,P|372:135|356:95,1,80,0|2,0:0|0:0,0:0:0:0:
308,19,142302,1,0,0:0:0:0:
121,71,142460,6,0,P|103:128|108:169,1,80,8|0,1:0|0:0,0:0:0:0:
111,247,142776,1,8,0:0:0:0:
203,302,142934,1,2,0:0:0:0:
273,212,143091,5,8,0:0:0:0:
273,212,143249,2,0,P|268:162|259:118,1,80,2|0,0:0|0:0,0:0:0:0:
365,282,143565,1,0,0:0:0:0:
454,209,143723,1,8,1:0:0:0:
454,209,143881,2,0,P|444:117|466:42,1,160,2|2,0:0|0:0,0:0:0:0:
460,54,144355,5,8,0:0:0:0:
348,131,144565,1,2,0:0:0:0:
217,82,144776,1,0,0:0:0:0:
210,108,144986,5,8,1:0:0:0:
347,166,145197,1,2,0:0:0:0:
468,80,145407,1,0,0:0:0:0:
346,198,145618,5,8,0:0:0:0:
346,198,145776,2,0,L|343:292,1,80,0|2,0:0|0:0,0:0:0:0:
300,360,146249,5,8,1:0:0:0:
446,351,146407,1,2,0:0:0:0:
446,351,146565,2,0,L|441:259,1,80,8|2,1:0|0:0,0:0:0:0:
300,360,146881,5,8,0:0:0:0:
230,190,147039,1,0,0:0:0:0:
225,221,147197,1,2,0:0:0:0:
254,207,147355,1,0,0:0:0:0:
70,265,147513,5,8,1:0:0:0:
197,361,147670,1,0,0:0:0:0:
202,329,147828,1,2,0:0:0:0:
172,341,147986,1,0,0:0:0:0:
70,265,148144,5,8,0:0:0:0:
272,284,148302,1,0,0:0:0:0:
272,284,148460,1,2,0:0:0:0:
70,265,148618,1,0,0:0:0:0:
198,362,148776,5,8,1:0:0:0:
198,362,148934,1,0,0:0:0:0:
125,171,149091,1,2,0:0:0:0:
197,361,149249,1,0,0:0:0:0:
237,197,149407,6,0,P|316:200|365:270,1,160,8|2,0:0|0:0,0:0:0:0:
336,352,149881,1,0,0:0:0:0:
362,259,150039,2,0,P|364:219|353:177,1,80,8|0,1:0|0:0,0:0:0:0:
412,87,150355,2,0,P|439:115|456:153,1,80,2|0,0:0|0:0,0:0:0:0:
250,119,150670,5,8,0:0:0:0:
250,119,150986,2,0,P|235:168|240:206,1,80,2|0,0:0|0:0,0:0:0:0:
316,38,151302,1,8,1:0:0:0:
238,195,151460,1,0,0:0:0:0:
104,79,151618,1,8,1:0:0:0:
104,79,151934,6,0,P|119:118|123:164,1,80,8|0,0:0|0:0,0:0:0:0:
50,241,152249,1,2,0:0:0:0:
157,275,152407,1,0,0:0:0:0:
238,195,152565,2,0,P|277:191|319:206,1,80,8|0,1:0|0:0,0:0:0:0:
315,203,152881,1,2,0:0:0:0:
398,329,153039,5,8,0:0:0:0:
395,313,153355,1,2,0:0:0:0:
393,297,153670,1,2,0:0:0:0:
473,206,153828,2,0,L|478:119,1,80,8|0,1:0|0:0,0:0:0:0:
371,40,154144,2,0,L|378:131,1,80,2|0,0:0|0:0,0:0:0:0:
315,204,154460,5,8,0:0:0:0:
315,204,154776,1,2,0:0:0:0:
244,117,154934,1,0,0:0:0:0:
147,173,155091,2,0,P|142:235|152:275,1,80,8|0,1:0|0:0,0:0:0:0:
252,287,155407,1,2,0:0:0:0:
85,347,155565,6,0,P|49:257|47:183,1,160,8|0,0:0|0:0,0:0:0:0:
73,78,156039,2,0,P|29:101|-8:110,1,80,2|0,0:0|0:0,0:0:0:0:
126,206,156355,2,0,P|76:203|39:193,1,80,8|0,1:0|0:0,0:0:0:0:
84,347,156670,2,0,P|42:320|15:292,1,80,2|0,0:0|0:0,0:0:0:0:
126,207,156986,5,8,0:0:0:0:
83,347,157144,1,0,0:0:0:0:
125,205,157302,2,0,P|169:226|198:264,1,80,2|0,0:0|0:0,0:0:0:0:
278,179,157618,5,8,1:0:0:0:
125,207,157776,2,0,P|121:158|139:114,1,80,0|2,0:0|0:0,0:0:0:0:
37,74,158091,1,0,0:0:0:0:
125,207,158249,6,0,P|84:234|37:240,1,80,8|0,0:0|0:0,0:0:0:0:
255,95,158565,1,2,0:0:0:0:
126,206,158723,1,0,0:0:0:0:
254,96,158881,6,0,P|299:99|343:117,1,80,8|0,1:0|0:0,0:0:0:0:
394,278,159197,2,0,P|373:236|368:189,1,80,2|0,0:0|0:0,0:0:0:0:
483,68,159513,6,0,P|457:106|419:134,1,80,8|0,0:0|0:0,0:0:0:0:
279,179,159828,1,2,0:0:0:0:
483,67,159986,2,0,P|479:109|460:159,1,80,0|8,0:0|1:0,0:0:0:0:
394,278,160302,1,0,0:0:0:0:
205,205,160460,2,0,P|243:187|296:178,1,80,2|0,0:0|0:0,0:0:0:0:
394,278,160776,5,8,0:0:0:0:
202,165,160934,2,0,P|240:167|311:195,1,80,0|2,0:0|0:0,0:0:0:0:
394,278,161249,1,0,0:0:0:0:
365,117,161407,2,0,P|349:65|323:34,2,80,8|0|8,1:0|0:0|1:0,0:0:0:0:
365,117,162039,5,8,0:0:0:0:
203,165,162197,2,0,P|192:209|192:251,1,80,0|2,0:0|0:0,0:0:0:0:
191,243,162670,5,8,1:0:0:0:
285,334,162828,1,0,0:0:0:0:
395,276,162986,2,0,P|394:225|382:166,1,80,2|0,0:0|0:0,0:0:0:0:
273,106,163302,5,8,0:0:0:0:
191,243,163460,1,0,0:0:0:0:
80,167,163618,2,0,P|81:116|92:69,1,80,2|0,0:0|0:0,0:0:0:0:
191,243,163934,5,8,1:0:0:0:
273,106,164091,2,0,P|290:151|291:191,1,80,0|2,0:0|0:0,0:0:0:0:
160,83,164407,1,0,0:0:0:0:
354,23,164565,5,8,0:0:0:0:
354,23,164881,1,2,0:0:0:0:
294,219,165039,1,0,1:0:0:0:
294,219,165355,5,0,0:0:0:0:
370,229,165513,2,0,P|314:227|281:213,1,80,2|0,0:0|0:0,0:0:0:0:
441,163,165828,6,0,P|463:207|465:251,1,80,8|0,0:0|0:0,0:0:0:0:
413,315,166144,1,2,0:0:0:0:
343,126,166460,2,0,L|178:139,1,160,8|8,1:0|1:0,0:0:0:0:
16,320,167091,6,0,L|181:307,1,160,8|2,0:0|0:0,0:0:0:0:
262,379,167565,1,0,0:0:0:0:
284,269,167723,2,0,P|286:227|269:177,1,80,8|0,1:0|0:0,0:0:0:0:
174,70,168039,2,0,P|163:108|166:148,1,80,2|0,0:0|0:0,0:0:0:0:
433,180,168355,6,0,P|435:101|394:28,1,160,8|2,0:0|0:0,0:0:0:0:
342,126,168828,1,0,0:0:0:0:
433,180,168986,2,0,P|476:165|523:162,1,80,8|0,1:0|0:0,0:0:0:0:
397,31,169302,2,0,P|356:38|304:35,1,80,2|0,0:0|0:0,0:0:0:0:
70,183,169618,6,0,P|145:168|234:167,1,160,8|2,0:0|0:0,0:0:0:0:
314,230,170091,1,0,0:0:0:0:
228,166,170249,2,0,P|224:113|234:74,1,80,8|0,1:0|0:0,0:0:0:0:
158,258,170565,2,0,P|166:308|164:358,1,80,2|8,0:0|0:0,0:0:0:0:
70,182,170881,5,8,0:0:0:0:
118,68,171039,2,0,P|163:71|206:88,1,80,0|2,0:0|0:0,0:0:0:0:
313,230,171355,1,0,0:0:0:0:
229,165,171513,2,0,P|268:137|308:127,1,80,8|0,1:0|0:0,0:0:0:0:
436,80,171828,1,8,1:0:0:0:
436,80,172144,6,0,P|464:163|450:239,1,160,8|2,0:0|0:0,0:0:0:0:
422,341,172618,1,0,0:0:0:0:
259,270,172776,2,0,P|309:271|351:285,1,80,8|0,1:0|0:0,0:0:0:0:
185,346,173091,2,0,P|131:359|86:360,1,80,2|0,0:0|0:0,0:0:0:0:
29,205,173407,6,0,P|92:180|183:180,1,160,8|2,0:0|0:0,0:0:0:0:
260,269,173881,1,0,0:0:0:0:
298,159,174039,2,0,P|293:109|286:79,1,80,8|0,1:0|0:0,0:0:0:0:
184,180,174355,2,0,P|171:240|175:277,1,80,2|0,0:0|0:0,0:0:0:0:
30,205,174670,6,0,P|32:126|20:43,1,160,8|2,0:0|0:0,0:0:0:0:
20,46,175144,1,0,0:0:0:0:
124,75,175302,2,0,P|168:72|213:63,1,80,8|0,1:0|0:0,0:0:0:0:
263,193,175618,2,0,P|221:184|177:180,1,80,2|0,0:0|0:0,0:0:0:0:
311,78,175934,5,8,0:0:0:0:
262,193,176091,1,0,0:0:0:0:
407,124,176249,2,0,P|423:175|423:213,1,80,2|0,0:0|0:0,0:0:0:0:
330,258,176565,1,8,1:0:0:0:
510,228,176723,2,0,P|510:281|494:333,1,80,0|8,0:0|1:0,0:0:0:0:
245,360,177197,6,0,L|418:348,1,160,8|2,0:0|0:0,0:0:0:0:
404,348,177670,1,0,0:0:0:0:
425,201,177828,1,8,1:0:0:0:
404,348,177986,1,0,0:0:0:0:
424,202,178144,2,0,P|420:162|406:124,1,80,2|0,0:0|0:0,0:0:0:0:
286,57,178460,6,0,L|118:72,1,160,8|2,0:0|0:0,0:0:0:0:
126,71,178934,1,0,0:0:0:0:
53,169,179091,1,8,1:0:0:0:
126,71,179249,1,0,0:0:0:0:
53,169,179407,2,0,P|41:207|43:251,1,80,2|0,0:0|0:0,0:0:0:0:
214,226,179723,6,0,L|379:232,1,160,8|2,0:0|0:0,0:0:0:0:
373,231,180197,1,0,0:0:0:0:
380,119,180355,1,8,1:0:0:0:
373,231,180513,1,0,0:0:0:0:
380,119,180670,2,0,P|377:73|359:28,1,80,2|8,0:0|0:0,0:0:0:0:
366,41,181144,5,2,0:0:0:0:
492,139,181302,2,0,P|479:192|481:235,1,80,8|2,0:0|0:0,0:0:0:0:
460,54,181618,1,8,1:0:0:0:
478,217,181776,1,2,0:0:0:0:
312,233,181934,1,8,1:0:0:0:
312,233,182249,6,0,L|141:246,1,160,8|2,0:0|0:0,0:0:0:0:
90,150,182723,1,0,0:0:0:0:
173,75,182881,2,0,L|272:88,1,80,8|0,1:0|0:0,0:0:0:0:
312,233,183197,2,0,L|220:214,1,80,2|0,0:0|0:0,0:0:0:0:
173,76,183513,6,0,L|344:67,1,160,8|2,0:0|0:0,0:0:0:0:
416,174,183986,1,0,0:0:0:0:
477,99,184144,2,0,L|460:7,1,80,8|0,1:0|0:0,0:0:0:0:
332,68,184460,2,0,L|317:156,1,80,2|0,0:0|0:0,0:0:0:0:
198,346,184776,6,0,L|184:182,1,160,8|2,0:0|0:0,0:0:0:0:
270,264,185249,1,0,0:0:0:0:
184,186,185407,2,0,L|85:203,1,80,8|0,1:0|0:0,0:0:0:0:
270,264,185723,2,0,L|352:251,1,80,2|0,0:0|0:0,0:0:0:0:
219,69,186039,5,8,0:0:0:0:
184,186,186197,1,0,0:0:0:0:
270,263,186355,1,2,0:0:0:0:
110,97,186513,5,0,0:0:0:0:
75,214,186670,1,8,1:0:0:0:
161,291,186828,1,0,0:0:0:0:
184,186,186986,5,8,1:0:0:0:
