osu file format v9

[General]
AudioFilename: WowSong.mp3
AudioLeadIn: 0
PreviewTime: 12404
Countdown: 0
SampleSet: Soft
StackLeniency: 0.7
Mode: 0
LetterboxInBreaks: 0

[Editor]
DistanceSpacing: 0.8
BeatDivisor: 4
GridSize: 8

[Metadata]
Title:Wow! Wow! Wubbzy!
Artist:Smiley Arounds
Creator:Gabe
Version:Normal
Source:Wow! Wow! Wubbzy!
Tags:eLtigreXXx Musty _Gezo_ Gezoda Nickelodeon Nick Jr.

[Difficulty]
HPDrainRate:4
CircleSize:3
OverallDifficulty:4
ApproachRate:4
SliderMultiplier:1.1
SliderTickRate:1

[Events]
//Background and Video events
0,0,"WowBack.jpg"
//Break Periods
//Storyboard Layer 0 (Background)
//Storyboard Layer 1 (Fail)
//Storyboard Layer 2 (Pass)
//Storyboard Layer 3 (Foreground)
//Storyboard Sound Samples
//Background Colour Transformations
3,100,163,162,255

[TimingPoints]
4735,319.573901464714,4,2,0,60,1,0
7291,-100,4,1,0,50,0,0
12404,-100,4,1,0,50,0,1
14961,-100,4,2,0,50,0,0
20074,-100,4,1,0,50,0,1
22631,-100,4,1,0,50,0,0
27744,-100,4,1,0,50,0,1
30300,-100,4,1,0,50,0,0
32857,-100,4,1,0,50,0,1
35414,-100,4,1,0,50,0,0
37970,-100,4,1,0,50,0,1
40527,-100,4,2,0,45,0,0
41166,-100,4,1,0,50,0,0
43163,-100,4,2,0,5,0,0

[Colours]
Combo1 : 255,17,136
Combo2 : 255,255,106
Combo3 : 128,0,128

[HitObjects]
160,72,7291,2,0,B|260:-16|368:84,1,220,4|0
312,148,8250,2,0,B|200:148,1,110,8|2
256,232,8889,1,10
256,320,9209,1,2
104,232,9848,6,0,B|104:112,1,110,4|8
184,80,10487,2,0,B|184:192,1,110,0|8
256,232,11126,1,2
304,160,11446,1,10
352,232,11765,1,2
192,304,12404,6,0,B|136:344|80:296,1,110,4|8
144,232,13043,2,0,B|144:104,1,110,0|8
96,48,13683,2,0,B|152:8|208:56,1,110,0|8
224,136,14322,2,0,B|280:176|336:128,1,110,2|10
280,56,14961,6,0,B|400:56,2,110,4|8|2
128,136,16239,2,0,B|8:136,2,110,0|8|2
304,136,17517,6,0,B|424:136,2,110,0|8|2
232,184,18476,1,8
152,224,18796,2,0,B|32:224,2,110,0|8|4
272,344,20074,6,0,B|384:344,1,110,4|8
424,264,20713,2,0,B|312:264,1,110,0|8
272,184,21352,2,0,B|320:136|264:72,1,110,0|8
184,80,21991,2,0,B|136:128|200:200,1,110,2|10
272,184,22631,5,4
352,152,22950,1,8
408,80,23270,1,0
320,64,23589,2,0,B|272:104|208:56,1,110,8|2
184,144,24229,2,0,B|136:184|72:136,1,110,10|2
24,312,25187,5,0
104,272,25507,1,8
96,360,25826,1,0
176,320,26146,2,0,B|224:272|280:328,1,110,8|2
360,328,26785,2,0,B|408:376|464:320,1,110,10|2
360,184,27744,6,0,B|360:64,1,110,4|8
280,120,28383,2,0,B|168:120,1,110,0|8
224,200,29022,2,0,B|224:312,1,110,0|8
304,264,29661,2,0,B|416:264,1,110,2|10
488,200,30300,5,4
416,152,30620,2,0,B|416:32,1,110,8|0
328,40,31259,1,8
328,128,31579,2,0,B|208:128,1,110,2|10
128,128,32218,1,2
192,296,32857,6,0,B|240:344|296:288,1,110,4|8
240,224,33496,2,0,B|191:175|248:119,1,110,0|8
312,176,34135,2,0,B|360:224|416:168,1,110,0|8
360,104,34774,2,0,B|408:56|351:0,1,110,2|10
288,56,35414,5,4
200,56,35733,2,0,B|200:168,1,110,8|0
240,248,36372,2,0,B|128:248,1,110,8|2
40,248,37011,1,10
40,160,37331,1,2
192,64,37970,6,0,B|240:16|296:72,1,110,4|8
240,136,38609,2,0,B|240:248,1,110,0|8
288,320,39248,2,0,B|240:368|184:312,1,110,0|8
144,248,39888,5,2
144,160,40207,1,2
392,72,41166,5,2
480,72,41485,1,2
392,320,42444,5,2
304,320,42764,1,2
216,320,43083,1,6
256,192,43163,12,2,45001
