osu file format v9

[General]
AudioFilename: WowSong.mp3
AudioLeadIn: 0
PreviewTime: 12404
Countdown: 0
SampleSet: Soft
StackLeniency: 0.7
Mode: 0
LetterboxInBreaks: 0

[Editor]
DistanceSpacing: 0.8
BeatDivisor: 4
GridSize: 8

[Metadata]
Title:Wow! Wow! Wubbzy!
Artist:Smiley Arounds
Creator:Gabe
Version:Insane
Source:Wow! Wow! Wubbzy!
Tags:eLtigreXXx Musty _Gezo_ Gezoda Nickelodeon Nick Jr.

[Difficulty]
HPDrainRate:7
CircleSize:4
OverallDifficulty:7
ApproachRate:8
SliderMultiplier:1.8
SliderTickRate:1

[Events]
//Background and Video events
0,0,"WowBack.jpg"
//Break Periods
//Storyboard Layer 0 (Background)
//Storyboard Layer 1 (Fail)
//Storyboard Layer 2 (Pass)
//Storyboard Layer 3 (Foreground)
//Storyboard Sound Samples
//Background Colour Transformations
3,100,163,162,255

[TimingPoints]
4735,319.573901464714,4,2,0,60,1,0
7291,-100,4,1,0,50,0,0
12404,-100,4,1,0,50,0,1
14961,-100,4,2,0,50,0,0
20074,-100,4,1,0,50,0,1
22631,-100,4,1,0,50,0,0
27344,-100,4,2,0,50,0,0
27744,-100,4,1,0,50,0,1
30300,-100,4,1,0,50,0,0
32857,-100,4,1,0,50,0,1
35414,-100,4,1,0,50,0,0
37970,-100,4,1,0,50,0,1
40527,-100,4,2,0,45,0,0
40926,-100,4,1,0,50,0,0
43163,-100,4,2,0,5,0,0

[Colours]
Combo1 : 255,17,136
Combo2 : 255,255,106
Combo3 : 128,0,128

[HitObjects]
240,320,6972,6,0,B|208:280|240:232,1,90
352,240,7291,2,0,B|384:280|352:328,1,90
296,176,7611,2,0,B|296:72,1,90,8|0
120,56,8090,6,0,B|80:24|32:55,1,90,0|8
72,200,8410,2,0,B|104:160|72:112,1,90,0|2
72,280,8889,1,2
216,280,9209,1,2
316,120,9848,5,0
400,48,10007,2,0,B|360:16|312:47,1,90,0|8
400,124,10327,2,0,B|440:156|488:125,1,90
316,120,10806,6,0,B|220:120,1,90,8|0
152,120,11126,1,2
152,264,11446,1,2
296,264,11765,1,2
360,24,12404,6,0,B|368:136|480:144,1,180,2|10
471,240,13043,2,2,B|368:248|360:360,1,180,2|10
288,192,13683,6,2,B|384:192,1,90,2|0
200,192,14002,2,0,B|264:96,1,90,10|0
120,192,14322,1,10
288,192,14641,1,10
288,48,14961,5,2
208,48,15121,1,0
128,48,15280,1,8
168,120,15440,1,0
248,120,15600,1,2
208,188,15760,2,0,B|208:292,1,90,0|8
464,344,16239,5,2
384,344,16399,1,0
304,344,16559,1,8
344,272,16719,1,0
424,272,16878,1,2
384,204,17038,2,0,B|384:100,1,90,0|8
260,40,17517,5,2
184,40,17677,1,0
108,40,17837,1,8
32,40,17997,1,0
68,108,18157,1,2
192,176,18476,6,0,B|96:176,1,90,8|0
24,176,18796,2,0,B|-8:240|-8:304|24:368,1,180,2|4
84,316,19275,1,0
84,244,19435,2,0,B|140:212|204:212|268:252,1,180,0|4
424,328,20074,6,0,B|368:360|304:360|240:320,1,180,2|10
176,200,20713,1,2
320,200,21033,1,10
200,116,21352,6,0,B|112:116,1,90,2|0
296,116,21672,2,0,B|400:116,1,90,10|0
176,40,21991,1,10
320,40,22311,1,10
392,160,22631,5,0
456,216,22790,1,0
368,240,22950,1,8
432,296,23110,1,0
344,320,23270,2,0,B|256:352|168:320,1,180,0|8
80,240,23909,2,0,B|168:208|256:240,1,180,0|8
344,320,24548,1,8
348,32,25187,5,0
348,104,25347,2,0,B|308:144|268:104,1,90,0|8
196,104,25667,1,0
228,168,25826,1,0
296,296,26146,2,0,B|208:328|120:296,1,180,8|0
52,168,26785,2,0,B|140:200|228:168,1,180,8|0
328,64,27424,1,4
328,64,27744,5,2
192,216,28063,1,10
192,64,28383,1,2
328,216,28703,1,10
256,344,29022,6,0,B|168:344,1,90,2|0
256,344,29342,2,0,B|360:344,1,90,10|0
256,248,29661,1,10
256,104,29981,1,10
255,193,30300,6,0,B|256:102,1,90,4|0
192,64,30620,2,0,B|104:8|16:64,2,180,8|0|8
168,136,31419,2,2,B|256:200|344:128,1,180
312,64,31898,2,0,B|400:8|488:64,2,180,8|2|10
408,176,32857,5,6
264,176,33177,1,10
336,304,33496,1,2
192,304,33816,1,10
120,176,34135,6,0,B|40:128,1,90,2|0
120,88,34455,2,0,B|224:88,1,90,10|0
208,176,34774,2,0,B|288:128,1,90,10|0
344,88,35094,1,10
416,280,35414,6,0,B|404:325|353:342,1,90,2|0
336,272,35733,2,0,B|296:296|248:272,1,90,10|0
288,208,36053,2,0,B|242:196|225:145,1,90,2|0
296,128,36372,2,0,B|272:88|296:40,1,90,10|2
356,84,36692,5,0
400,144,36852,2,0,B|368:256,1,90,2|10
464,208,37171,2,2,B|408:384,1,180
344,344,37651,1,8
264,224,37970,6,0,B|161:216|153:104,1,180,6|10
248,104,38609,2,0,B|239:207|127:215,1,180,2|10
208,336,39248,6,0,B|288:264,1,90,2|0
392,160,39568,2,0,B|328:224,1,90,10|0
456,104,39888,5,2
456,248,40207,1,2
336,192,40527,5,0
176,192,40846,1,0
176,56,41166,5,2
336,56,41485,1,2
336,192,41805,5,0
176,192,42125,1,0
112,320,42444,5,2
256,352,42764,1,2
400,320,43083,1,6
256,192,43163,12,2,45001
