osu file format v12

[General]
AudioFilename: smileR - Melody Line - ft. Hatsune Miku.mp3
AudioLeadIn: 0
PreviewTime: 89766
Countdown: 0
SampleSet: Normal
StackLeniency: 0.7
Mode: 0
LetterboxInBreaks: 1
WidescreenStoryboard: 1

[Editor]
Bookmarks: 97097
DistanceSpacing: 1.2
BeatDivisor: 4
GridSize: 8
TimelineZoom: 1

[Metadata]
Title:Melody Line
TitleUnicode:Melody Line
Artist:SmileR feat. Hatsune Miku
ArtistUnicode:SmileR feat. 初音ミク
Creator:Kerocchi
Version:Normal
Source:
Tags:vocaloid hatsune miku smiler
BeatmapID:186485
BeatmapSetID:62999

[Difficulty]
HPDrainRate:5
CircleSize:3
OverallDifficulty:5
ApproachRate:5
SliderMultiplier:1.2
SliderTickRate:2

[Events]
//Background and Video events
Video,-215,"ML.avi"
0,0,"meldoy-line-wallosu.png",0,0
//Break Periods
2,29050,29940
2,89966,95895
2,163248,169177
//Storyboard Layer 0 (Background)
//Storyboard Layer 1 (Fail)
//Storyboard Layer 2 (Pass)
//Storyboard Layer 3 (Foreground)
//Storyboard Sound Samples
//Background Colour Transformations
3,100,0,0,0

[TimingPoints]
1828,458.015267175573,4,2,1,95,1,0
9156,-100,4,1,1,85,0,1
9614,-100,4,1,1,85,0,0
60453,-100,4,1,1,85,0,1
74881,-100,4,1,1,85,0,0
75110,-100,4,1,1,85,0,1
89765,-100,4,1,1,85,0,0
104425,-100,4,1,1,85,0,0
133735,-100,4,1,1,85,0,1
148163,-100,4,1,1,85,0,0
148392,-100,4,1,1,85,0,1
163048,-100,4,1,1,85,0,0
192366,-100,4,1,1,85,0,0

[Colours]
Combo1 : 32,32,32
Combo2 : 0,108,217
Combo3 : 255,255,0
Combo4 : 255,0,128
Combo5 : 64,125,162
Combo6 : 24,201,100

[HitObjects]
256,192,1827,53,2,0:0:0:0:
256,96,3660,1,2,0:0:0:0:
144,248,5492,1,2,0:0:0:0:
360,248,7324,1,2,0:0:0:0:
256,120,9156,53,4,0:0:0:0:
352,192,9614,1,8,0:0:0:0:
256,272,10072,1,0,0:0:0:0:
160,192,10530,1,8,0:0:0:0:
256,272,10988,1,0,0:0:0:0:
352,192,11446,1,8,0:0:0:0:
256,120,11904,1,0,0:0:0:0:
160,192,12362,1,8,0:0:0:0:
256,264,12820,22,0,P|336:272|376:256,1,120,0|8,0:0|0:0,0:0:0:0:
296,168,13736,2,0,P|216:160|176:176,1,120,0|8,0:0|0:0,0:0:0:0:
96,256,14652,1,0,0:0:0:0:
208,304,15110,1,8,0:0:0:0:
320,256,15568,1,0,0:0:0:0:
0,88,16942,54,8,P|40:48|104:48,2,120,0|0|8,0:0|0:0|0:0,0:0:0:0:
96,160,18316,1,0,0:0:0:0:
200,96,18774,1,8,0:0:0:0:
304,40,19232,1,0,0:0:0:0:
352,72,19461,1,0,0:0:0:0:
408,40,19690,2,0,P|448:88|440:144,1,120,8|0,0:0|0:0,0:0:0:0:
408,192,20377,53,0,0:0:0:0:
408,192,20606,2,0,P|320:184|288:192,2,120,0|0|8,0:0|0:0|0:0,0:0:0:0:
408,312,21980,2,0,P|376:320|344:312,2,60,0|0|8,0:0|0:0|0:0,0:0:0:0:
408,192,22896,2,0,P|376:184|336:200,2,60,0|0|8,0:0|0:0|0:0,0:0:0:0:
312,120,23812,5,4,0:0:0:0:
208,64,24270,1,0,0:0:0:0:
104,120,24728,2,0,P|72:160|72:232,1,120,0|8,0:0|0:0,0:0:0:0:
184,192,25644,2,0,P|256:168|296:184,1,120,0|8,0:0|0:0,0:0:0:0:
368,280,26560,2,0,P|320:312|240:312,1,120,0|8,0:0|0:0,0:0:0:0:
160,256,27476,6,0,B|176:176|176:176|208:176|280:128,2,180,0|0|8,0:0|0:0|0:0,0:0:0:0:
248,64,31140,22,0,P|168:80|176:176,1,180,4|0,0:0|0:0,0:0:0:0:
192,216,32057,2,0,P|232:264|200:312,1,120,0|8,0:0|0:0,0:0:0:0:
152,336,32744,1,0,0:0:0:0:
96,312,32973,2,0,P|72:256|112:216,1,120
136,104,33889,2,0,B|176:112|224:88|264:112,1,120,0|8,0:0|0:0,0:0:0:0:
376,88,34805,38,0,P|432:168|400:240,2,180,0|0|8,0:0|0:0|0:0,0:0:0:0:
256,72,36637,1,0,0:0:0:0:
200,104,36866,1,0,0:0:0:0:
152,72,37095,1,8,0:0:0:0:
32,96,37553,2,0,P|8:128|16:152,1,60
48,192,38011,2,0,P|112:232|120:272,1,120,8|4,0:0|0:0,0:0:0:0:
232,304,38927,5,8,0:0:0:0:
336,248,39385,2,0,L|384:288,2,60,0|0|8,0:0|0:0|0:0,0:0:0:0:
280,144,40301,1,0,0:0:0:0:
184,208,40759,2,0,P|120:216|96:264,2,120,8|0|0,0:0|0:0|0:0,0:0:0:0:
168,88,42133,2,0,P|88:96|16:160,2,180,0|0|8,0:0|0:0|0:0,0:0:0:0:
368,72,45339,5,0,0:0:0:0:
328,112,45568,1,0,0:0:0:0:
376,152,45797,2,0,B|416:216|400:280|368:320,1,180
312,344,46713,2,0,P|216:352|192:344,1,120,0|8,0:0|0:0,0:0:0:0:
88,296,47629,2,0,P|48:240|56:192,1,120,0|8,0:0|0:0,0:0:0:0:
80,136,48316,1,0,0:0:0:0:
112,88,48545,2,0,P|168:48|224:40,1,120,0|8,0:0|0:0,0:0:0:0:
224,96,49232,53,0,0:0:0:0:
248,152,49461,2,0,P|232:216|192:248,2,120,0|8|0,0:0|0:0|0:0,0:0:0:0:
360,104,50835,1,8,0:0:0:0:
344,224,51293,1,0,0:0:0:0:
248,152,51751,2,0,P|208:168|184:160,2,60,8|0|0,0:0|0:0|0:0,0:0:0:0:
192,48,52667,5,8,0:0:0:0:
136,40,52896,1,0,0:0:0:0:
80,48,53125,2,0,P|-16:88|-8:152,1,180,4|0,0:0|0:0,0:0:0:0:
32,192,54041,2,0,P|96:208|160:184,1,120,0|8,0:0|0:0,0:0:0:0:
208,88,54957,37,0,0:0:0:0:
312,32,55415,2,0,P|328:104|312:152,2,120,8|0|8,0:0|0:0|0:0,0:0:0:0:
208,88,56789,21,0,0:0:0:0:
184,144,57018,1,0,0:0:0:0:
208,200,57247,1,8,0:0:0:0:
328,200,57705,2,0,P|336:128|320:80,1,120,0|8,0:0|0:0,0:0:0:0:
256,192,58392,12,4,60453,0:0:0:0:
176,128,60911,6,0,L|240:128,2,60,8|0|0,0:0|0:0|0:0,0:0:0:0:
88,48,61828,2,0,P|48:144|96:224,2,180,0|0|0,0:0|0:0|0:0,0:0:0:0:
208,40,63660,2,0,P|280:32|328:48,1,120,8|0,0:0|0:0,0:0:0:0:
368,88,64347,1,0,0:0:0:0:
392,144,64576,53,8,0:0:0:0:
368,200,64805,1,0,0:0:0:0:
400,248,65034,2,0,L|448:288,2,60,0|0|8,0:0|0:0|0:0,0:0:0:0:
368,296,65721,2,0,P|344:328|304:336,1,60
264,328,66179,2,0,P|232:304|176:312,1,60,0|8,0:0|0:0,0:0:0:0:
152,296,66637,2,0,P|112:240|128:136,1,180,0|8,0:0|0:0,0:0:0:0:
24,80,67782,6,0,P|136:32|192:40,2,180,4|0|8,0:0|0:0|0:0,0:0:0:0:
88,184,69614,1,0,0:0:0:0:
136,224,69843,1,0,0:0:0:0:
192,240,70072,2,0,P|256:248|312:216,1,120,8|0,0:0|0:0,0:0:0:0:
264,176,70759,6,0,P|352:144|432:176,1,180
416,232,71675,1,0,0:0:0:0:
376,272,71904,1,8,0:0:0:0:
320,288,72133,1,0,0:0:0:0:
208,256,72591,2,0,P|152:248|144:240,2,60,0|8|0,0:0|0:0|0:0,0:0:0:0:
256,192,73278,12,4,75110,0:0:0:0:
96,272,75568,38,0,P|144:224|192:208,1,120,8|0,0:0|0:0,0:0:0:0:
256,112,76484,1,8,0:0:0:0:
296,160,76713,1,0,0:0:0:0:
240,176,76942,2,0,P|304:232|352:216,1,120,0|8,0:0|0:0,0:0:0:0:
384,192,77629,2,0,B|440:240|408:344|352:336,1,180,0|8,0:0|0:0,0:0:0:0:
358,336,78774,1,0,0:0:0:0:
248,288,79232,6,0,P|288:240|272:184,1,120,8|0,0:0|0:0,0:0:0:0:
296,128,79919,2,0,L|336:80,2,60,0|8|0,0:0|0:0|0:0,0:0:0:0:
248,96,80606,1,0,0:0:0:0:
208,48,80835,2,0,P|176:32|144:32,1,60,0|8,0:0|0:0,0:0:0:0:
96,48,81293,2,0,P|48:112|80:200,1,180,0|8,0:0|0:0,0:0:0:0:
160,128,82438,1,4,0:0:0:0:
256,200,82896,6,0,P|288:144|336:112,1,120
392,104,83583,2,0,L|424:176,1,60,0|8,0:0|0:0,0:0:0:0:
416,280,84270,1,0,0:0:0:0:
360,256,84499,1,0,0:0:0:0:
304,280,84728,2,0,P|264:280|232:256,1,60,8|0,0:0|0:0,0:0:0:0:
128,256,85415,6,0,P|104:296|64:288,2,60,0|8|0,0:0|0:0|0:0,0:0:0:0:
80,216,86102,2,0,P|40:192|48:120,1,120,0|8,0:0|0:0,0:0:0:0:
80,80,86789,1,0,0:0:0:0:
128,48,87018,2,0,P|208:16|248:24,1,120,0|8,0:0|0:0,0:0:0:0:
296,32,87705,1,0,0:0:0:0:
256,192,87934,12,4,89766,0:0:0:0:
80,112,97095,70,0,P|144:56|248:56,2,180,4|0|0,0:0|0:0|0:0,0:0:0:0:
80,168,98698,1,0,0:0:0:0:
112,216,98927,2,0,P|184:272|208:264,2,120
208,144,100301,1,0,0:0:0:0:
264,120,100530,1,0,0:0:0:0:
320,144,100759,38,0,P|384:168|392:224,1,120
320,304,101675,1,0,0:0:0:0:
216,248,102133,1,0,0:0:0:0:
112,304,102591,2,0,P|64:224|72:192,2,120
152,192,103965,2,0,P|160:120|128:80,1,120,0|4,0:0|0:0,0:0:0:0:
248,120,104881,21,0,0:0:0:0:
344,192,105339,2,0,P|304:152|336:96,1,120,0|8,0:0|0:0,0:0:0:0:
384,72,106026,1,0,0:0:0:0:
440,104,106255,2,0,P|464:160|424:200,1,120,0|8,0:0|0:0,0:0:0:0:
384,312,107171,2,0,B|344:304|296:328|256:304,1,120,0|8,0:0|0:0,0:0:0:0:
144,296,108087,6,0,P|88:216|120:144,2,180,0|0|8,0:0|0:0|0:0,0:0:0:0:
264,312,109919,1,0,0:0:0:0:
312,280,110148,1,0,0:0:0:0:
360,312,110377,1,8,0:0:0:0:
480,288,110835,2,0,P|504:256|496:232,1,60
464,192,111293,2,0,P|400:152|392:112,1,120,8|4,0:0|0:0,0:0:0:0:
280,80,112209,5,8,0:0:0:0:
240,128,112438,1,0,0:0:0:0:
176,136,112667,2,0,L|128:96,2,60,0|0|8,0:0|0:0|0:0,0:0:0:0:
232,240,113583,21,0,0:0:0:0:
288,232,113812,1,0,0:0:0:0:
328,176,114041,2,0,P|392:168|416:120,2,120,8|0|8,0:0|0:0|0:0,0:0:0:0:
360,232,115186,1,0,0:0:0:0:
336,288,115415,2,0,P|256:280|152:312,2,180,0|0|8,0:0|0:0|0:0,0:0:0:0:
144,312,118621,69,0,0:0:0:0:
184,272,118850,1,0,0:0:0:0:
136,232,119079,2,0,B|96:168|112:104|144:64,1,180,4|0,0:0|0:0,0:0:0:0:
200,40,119995,2,0,P|296:32|320:40,1,120,0|8,0:0|0:0,0:0:0:0:
376,40,120682,1,0,0:0:0:0:
424,88,120911,2,0,P|464:144|456:192,1,120,0|8,0:0|0:0,0:0:0:0:
432,248,121598,1,0,0:0:0:0:
400,296,121827,2,0,P|344:336|288:344,1,120,0|8,0:0|0:0,0:0:0:0:
288,288,122514,21,0,0:0:0:0:
264,232,122743,2,0,P|280:168|320:136,2,120,0|8|0,0:0|0:0|0:0,0:0:0:0:
152,280,124117,1,8,0:0:0:0:
168,160,124575,1,0,0:0:0:0:
224,184,124805,1,0,0:0:0:0:
264,232,125033,2,0,P|304:216|328:224,2,60,8|0|0,0:0|0:0|0:0,0:0:0:0:
320,336,125949,5,8,0:0:0:0:
376,344,126178,1,0,0:0:0:0:
432,336,126407,2,0,P|528:296|520:232,1,180,4|0,0:0|0:0,0:0:0:0:
480,192,127323,2,0,P|416:176|352:200,1,120,0|8,0:0|0:0,0:0:0:0:
304,296,128239,5,0,0:0:0:0:
264,344,128469,1,0,0:0:0:0:
200,352,128697,2,0,P|184:280|200:232,2,120,8|0|8,0:0|0:0|0:0,0:0:0:0:
304,296,130071,37,0,0:0:0:0:
328,240,130300,1,0,0:0:0:0:
304,184,130529,1,8,0:0:0:0:
248,160,130759,1,0,0:0:0:0:
192,176,130987,2,0,P|184:248|200:296,1,120,0|8,0:0|0:0,0:0:0:0:
256,192,131674,12,4,133735,0:0:0:0:
336,256,134193,54,0,L|272:256,2,60,8|0|0,0:0|0:0|0:0,0:0:0:0:
424,336,135110,2,0,P|464:240|416:160,2,180,8|0|0,0:0|0:0|0:0,0:0:0:0:
304,344,136942,2,0,P|232:352|184:336,1,120,8|0,0:0|0:0,0:0:0:0:
144,296,137629,1,0,0:0:0:0:
120,240,137858,69,8,0:0:0:0:
144,184,138087,1,0,0:0:0:0:
112,136,138316,2,0,L|64:96,2,60,0|0|8,0:0|0:0|0:0,0:0:0:0:
144,88,139003,2,0,P|168:56|208:48,1,60
248,56,139461,2,0,P|280:80|336:72,1,60,0|8,0:0|0:0,0:0:0:0:
360,88,139919,2,0,P|400:144|384:248,1,180,0|8,0:0|0:0,0:0:0:0:
488,304,141064,70,0,P|376:352|320:344,2,180,4|0|8,0:0|0:0|0:0,0:0:0:0:
424,200,142896,1,0,0:0:0:0:
376,160,143125,1,0,0:0:0:0:
320,144,143354,2,0,P|256:136|200:168,1,120,8|0,0:0|0:0,0:0:0:0:
248,208,144041,6,0,P|160:240|80:208,1,180
96,152,144957,1,0,0:0:0:0:
136,112,145186,1,8,0:0:0:0:
192,96,145415,1,0,0:0:0:0:
304,128,145873,2,0,P|360:136|368:144,2,60,0|8|0,0:0|0:0|0:0,0:0:0:0:
256,192,146560,12,4,148392,0:0:0:0:
416,112,148850,6,0,P|368:160|320:176,1,120,8|0,0:0|0:0,0:0:0:0:
256,272,149766,1,8,0:0:0:0:
216,224,149995,1,0,0:0:0:0:
272,208,150224,2,0,P|208:152|160:168,1,120,0|8,0:0|0:0,0:0:0:0:
128,192,150911,2,0,B|72:144|104:40|160:48,1,180,0|8,0:0|0:0,0:0:0:0:
154,48,152056,1,0,0:0:0:0:
264,96,152514,54,0,P|224:144|240:200,1,120,8|0,0:0|0:0,0:0:0:0:
216,256,153201,2,0,L|176:304,2,60,0|8|0,0:0|0:0|0:0,0:0:0:0:
264,288,153888,1,0,0:0:0:0:
304,336,154117,2,0,P|336:352|368:352,1,60,0|8,0:0|0:0,0:0:0:0:
416,336,154575,2,0,P|464:272|432:184,1,180,0|8,0:0|0:0,0:0:0:0:
352,256,155720,1,4,0:0:0:0:
256,184,156178,6,0,P|224:240|176:272,1,120
120,280,156865,2,0,L|88:208,1,60,0|8,0:0|0:0,0:0:0:0:
96,104,157552,1,0,0:0:0:0:
152,128,157781,1,0,0:0:0:0:
208,104,158010,2,0,P|248:104|280:128,1,60,8|0,0:0|0:0,0:0:0:0:
384,128,158697,6,0,P|408:88|448:96,2,60,0|8|0,0:0|0:0|0:0,0:0:0:0:
432,168,159384,2,0,P|472:192|464:264,1,120,0|8,0:0|0:0,0:0:0:0:
432,304,160071,1,0,0:0:0:0:
384,336,160300,2,0,P|304:368|264:360,1,120,0|8,0:0|0:0,0:0:0:0:
216,352,160987,1,0,0:0:0:0:
256,192,161216,12,4,163048,0:0:0:0:
432,272,170377,70,0,P|368:328|264:328,2,180,4|0|8,0:0|0:0|0:0,0:0:0:0:
432,216,171980,1,0,0:0:0:0:
400,168,172209,2,0,P|328:112|304:120,2,120,0|8|0,0:0|0:0|0:0,0:0:0:0:
304,240,173583,1,8,0:0:0:0:
248,264,173812,1,0,0:0:0:0:
192,240,174041,6,0,P|128:216|120:160,1,120,0|8,0:0|0:0,0:0:0:0:
144,120,174728,1,0,0:0:0:0:
200,120,174957,2,0,P|240:120|264:104,1,60
304,80,175415,1,8,0:0:0:0:
256,192,175873,12,4,177705,0:0:0:0:
112,136,178621,22,0,L|112:200,2,60,0|0|8,0:0|0:0|0:0,0:0:0:0:
152,96,179308,1,0,0:0:0:0:
192,136,179537,2,0,B|304:168|376:128,1,180
392,80,180453,2,0,P|432:144|408:184,2,120,0|8|0,0:0|0:0|0:0,0:0:0:0:
280,120,181828,21,8,0:0:0:0:
160,96,182286,1,0,0:0:0:0:
104,88,182515,1,0,0:0:0:0:
56,120,182744,1,8,0:0:0:0:
80,240,183202,2,0,P|152:248|272:232,2,180,0|0|8,0:0|0:0|0:0,0:0:0:0:
80,240,185034,5,4,0:0:0:0:
168,320,185492,2,0,P|216:240|208:208,1,120,8|0,0:0|0:0,0:0:0:0:
176,168,186179,1,0,0:0:0:0:
144,120,186408,2,0,L|96:64,2,60,8|0|0,0:0|0:0|0:0,0:0:0:0:
232,200,187324,38,0,P|296:224|344:200,1,120,8|0,0:0|0:0,0:0:0:0:
392,176,188011,1,0,0:0:0:0:
440,144,188240,1,8,0:0:0:0:
472,96,188469,1,0,0:0:0:0:
464,40,188698,54,0,P|408:16|336:32,1,120,0|8,0:0|0:0,0:0:0:0:
312,64,189385,2,0,P|280:80|240:72,1,60
200,56,189843,2,0,P|168:48|136:64,1,60,0|8,0:0|0:0,0:0:0:0:
256,192,190530,12,4,192362,0:0:0:0:
