osu file format v12

[General]
AudioFilename: smileR - Melody Line - ft. Hatsune Miku.mp3
AudioLeadIn: 0
PreviewTime: 89766
Countdown: 0
SampleSet: Normal
StackLeniency: 0.7
Mode: 0
LetterboxInBreaks: 1
WidescreenStoryboard: 1

[Editor]
Bookmarks: 162362
DistanceSpacing: 1.2
BeatDivisor: 4
GridSize: 8
TimelineZoom: 1

[Metadata]
Title:Melody Line
TitleUnicode:Melody Line
Artist:SmileR feat. Hatsune Miku
ArtistUnicode:SmileR feat. 初音ミク
Creator:Kerocchi
Version:Hard
Source:
Tags:vocaloid hatsune miku smiler
BeatmapID:186484
BeatmapSetID:62999

[Difficulty]
HPDrainRate:6
CircleSize:4
OverallDifficulty:6
ApproachRate:8
SliderMultiplier:1.6
SliderTickRate:2

[Events]
//Background and Video events
Video,-193,"ML.avi"
0,0,"meldoy-line-wallosu.png",0,0
//Break Periods
2,43707,44589
2,104623,116497
//Storyboard Layer 0 (Background)
//Storyboard Layer 1 (Fail)
//Storyboard Layer 2 (Pass)
//Storyboard Layer 3 (Foreground)
//Storyboard Sound Samples
//Background Colour Transformations
3,100,0,0,0

[TimingPoints]
1828,458.015267175573,4,2,1,95,1,0
9156,-100,4,1,1,90,0,1
16484,-100,4,1,1,90,0,0
60453,-100,4,1,1,90,0,1
74881,-100,4,1,1,90,0,0
75110,-100,4,1,1,90,0,1
89765,-100,4,1,1,90,0,0
104425,-100,4,1,1,90,0,0
133735,-100,4,1,1,90,0,1
148163,-100,4,1,1,90,0,0
148392,-100,4,1,1,90,0,1
163049,-100,4,1,1,90,0,0
177705,-100,4,1,1,90,0,1
192362,-100,4,1,1,90,0,0
192366,-100,4,1,1,90,0,0

[Colours]
Combo1 : 255,255,0
Combo2 : 0,86,230

[HitObjects]
256,192,1828,6,0,P|296:152|376:128,2,120,2|0|0,0:0|0:0|0:0,0:0:0:0:
352,216,2744,2,0,P|328:256|296:272,1,80,0|0,0:0|0:0,0:0:0:0:
208,288,3202,1,0,0:0:0:0:
208,288,3316,1,0,0:0:0:0:
216,192,3545,1,0,0:0:0:0:
216,192,3660,6,0,P|144:200|104:224,2,120,2|0|0,0:0|0:0|0:0,0:0:0:0:
184,280,4576,1,0,0:0:0:0:
256,344,4805,1,0,0:0:0:0:
328,280,5034,1,0,0:0:0:0:
256,216,5263,1,0,0:0:0:0:
184,280,5492,6,0,P|160:192|200:152,1,120,2|0,0:0|0:0,0:0:0:0:
192,128,5950,2,0,L|272:128,1,80,0|0,0:0|0:0,0:0:0:0:
344,72,6408,2,0,P|368:120|344:152,2,80,0|0|0,0:0|0:0|0:0,0:0:0:0:
344,72,6980,1,0,0:0:0:0:
256,120,7209,1,0,0:0:0:0:
256,120,7324,5,2,0:0:0:0:
184,248,7667,1,0,0:0:0:0:
328,248,8011,1,0,0:0:0:0:
312,56,8469,2,0,P|240:40|192:56,2,120,0|0|4,0:0|0:0|0:0,0:0:0:0:
392,112,9385,5,0,0:0:0:0:
424,200,9614,2,0,P|400:280|336:320,1,160,8|0,0:0|0:0,0:0:0:0:
240,336,10301,1,0,0:0:0:0:
152,304,10530,2,0,P|80:248|88:232,1,120,8|0,0:0|0:0,0:0:0:0:
104,200,10988,6,0,L|104:136|104:80,2,120,0|0|0,0:0|0:0|0:0,0:0:0:0:
32,144,11904,1,0,0:0:0:0:
104,80,12133,1,0,0:0:0:0:
176,144,12362,1,8,0:0:0:0:
104,200,12591,1,0,0:0:0:0:
104,200,12820,6,0,P|112:288|136:296,1,120,0|0,0:0|0:0,0:0:0:0:
176,312,13278,2,0,L|264:288,1,80,8|0,0:0|0:0,0:0:0:0:
328,232,13736,1,0,0:0:0:0:
288,144,13965,1,0,0:0:0:0:
232,216,14194,1,8,0:0:0:0:
232,216,14308,1,0,0:0:0:0:
328,232,14537,1,0,0:0:0:0:
328,232,14652,6,0,P|384:200|408:136,2,120,0|0|0,0:0|0:0|0:0,0:0:0:0:
256,192,15568,12,4,16484,0:0:0:0:
376,80,16713,5,0,0:0:0:0:
288,40,16942,2,0,P|168:40|128:64,1,160,0|0,0:0|0:0,0:0:0:0:
72,128,17629,1,0,0:0:0:0:
40,216,17858,1,8,0:0:0:0:
88,296,18087,1,0,0:0:0:0:
168,344,18316,6,0,P|240:352|328:328,1,160,0|8,0:0|0:0,0:0:0:0:
408,288,19003,1,0,0:0:0:0:
448,200,19232,2,0,L|376:136,2,80,0|0|8,0:0|0:0|0:0,0:0:0:0:
256,192,20148,6,0,P|208:248|120:248,1,160,0|0,0:0|0:0,0:0:0:0:
56,184,20835,1,0,0:0:0:0:
96,104,21064,2,0,P|200:88|256:120,1,160,0|8,0:0|0:0,0:0:0:0:
168,168,21751,1,0,0:0:0:0:
80,200,21980,2,0,L|136:272,1,80,0|0,0:0|0:0,0:0:0:0:
72,336,22438,2,0,P|176:336|216:296,1,160,8|0,0:0|0:0,0:0:0:0:
240,208,23125,2,0,L|312:168,1,80,0|8,0:0|0:0,0:0:0:0:
472,64,23812,6,0,B|424:80|424:80|416:128|392:136|392:136|344:152,1,160,4|0,0:0|0:0,0:0:0:0:
256,136,24499,1,0,0:0:0:0:
304,56,24728,2,0,P|192:64|168:96,1,160,0|8,0:0|0:0,0:0:0:0:
144,184,25415,1,0,0:0:0:0:
96,104,25644,2,0,P|72:72|32:56,2,80,0|0|8,0:0|0:0|0:0,0:0:0:0:
144,184,26331,1,0,0:0:0:0:
96,272,26560,2,0,P|72:304|32:320,2,80,0|0|8,0:0|0:0|0:0,0:0:0:0:
144,184,27247,1,0,0:0:0:0:
240,184,27476,2,0,B|272:184|272:184|320:208|360:184|360:184|408:184,1,160,0|0,0:0|0:0,0:0:0:0:
432,96,28163,2,0,P|496:184|424:280,1,240,0|8,0:0|0:0,0:0:0:0:
256,192,29308,5,0,0:0:0:0:
184,128,29537,1,0,0:0:0:0:
168,224,29766,1,0,0:0:0:0:
256,192,29995,1,0,0:0:0:0:
240,288,30224,1,0,0:0:0:0:
168,224,30453,1,0,0:0:0:0:
256,192,30682,1,0,0:0:0:0:
256,192,30911,1,0,0:0:0:0:
256,192,31026,1,0,0:0:0:0:
256,192,31140,6,0,P|296:232|320:240,1,80,4|0,0:0|0:0,0:0:0:0:
392,184,31598,2,0,P|416:240|360:312,1,160,0|0,0:0|0:0,0:0:0:0:
264,336,32286,1,0,0:0:0:0:
208,256,32515,1,8,0:0:0:0:
128,312,32744,1,0,0:0:0:0:
72,232,32973,2,0,P|88:160|168:112,1,160,0|0,0:0|0:0,0:0:0:0:
256,120,33660,1,0,0:0:0:0:
192,192,33889,2,0,B|200:240|200:240|248:264|240:296|240:320|240:320|240:352,1,160,0|8,0:0|0:0,0:0:0:0:
424,280,34805,6,0,B|392:232|384:184|384:184|376:152|448:144|448:144|472:96,2,240,0|0|8,0:0|0:0|0:0,0:0:0:0:
344,328,36408,1,0,0:0:0:0:
256,280,36637,2,0,B|208:304|168:312,1,80,0|0,0:0|0:0,0:0:0:0:
96,360,37095,2,0,B|48:272|136:224|136:224,1,160,8|0,0:0|0:0,0:0:0:0:
224,176,37782,2,0,L|176:112,1,80,0|8,0:0|0:0,0:0:0:0:
368,80,38469,6,0,P|320:136|336:216,1,160,4|8,0:0|0:0,0:0:0:0:
416,168,39156,1,0,0:0:0:0:
512,152,39385,2,0,P|488:248|432:264,1,160,0|8,0:0|0:0,0:0:0:0:
416,168,40072,1,0,0:0:0:0:
416,168,40301,6,0,B|360:136|312:128|312:128|272:176|272:176,1,160,0|8,0:0|0:0,0:0:0:0:
192,120,40988,2,0,P|176:160|168:200,1,80,0|0,0:0|0:0,0:0:0:0:
224,272,41446,1,0,0:0:0:0:
312,232,41675,1,0,0:0:0:0:
296,136,41904,1,0,0:0:0:0:
336,48,42133,2,0,P|376:72|376:120,1,80,0|0,0:0|0:0,0:0:0:0:
296,136,42591,1,0,0:0:0:0:
312,232,42820,2,0,B|288:280|256:288|256:288|208:264|208:264|144:264|128:328,1,240,0|8,0:0|0:0,0:0:0:0:
160,56,45339,5,0,0:0:0:0:
240,112,45568,1,0,0:0:0:0:
152,144,45797,2,0,P|200:208|280:200,1,160,0|0,0:0|0:0,0:0:0:0:
360,168,46484,1,0,0:0:0:0:
392,80,46713,2,0,P|448:136|448:216,1,160,0|8,0:0|0:0,0:0:0:0:
368,264,47400,1,0,0:0:0:0:
280,224,47629,5,0,0:0:0:0:
360,168,47858,1,0,0:0:0:0:
368,264,48087,2,0,P|323:283|305:314,1,80,8|0,0:0|0:0,0:0:0:0:
400,344,48545,2,0,L|280:232,1,160,0|8,0:0|0:0,0:0:0:0:
192,264,49232,1,0,0:0:0:0:
104,232,49461,6,0,B|128:168|184:168|184:168|240:136,3,160,0|8|0|8,0:0|0:0|0:0|0:0,0:0:0:0:
320,168,51064,2,0,P|288:72|240:56,1,160,0|0,0:0|0:0,0:0:0:0:
144,80,51751,1,8,0:0:0:0:
216,144,51980,2,0,L|280:88,1,80,0|0,0:0|0:0,0:0:0:0:
392,248,52667,6,0,P|336:240|304:248,1,80,8|0,0:0|0:0,0:0:0:0:
368,328,53125,2,0,P|240:344|208:328,1,160,4|0,0:0|0:0,0:0:0:0:
136,280,53812,1,0,0:0:0:0:
40,264,54041,2,0,P|89:181|147:183,1,160,0|8,0:0|0:0,0:0:0:0:
224,232,54728,1,0,0:0:0:0:
304,280,54957,5,0,0:0:0:0:
384,232,55186,1,0,0:0:0:0:
384,136,55415,1,8,0:0:0:0:
304,88,55644,1,0,0:0:0:0:
224,136,55873,2,0,P|176:200|88:208,1,160,0|8,0:0|0:0,0:0:0:0:
128,120,56560,1,0,0:0:0:0:
128,120,56789,6,0,L|216:264,1,160,0|8,0:0|0:0,0:0:0:0:
304,272,57476,1,0,0:0:0:0:
392,240,57705,2,0,B|432:168|368:144|368:144|352:104,1,160,0|8,0:0|0:0,0:0:0:0:
256,192,58392,12,4,60453,0:0:0:0:
80,160,60682,5,0,0:0:0:0:
160,104,60911,2,0,L|240:80,1,80,8|0,0:0|0:0,0:0:0:0:
304,152,61369,2,0,L|128:208,1,160,0|0,0:0|0:0,0:0:0:0:
72,256,62057,1,0,0:0:0:0:
144,312,62286,1,0,0:0:0:0:
216,248,62515,2,0,P|256:224|304:224,1,80,0|0,0:0|0:0,0:0:0:0:
296,312,62973,2,0,P|368:288|456:152,1,240,0|8,0:0|0:0,0:0:0:0:
176,80,64347,5,0,0:0:0:0:
88,128,64576,2,0,L|160:176,2,80,8|0|0,0:0|0:0|0:0,0:0:0:0:
88,224,65263,2,0,L|16:176,2,80,0|8|0,0:0|0:0|0:0,0:0:0:0:
24,296,65950,2,0,P|72:320|104:320,1,80,0|0,0:0|0:0,0:0:0:0:
184,272,66408,1,8,0:0:0:0:
192,176,66637,1,0,0:0:0:0:
104,128,66866,1,0,0:0:0:0:
88,224,67095,2,0,P|56:288|176:352,1,240,0|4,0:0|0:0,0:0:0:0:
264,320,68011,6,0,P|312:280|336:280,1,80,0|0,0:0|0:0,0:0:0:0:
384,360,68469,2,0,P|432:312|432:296,1,80,0|0,0:0|0:0,0:0:0:0:
464,216,68927,1,0,0:0:0:0:
440,120,69156,2,0,P|376:56|304:48,1,160,8|0,0:0|0:0,0:0:0:0:
216,56,69843,1,0,0:0:0:0:
128,88,70072,2,0,B|24:96|8:184,1,160,8|0,0:0|0:0,0:0:0:0:
104,184,70759,5,0,0:0:0:0:
176,240,70988,1,0,0:0:0:0:
256,184,71217,2,0,B|312:120|376:184|376:184|400:184,1,160,0|0,0:0|0:0,0:0:0:0:
464,248,71904,1,8,0:0:0:0:
384,304,72133,2,0,P|320:336|224:336,1,160,0|0,0:0|0:0,0:0:0:0:
144,296,72820,1,8,0:0:0:0:
64,240,73049,1,0,0:0:0:0:
256,192,73278,12,4,75110,0:0:0:0:
400,88,75339,5,0,0:0:0:0:
456,168,75568,2,0,P|448:232|424:248,2,80,8|0|0,0:0|0:0|0:0,0:0:0:0:
400,88,76255,1,0,0:0:0:0:
312,56,76484,2,0,P|248:64|232:72,1,80,8|0,0:0|0:0,0:0:0:0:
168,136,76942,2,0,P|128:152|72:144,2,80,0|0|8,0:0|0:0|0:0,0:0:0:0:
120,56,77629,2,0,P|32:80|0:136,1,160,0|0,0:0|0:0,0:0:0:0:
96,144,78316,2,0,P|96:200|80:224,1,80,8|0,0:0|0:0,0:0:0:0:
84,219,78774,1,0,0:0:0:0:
104,312,79003,5,0,0:0:0:0:
192,344,79232,2,0,P|264:360|288:352,2,80,8|0|0,0:0|0:0|0:0,0:0:0:0:
264,280,79919,2,0,P|320:280|368:296,2,80,0|8|0,0:0|0:0|0:0,0:0:0:0:
176,248,80606,2,0,P|168:176|208:96,1,160,0|8,0:0|0:0,0:0:0:0:
288,48,81293,2,0,P|328:40|384:40,1,80,0|0,0:0|0:0,0:0:0:0:
440,96,81751,1,0,0:0:0:0:
400,184,81980,1,8,0:0:0:0:
320,128,82209,1,0,0:0:0:0:
368,40,82438,6,0,P|264:24|208:48,1,160,4|0,0:0|0:0,0:0:0:0:
144,104,83125,1,0,0:0:0:0:
216,168,83354,2,0,L|144:216,1,80,0|0,0:0|0:0,0:0:0:0:
64,168,83812,2,0,P|32:248|64:312,1,160,8|0,0:0|0:0,0:0:0:0:
160,328,84499,2,0,L|248:352,2,80,0|8|0,0:0|0:0|0:0,0:0:0:0:
344,280,85415,5,0,0:0:0:0:
440,288,85644,2,0,L|480:216,1,80,8|0,0:0|0:0,0:0:0:0:
480,120,86102,2,0,B|488:72|440:24|384:48|384:48|288:48,2,240,0|0|8,0:0|0:0|0:0,0:0:0:0:
256,192,87934,12,4,89766,0:0:0:0:
312,304,90224,6,0,P|408:256|416:208,1,160,0|0,0:0|0:0,0:0:0:0:
368,128,90911,1,0,0:0:0:0:
296,192,91140,1,0,0:0:0:0:
384,224,91369,1,0,0:0:0:0:
368,128,91598,2,0,L|256:80,2,120,0|0|0,0:0|0:0|0:0,0:0:0:0:
280,168,92515,2,0,L|376:208,1,80,0|0,0:0|0:0,0:0:0:0:
272,256,92973,2,0,L|192:224,1,80,0|0,0:0|0:0,0:0:0:0:
112,280,93431,6,0,P|96:192|136:136,1,160,0|0,0:0|0:0,0:0:0:0:
133,137,94118,1,0,0:0:0:0:
224,96,94347,2,0,L|328:64,2,80,0|0|0,0:0|0:0|0:0,0:0:0:0:
192,232,95148,1,0,0:0:0:0:
192,232,95263,2,0,B|214:275|214:275|264:300|277:338|277:338,2,120,0|0|0,0:0|0:0|0:0,0:0:0:0:
248,152,96179,2,0,P|168:136|112:184,2,160,0|0|4,0:0|0:0|0:0,0:0:0:0:
328,208,97324,5,0,0:0:0:0:
416,176,97553,2,0,P|392:96|328:56,1,160,0|0,0:0|0:0,0:0:0:0:
232,48,98240,1,0,0:0:0:0:
144,80,98469,2,0,L|64:104,1,80,0|0,0:0|0:0,0:0:0:0:
104,192,98927,6,0,L|104:256|104:312,2,120,0|0|0,0:0|0:0|0:0,0:0:0:0:
32,256,99843,1,0,0:0:0:0:
104,312,100072,1,0,0:0:0:0:
176,256,100301,1,0,0:0:0:0:
104,192,100530,1,0,0:0:0:0:
104,192,100759,6,0,P|112:104|136:96,1,120,0|0,0:0|0:0,0:0:0:0:
176,80,101217,2,0,L|264:104,1,80,0|0,0:0|0:0,0:0:0:0:
336,152,101675,1,0,0:0:0:0:
296,240,101904,1,0,0:0:0:0:
224,176,102133,2,0,P|144:184|120:216,1,120,0|0,0:0|0:0,0:0:0:0:
152,248,102591,1,0,0:0:0:0:
256,344,102934,1,0,0:0:0:0:
360,248,103278,1,0,0:0:0:0:
256,192,103507,12,4,104423,0:0:0:0:
104,112,117247,5,0,0:0:0:0:
192,144,117476,1,0,0:0:0:0:
120,208,117705,1,0,0:0:0:0:
208,240,117934,1,0,0:0:0:0:
192,144,118163,1,0,0:0:0:0:
120,208,118392,1,0,0:0:0:0:
104,112,118621,1,0,0:0:0:0:
192,144,118850,1,0,0:0:0:0:
192,144,118965,1,0,0:0:0:0:
192,144,119079,6,0,P|208:64|280:48,1,160,4|0,0:0|0:0,0:0:0:0:
368,40,119766,1,0,0:0:0:0:
432,112,119995,2,0,P|400:168|456:232,1,160,0|8,0:0|0:0,0:0:0:0:
504,152,120682,2,0,L|352:208,1,160,0|0,0:0|0:0,0:0:0:0:
312,296,121369,2,0,P|248:256|240:240,1,80,8|0,0:0|0:0,0:0:0:0:
280,168,121828,2,0,P|192:144|128:168,1,160,0|8,0:0|0:0,0:0:0:0:
64,240,122515,1,0,0:0:0:0:
144,296,122744,6,0,B|200:288|200:288|216:256|272:248|272:248|304:264,2,160,0|8|0,0:0|0:0|0:0,0:0:0:0:
64,240,123889,1,0,0:0:0:0:
40,144,124118,2,0,P|120:96|192:96,1,160,8|0,0:0|0:0,0:0:0:0:
264,152,124805,2,0,P|312:160|352:152,1,80,0|0,0:0|0:0,0:0:0:0:
424,104,125263,2,0,L|480:168,1,80,0|0,0:0|0:0,0:0:0:0:
392,208,125721,2,0,L|328:272,2,80,0|0|0,0:0|0:0|0:0,0:0:0:0:
488,200,126408,6,0,P|440:128|368:112,1,160,4|0,0:0|0:0,0:0:0:0:
288,160,127095,1,0,0:0:0:0:
200,200,127324,2,0,P|104:208|40:176,1,160,0|8,0:0|0:0,0:0:0:0:
88,96,128011,1,0,0:0:0:0:
176,56,128240,1,0,0:0:0:0:
264,96,128469,1,0,0:0:0:0:
264,192,128698,1,8,0:0:0:0:
176,224,128927,1,0,0:0:0:0:
88,192,129156,6,0,P|72:288|120:328,1,160,0|8,0:0|0:0,0:0:0:0:
208,344,129843,1,0,0:0:0:0:
304,336,130072,2,0,P|368:328|392:312,2,80,0|0|0,0:0|0:0|0:0,0:0:0:0:
352,256,130759,2,0,P|400:240|440:248,2,80,0|0|0,0:0|0:0|0:0,0:0:0:0:
352,256,131446,1,8,0:0:0:0:
256,192,131675,12,4,133736,0:0:0:0:
112,296,133965,5,0,0:0:0:0:
56,216,134194,2,0,P|64:152|88:136,2,80,8|0|0,0:0|0:0|0:0,0:0:0:0:
112,296,134881,1,0,0:0:0:0:
200,328,135110,2,0,P|264:320|280:312,1,80,8|0,0:0|0:0,0:0:0:0:
344,248,135568,2,0,P|384:232|440:240,2,80,0|0|0,0:0|0:0|0:0,0:0:0:0:
392,328,136255,2,0,P|480:304|512:248,1,160,0|0,0:0|0:0,0:0:0:0:
416,240,136942,2,0,P|416:184|432:160,1,80,8|0,0:0|0:0,0:0:0:0:
428,165,137400,1,0,0:0:0:0:
408,72,137629,5,0,0:0:0:0:
320,40,137858,2,0,P|248:24|224:32,2,80,8|0|0,0:0|0:0|0:0,0:0:0:0:
248,104,138545,2,0,P|192:104|144:88,2,80,0|8|0,0:0|0:0|0:0,0:0:0:0:
336,136,139232,2,0,P|344:208|304:288,1,160,0|8,0:0|0:0,0:0:0:0:
224,336,139919,2,0,P|184:344|128:344,1,80,0|0,0:0|0:0,0:0:0:0:
72,288,140377,1,0,0:0:0:0:
112,200,140606,1,8,0:0:0:0:
192,256,140835,1,0,0:0:0:0:
144,344,141064,6,0,P|248:360|304:336,1,160,4|0,0:0|0:0,0:0:0:0:
368,280,141751,1,0,0:0:0:0:
296,216,141980,2,0,L|368:168,1,80,0|0,0:0|0:0,0:0:0:0:
448,216,142438,2,0,P|480:136|448:72,1,160,8|0,0:0|0:0,0:0:0:0:
352,56,143125,2,0,L|264:32,2,80,0|8|0,0:0|0:0|0:0,0:0:0:0:
352,56,143812,1,0,0:0:0:0:
408,136,144041,2,0,P|336:160|312:160,1,80,0|0,0:0|0:0,0:0:0:0:
240,136,144499,2,0,P|160:128|80:144,1,160,0|0,0:0|0:0,0:0:0:0:
0,176,145186,2,0,L|56:240,1,80,8|0,0:0|0:0,0:0:0:0:
248,240,145873,5,0,0:0:0:0:
320,176,146102,1,8,0:0:0:0:
224,152,146331,1,0,0:0:0:0:
256,192,146560,12,4,148392,0:0:0:0:
432,224,148621,5,0,0:0:0:0:
352,280,148850,2,0,L|272:304,1,80,8|0,0:0|0:0,0:0:0:0:
208,232,149308,2,0,L|384:176,1,160,0|8,0:0|0:0,0:0:0:0:
440,128,149996,1,0,0:0:0:0:
368,72,150225,1,0,0:0:0:0:
296,136,150454,2,0,P|256:160|208:160,1,80,0|8,0:0|0:0,0:0:0:0:
216,72,150912,2,0,P|144:96|96:240,1,240,0|8,0:0|0:0,0:0:0:0:
168,304,151828,1,0,0:0:0:0:
248,352,152057,1,0,0:0:0:0:
336,304,152286,5,0,0:0:0:0:
424,256,152515,2,0,L|352:208,2,80,8|0|0,0:0|0:0|0:0,0:0:0:0:
424,160,153202,2,0,L|496:208,2,80,0|8|0,0:0|0:0|0:0,0:0:0:0:
488,88,153889,2,0,P|440:64|408:64,1,80,0|0,0:0|0:0,0:0:0:0:
328,112,154347,1,8,0:0:0:0:
320,208,154576,1,0,0:0:0:0:
408,256,154805,1,0,0:0:0:0:
424,160,155034,2,0,P|456:96|336:32,1,240,0|0,0:0|0:0,0:0:0:0:
248,64,155950,6,0,P|200:104|176:104,1,80,0|0,0:0|0:0,0:0:0:0:
128,24,156408,2,0,P|80:72|80:88,1,80,0|0,0:0|0:0,0:0:0:0:
48,168,156866,1,0,0:0:0:0:
72,264,157095,2,0,P|136:328|208:336,1,160,8|0,0:0|0:0,0:0:0:0:
296,328,157782,1,0,0:0:0:0:
384,296,158011,2,0,B|488:288|504:200,1,160,8|0,0:0|0:0,0:0:0:0:
408,200,158698,5,0,0:0:0:0:
336,144,158927,1,8,0:0:0:0:
256,200,159156,1,0,0:0:0:0:
336,256,159385,2,0,B|264:320|192:256,1,160,0|8,0:0|0:0,0:0:0:0:
128,192,160072,1,0,0:0:0:0:
160,104,160301,2,0,P|224:72|320:72,1,160,0|8,0:0|0:0,0:0:0:0:
311,69,160988,1,0,0:0:0:0:
256,192,161217,12,0,162591,0:0:0:0:
152,64,163049,6,0,P|224:40|272:48,2,120,4|0|0,0:0|0:0|0:0,0:0:0:0:
88,136,163965,2,0,P|144:160|176:152,1,80,0|0,0:0|0:0,0:0:0:0:
248,112,164423,1,0,0:0:0:0:
344,136,164652,1,0,0:0:0:0:
432,96,164881,2,0,P|440:152|376:208,2,120,0|0|0,0:0|0:0|0:0,0:0:0:0:
344,48,165797,2,0,P|280:48|264:56,1,80,0|0,0:0|0:0,0:0:0:0:
192,120,166255,2,0,P|128:128|104:120,1,80,0|0,0:0|0:0,0:0:0:0:
56,48,166713,6,0,P|16:160|40:200,1,160,0|0,0:0|0:0,0:0:0:0:
112,240,167400,1,0,0:0:0:0:
208,256,167629,2,0,P|280:280|304:256,1,80,0|0,0:0|0:0,0:0:0:0:
368,256,168087,1,0,0:0:0:0:
368,256,168202,1,0,0:0:0:0:
288,200,168431,1,0,0:0:0:0:
288,200,168545,2,0,B|232:168|192:184|160:152,2,120,0|0|0,0:0|0:0|0:0,0:0:0:0:
376,168,169461,2,0,P|418:140|440:104,1,80,0|0,0:0|0:0,0:0:0:0:
472,24,169919,2,0,P|400:16|384:24,1,80,0|0,0:0|0:0,0:0:0:0:
304,56,170377,6,0,P|240:48|184:64,1,120,4|0,0:0|0:0,0:0:0:0:
184,208,171064,1,0,0:0:0:0:
256,272,171293,1,0,0:0:0:0:
328,208,171522,1,0,0:0:0:0:
256,144,171751,1,8,0:0:0:0:
184,208,171980,1,0,0:0:0:0:
256,272,172209,2,0,P|352:296|400:320,2,120,0|0|0,0:0|0:0|0:0,0:0:0:0:
160,272,173125,2,0,L|96:216,3,80,0|0|8|0,0:0|0:0|0:0|0:0,0:0:0:0:
0,216,174041,2,0,P|56:128|112:112,1,160,0|8,0:0|0:0,0:0:0:0:
192,160,174728,1,0,0:0:0:0:
256,80,174957,2,0,P|288:120|280:160,1,80,0|0,0:0|0:0,0:0:0:0:
256,240,175415,1,8,0:0:0:0:
256,240,175530,1,0,0:0:0:0:
256,192,175873,12,8,177247,0:0:0:0:
200,280,177705,6,0,B|240:296|240:296|288:360|328:344,2,120,4|0|0,0:0|0:0|0:0,0:0:0:0:
128,224,178621,1,0,0:0:0:0:
144,128,178850,1,0,0:0:0:0:
216,192,179079,1,8,0:0:0:0:
128,224,179308,1,0,0:0:0:0:
144,128,179537,2,0,L|256:80,2,120,0|0|0,0:0|0:0|0:0,0:0:0:0:
232,168,180454,2,0,L|136:208,1,80,0|0,0:0|0:0,0:0:0:0:
240,256,180912,2,0,L|320:224,1,80,8|0,0:0|0:0,0:0:0:0:
400,280,181370,6,0,P|416:192|376:136,1,160,0|8,0:0|0:0,0:0:0:0:
379,137,182057,1,0,0:0:0:0:
288,96,182286,2,0,L|184:64,2,80,0|0|8,0:0|0:0|0:0,0:0:0:0:
320,232,183087,1,0,0:0:0:0:
320,232,183202,2,0,B|298:275|298:275|248:300|235:338|235:338,2,120,0|0|0,0:0|0:0|0:0,0:0:0:0:
408,272,184118,1,0,0:0:0:0:
424,176,184347,1,0,0:0:0:0:
376,96,184576,1,8,0:0:0:0:
280,96,184805,1,0,0:0:0:0:
256,192,185034,6,0,P|216:232|136:256,2,120,4|0|0,0:0|0:0|0:0,0:0:0:0:
160,168,185950,2,0,P|184:128|216:112,1,80,0|0,0:0|0:0,0:0:0:0:
288,56,186408,1,8,0:0:0:0:
360,120,186637,1,0,0:0:0:0:
296,192,186866,6,0,P|376:208|432:192,2,120,0|0|0,0:0|0:0|0:0,0:0:0:0:
328,104,187782,1,0,0:0:0:0:
256,40,188011,1,0,0:0:0:0:
184,104,188240,1,8,0:0:0:0:
256,168,188469,1,0,0:0:0:0:
328,104,188698,6,0,P|352:192|312:232,1,120,0|0,0:0|0:0,0:0:0:0:
320,256,189156,2,0,L|240:256,1,80,8|0,0:0|0:0,0:0:0:0:
168,312,189614,2,0,P|144:264|168:232,2,80,0|0|8,0:0|0:0|0:0,0:0:0:0:
168,312,190186,1,0,0:0:0:0:
256,264,190415,1,0,0:0:0:0:
256,264,190530,5,0,0:0:0:0:
328,136,190873,1,0,0:0:0:0:
184,136,191217,1,0,0:0:0:0:
256,192,191446,12,4,192362,0:0:0:0:
