osu file format v12

[General]
AudioFilename: smileR - Melody Line - ft. Hatsune Miku.mp3
AudioLeadIn: 0
PreviewTime: 89766
Countdown: 0
SampleSet: Normal
StackLeniency: 0.7
Mode: 0
LetterboxInBreaks: 1
WidescreenStoryboard: 1

[Editor]
Bookmarks: 97099
DistanceSpacing: 1
BeatDivisor: 2
GridSize: 8
TimelineZoom: 1

[Metadata]
Title:Melody Line
TitleUnicode:Melody Line
Artist:SmileR feat. Hatsune Miku
ArtistUnicode:SmileR feat. 初音ミク
Creator:Kerocchi
Version:Easy
Source:
Tags:vocaloid hatsune miku smiler
BeatmapID:186482
BeatmapSetID:62999

[Difficulty]
HPDrainRate:3
CircleSize:3
OverallDifficulty:3
ApproachRate:3
SliderMultiplier:1
SliderTickRate:2

[Events]
//Background and Video events
Video,-215,"ML.avi"
0,0,"meldoy-line-wallosu.png",0,0
//Break Periods
2,29050,30158
2,43020,43899
2,89966,103441
2,163249,168937
//Storyboard Layer 0 (Background)
//Storyboard Layer 1 (Fail)
//Storyboard Layer 2 (Pass)
//Storyboard Layer 3 (Foreground)
//Storyboard Sound Samples
//Background Colour Transformations
3,100,0,0,0

[TimingPoints]
1828,458.015267175573,4,1,1,80,1,0
60453,-100,4,1,1,80,0,1
74881,-100,4,1,1,80,0,0
75110,-100,4,1,1,80,0,1
89767,-100,4,1,1,80,0,0
104427,-100,4,1,1,80,0,0
133735,-100,4,1,1,80,0,1
148163,-100,4,1,1,80,0,0
148392,-100,4,1,1,80,0,1
163048,-100,4,1,1,80,0,0
177705,-100,4,1,1,80,0,1
177820,-100,4,1,1,80,0,0
192366,-100,4,1,1,80,0,0

[Colours]
Combo1 : 255,0,128
Combo2 : 0,128,255
Combo3 : 255,255,0

[HitObjects]
96,104,16942,6,0,P|152:112|200:104,1,100,0|0,0:0|0:0,0:0:0:0:
392,128,18316,2,0,P|448:120|496:128,1,100,0|8,0:0|0:0,0:0:0:0:
496,224,19232,2,8,P|504:248|480:320,1,100,0|8,0:0|0:0,0:0:0:0:
288,280,20606,6,0,P|272:208|288:72,1,200,0|8,0:0|0:0,0:0:0:0:
192,120,21980,1,0,0:0:0:0:
112,184,22438,1,8,0:0:0:0:
192,248,22896,1,0,0:0:0:0:
272,184,23354,1,8,0:0:0:0:
72,176,24270,6,0,P|88:120|120:80,1,100
168,280,25644,2,8,P|216:232|232:184,1,100,0|8,0:0|0:0,0:0:0:0:
264,112,26560,2,0,P|312:160|328:208,1,100,0|8,0:0|0:0,0:0:0:0:
416,160,27476,2,0,B|392:80|320:40,2,150,0|0|8,0:0|0:0|0:0,0:0:0:0:
376,144,31598,6,0,P|328:160|272:144,1,100
104,64,32973,2,0,P|144:80|160:144,1,100,0|8,0:0|0:0,0:0:0:0:
72,168,33889,2,8,P|80:216|130:254,1,100,0|8,0:0|0:0,0:0:0:0:
248,96,35263,6,0,P|232:192|248:304,1,200,0|8,0:0|0:0,0:0:0:0:
352,304,36637,1,0,0:0:0:0:
424,232,37095,1,0,0:0:0:0:
352,160,37553,1,0,0:0:0:0:
424,88,38011,1,8,0:0:0:0:
224,96,38927,6,8,P|176:48|136:48,2,100,0|0|8,0:0|0:0|0:0,0:0:0:0:
200,192,40301,2,0,P|152:240|144:280,1,100,0|8,0:0|0:0,0:0:0:0:
240,280,41217,2,0,P|280:248|288:192,1,100,0|8,0:0|0:0,0:0:0:0:
360,136,42133,2,0,P|400:208|392:296,1,150,0|8,0:0|0:0,0:0:0:0:
176,112,45339,5,8,0:0:0:0:
80,104,45797,2,0,B|104:232|248:192,1,200
312,144,47171,1,8,0:0:0:0:
408,144,47629,1,0,0:0:0:0:
408,240,48087,2,8,P|424:296|408:352,2,100,8|0|8,0:0|0:0|0:0,0:0:0:0:
312,240,49461,5,0,0:0:0:0:
216,216,49919,1,8,0:0:0:0:
120,240,50377,2,0,P|96:184|128:144,1,100,0|8,0:0|0:0,0:0:0:0:
184,88,51293,2,0,B|280:64|352:104|392:80,1,200
432,168,52667,6,8,P|416:224|368:264,1,100,8|2,0:0|0:0,0:0:0:0:
336,168,53583,1,8,0:0:0:0:
272,248,54041,2,0,P|232:208|232:168,1,100,0|8,0:0|0:0,0:0:0:0:
232,64,54957,1,0,0:0:0:0:
328,32,55415,2,8,P|336:104|312:144,1,100,8|0,0:0|0:0,0:0:0:0:
152,232,56789,6,0,P|208:248|272:248,2,100,0|8|0,0:0|0:0|0:0,0:0:0:0:
152,232,58163,1,8,0:0:0:0:
256,192,58621,12,4,60453,0:0:0:0:
288,232,61369,5,0,0:0:0:0:
184,264,61828,1,8,0:0:0:0:
208,168,62286,1,0,0:0:0:0:
112,128,62744,2,0,P|176:72|248:80,2,150
208,168,64576,5,8,0:0:0:0:
272,240,65034,1,0,0:0:0:0:
304,144,65492,1,8,0:0:0:0:
208,168,65950,2,0,P|224:104|248:80,1,100,0|8,0:0|0:0,0:0:0:0:
272,40,66637,2,0,B|352:48|400:80|400:80|400:208,1,250,0|4,0:0|0:0,0:0:0:0:
304,232,68240,5,0,0:0:0:0:
208,192,68698,2,0,P|216:144|264:96,1,100,0|8,0:0|0:0,0:0:0:0:
160,56,69614,2,0,P|112:112|96:200,2,150,0|0|8,0:0|0:0|0:0,0:0:0:0:
256,64,71446,1,0,0:0:0:0:
352,64,71904,2,0,P|320:152|224:160,1,200,8|8,0:0|0:0,0:0:0:0:
256,192,73049,12,4,75110,0:0:0:0:
208,256,76026,5,0,0:0:0:0:
240,160,76484,1,8,0:0:0:0:
160,104,76942,2,0,B|120:72|56:96|24:144,2,150,0|0|8,0:0|0:0|0:0,0:0:0:0:
160,104,78774,1,0,0:0:0:0:
248,144,79232,6,0,B|312:120|312:120|360:144,1,100,8|0,0:0|0:0,0:0:0:0:
432,184,80148,1,8,0:0:0:0:
392,280,80606,1,0,0:0:0:0:
312,216,81064,1,8,0:0:0:0:
312,112,81522,2,8,P|264:72|224:56,2,100,0|8|4,0:0|0:0|0:0,0:0:0:0:
232,168,82896,5,8,0:0:0:0:
144,216,83354,2,0,P|208:264|240:264,1,100,0|8,0:0|0:0,0:0:0:0:
312,216,84270,1,0,0:0:0:0:
400,160,84728,2,0,P|336:128|304:128,1,100,8|0,0:0|0:0,0:0:0:0:
216,80,85644,6,0,P|256:56|320:40,2,100,0|0|8,0:0|0:0|0:0,0:0:0:0:
152,160,87018,1,0,0:0:0:0:
80,96,87476,1,8,0:0:0:0:
256,192,87705,12,4,89766,0:0:0:0:
136,240,104881,6,0,P|184:224|240:240,1,100
408,320,106256,2,0,P|368:304|352:240,1,100
440,216,107172,2,8,P|432:168|382:130,1,100,0|8,0:0|0:0,0:0:0:0:
200,88,108546,6,0,P|184:144|224:192,2,100,0|0|8,0:0|0:0|0:0,0:0:0:0:
296,88,109919,2,0,L|352:72,2,50,0|0|8,0:0|0:0|0:0,0:0:0:0:
200,88,110835,2,0,L|144:72,2,50,0|0|8,0:0|0:0|0:0,0:0:0:0:
288,288,112210,6,0,P|336:336|376:336,2,100,0|0|8,0:0|0:0|0:0,0:0:0:0:
312,192,113584,2,0,P|360:144|368:104,1,100,0|8,0:0|0:0,0:0:0:0:
272,104,114500,2,0,P|232:136|224:192,1,100,0|8,0:0|0:0,0:0:0:0:
152,248,115416,2,0,P|112:176|120:88,2,150,2|2|10,0:0|0:0|0:0,0:0:0:0:
360,296,118621,6,0,L|408:264,2,50,0|0|4,0:0|0:0|0:0,0:0:0:0:
360,200,119537,1,8,0:0:0:0:
264,200,119995,2,0,P|248:240|176:248,1,100
96,256,120912,1,0,0:0:0:0:
96,160,121370,2,8,P|80:104|96:48,2,100,0|0|8,0:0|0:0|0:0,0:0:0:0:
176,96,122744,6,0,B|240:128|240:128|272:128,2,100
176,192,124118,1,8,0:0:0:0:
272,192,124576,2,0,B|256:320|128:288,1,200
80,208,125950,6,0,P|96:152|144:112,1,100,10|6,0:0|0:0,0:0:0:0:
176,208,126866,1,8,0:0:0:0:
240,128,127324,2,0,P|280:168|280:208,1,100,2|10,0:0|0:0,0:0:0:0:
280,312,128240,1,0,0:0:0:0:
184,352,128698,2,8,P|176:280|200:240,1,100,8|0,0:0|0:0,0:0:0:0:
360,152,130072,6,0,P|304:136|240:136,3,100,0|8|0|8,0:0|0:0|0:0|0:0,0:0:0:0:
256,192,131904,12,4,133736,0:0:0:0:
224,144,134652,5,0,0:0:0:0:
328,120,135111,1,8,0:0:0:0:
304,216,135569,1,0,0:0:0:0:
400,256,136027,2,0,P|336:312|264:304,2,150,8|0|0,0:0|0:0|0:0,0:0:0:0:
304,216,137859,5,8,0:0:0:0:
232,152,138317,1,0,0:0:0:0:
208,248,138775,1,8,0:0:0:0:
304,216,139233,2,0,P|288:280|264:304,1,100,0|8,0:0|0:0,0:0:0:0:
240,344,139920,2,0,B|160:352|104:304|104:304|112:176,1,250,0|4,0:0|0:0,0:0:0:0:
200,152,141523,5,0,0:0:0:0:
296,192,141981,2,0,P|288:240|240:288,1,100,0|8,0:0|0:0,0:0:0:0:
328,344,142897,2,0,P|376:288|392:200,2,150,0|0|8,0:0|0:0|0:0,0:0:0:0:
232,312,144729,5,0,0:0:0:0:
136,320,145187,2,0,P|168:232|264:224,1,200,8|8,0:0|0:0,0:0:0:0:
256,192,146332,12,4,148393,0:0:0:0:
336,152,149309,5,0,0:0:0:0:
272,224,149767,1,8,0:0:0:0:
352,280,150225,2,0,B|392:312|456:288|488:240,2,150,0|0|8,0:0|0:0|0:0,0:0:0:0:
352,280,152057,1,0,0:0:0:0:
264,240,152515,6,0,B|200:264|200:264|152:240,1,100,8|0,0:0|0:0,0:0:0:0:
80,200,153431,1,8,0:0:0:0:
120,104,153889,1,0,0:0:0:0:
200,168,154347,1,8,0:0:0:0:
200,272,154805,2,8,P|248:312|288:328,2,100,0|8|4,0:0|0:0|0:0,0:0:0:0:
280,216,156179,5,8,0:0:0:0:
368,168,156637,2,0,P|304:120|272:120,1,100,0|8,0:0|0:0,0:0:0:0:
200,168,157553,1,0,0:0:0:0:
112,224,158011,2,0,P|176:256|208:256,1,100,8|0,0:0|0:0,0:0:0:0:
296,304,158927,6,0,P|256:328|192:344,2,100,8|0|8,0:0|0:0|0:0,0:0:0:0:
360,224,160301,1,0,0:0:0:0:
432,288,160759,1,8,0:0:0:0:
256,192,160988,12,4,163049,0:0:0:0:
112,96,170377,5,4,0:0:0:0:
56,176,170835,1,8,0:0:0:0:
128,248,171293,2,0,P|192:280|232:272,2,100,0|8|0,0:0|0:0|0:0,0:0:0:0:
200,176,172667,1,8,0:0:0:0:
288,128,173125,2,0,B|208:40|112:120,1,200
200,176,174499,5,8,0:0:0:0:
296,176,174957,2,0,P|344:192|392:176,1,100,0|8,0:0|0:0,0:0:0:0:
256,192,175873,12,4,177705,0:0:0:0:
456,184,178621,5,0,0:0:0:0:
408,96,179079,2,0,P|360:80|312:96,2,100,8|0|8,0:0|0:0|0:0,0:0:0:0:
360,184,180453,1,0,0:0:0:0:
416,264,180911,2,0,L|416:320,2,50,8|0|0,0:0|0:0|0:0,0:0:0:0:
480,184,181828,5,8,0:0:0:0:
424,104,182286,2,0,B|360:80|304:120|224:104,1,200
227,104,183660,1,8,0:0:0:0:
144,152,184118,2,0,P|128:96|144:56,2,100,0|8|4,0:0|0:0|0:0,0:0:0:0:
32,160,185492,5,8,0:0:0:0:
88,240,185950,2,0,P|160:248|200:224,1,100,0|8,0:0|0:0,0:0:0:0:
176,136,186866,2,0,P|248:128|288:152,1,100,0|8,0:0|0:0,0:0:0:0:
320,56,187782,2,0,P|224:16|136:48,1,200
80,120,189156,5,8,0:0:0:0:
48,216,189614,2,0,P|96:216|152:184,1,100
256,192,190530,12,4,192362,0:0:0:0:
