osu file format v5

[General]
AudioFilename: 107-butterfly.mp3
AudioLeadIn: 0
PreviewTime: -1
Countdown: 1
SampleSet: Soft
StackLeniency: 0.7
Mode: 0
EditorBookmarks: 42209,50209

[Metadata]
Title:Butterfly
Artist:Smile.dk
Creator:Netz0r
Version:Easy

[Difficulty]
HPDrainRate:2
CircleSize:2
OverallDifficulty:2
SliderMultiplier:1.4
SliderTickRate:1

[Events]
//Background and Video events
1,-150,"ButterflyVideo.wmv"
//Break Periods
2,42409,49159
//Storyboard Layer 0 (Background)
//Storyboard Layer 1 (Failing)
//Storyboard Layer 2 (Passing)
//Storyboard Layer 3 (Foreground)
//Storyboard Sound Samples
//Background Colour Transformations
3,100,163,162,255

[TimingPoints]
14653,444.454572023451,4,2,0,100

[Colours]
Combo1 : 0,0,0
Combo2 : 5,240,5
Combo3 : 5,5,240
Combo4 : 240,5,5
Combo5 : 255,150,0

[HitObjects]
256,192,14652,1,0
384,192,15541,1,0
384,96,16430,1,0
288,96,16875,2,0,B|128:96|96:96,1,140
64,192,18208,5,0
192,192,19097,1,0
256,192,19542,1,0
416,192,19986,1,2
352,192,20430,1,0
288,192,20875,1,2
64,352,21764,5,0
96,320,22208,1,0
128,288,22653,1,0
352,96,23393,5,0
288,96,23542,1,0
256,128,23875,1,2
256,192,24431,1,2
256,192,25319,12,0,27986
160,64,28875,2,0,B|316:78|316:78,2,140
160,128,30208,1,2
224,128,30653,1,0
288,128,31097,1,2
352,128,31542,1,0
256,192,32431,6,0,B|128:288|128:288,2,140
256,256,33764,1,0
320,256,34209,1,0
384,256,34653,1,0
448,256,35097,1,2
32,32,35986,6,0,B|192:32,2,140
32,96,37320,1,0
32,160,37764,1,0
32,224,38209,1,0
32,288,38653,1,2
160,32,39542,6,0,B|320:32|352:32,2,140
160,96,40875,1,0
224,96,41320,1,0
288,96,41764,1,0
352,96,42209,1,2
192,64,50209,5,0
256,64,50653,1,0
320,64,51098,1,0
256,160,51987,1,2
320,160,52431,1,2
352,160,52653,1,0
384,160,52876,1,2
256,256,53765,5,0
192,192,54209,1,0
256,128,54653,1,0
320,192,55098,1,0
256,192,55542,1,0
192,192,55987,1,0
192,128,56431,1,2
224,64,57320,5,0
320,64,57765,1,0
416,64,58209,1,0
320,160,59098,1,0
320,256,59987,1,2
128,256,60876,5,0
128,256,61320,1,0
128,256,61765,1,0
224,256,62209,1,2
224,256,62654,1,0
288,256,63098,1,0
352,256,63543,1,2
128,32,64431,6,0,B|288:32,2,140
192,64,65765,1,0
256,64,66209,1,0
320,64,66654,1,0
384,64,67098,1,2
160,320,67987,6,0,B|320:320,2,140
160,256,69320,1,0
160,192,69765,1,0
160,128,70209,1,0
160,64,70654,1,2
384,64,71543,6,0,B|384:224,2,140
288,64,72876,1,0
224,128,73321,1,0
224,192,73765,1,0
288,256,74209,1,2
128,64,75098,6,0,B|288:64,2,140
128,128,76432,1,0
192,64,76876,1,0
256,64,77321,1,0
320,128,77765,1,2
256,192,78654,5,4
