osu file format v4

[General]
AudioFilename: Bill Cosby Rap.mp3
AudioLeadIn: 1977
AudioHash: 35a7056c57960562ce04fda11ab1c688
PreviewTime: -1
SampleSet: Normal

[Metadata]
Title:Bill Cosby Gangsta Rap
Artist:Sludged
Creator:wiicademan
Version:Hard

[Difficulty]
HPDrainRate:5
CircleSize:5
OverallDifficulty:5
SliderMultiplier: 1.5
SliderTickRate: 4

[Events]
2,41433,51119
3,0,0,128,0

[TimingPoints]
146,652.173913043478,4,1,0

[HitObjects]
320,64,146,1,0,
320,192,798,1,0,
384,192,1124,1,0,
384,256,1450,1,0,
256,256,2102,1,2,
64,32,2754,5,0,
64,192,3732,1,0,
64,256,4058,1,0,
64,128,4711,5,2,
32,32,5363,6,0,C|32:32|192:32,3,150
32,192,7972,2,0,C|32:192|288:192,1,225
256,192,9276,1,0,
256,192,9928,5,2,
32,32,10580,5,0,
64,32,10743,1,0,
96,32,10906,1,0,
128,32,11069,2,0,C|128:32|256:32,1,112.5
235,128,11885,6,0,C|235:128|306:128,2,37.5
241,222,12537,2,0,C|241:222|305:222,2,37.5
224,224,13189,1,0,
224,224,13841,1,0,
224,224,14493,1,0,
224,224,15146,1,0,
32,32,15798,6,0,C|32:32|64:32,3,37.5
96,32,16613,1,0,
96,32,16776,1,0,
224,32,17102,5,0,
256,32,17265,1,0,
288,32,17428,1,0,
288,96,17754,5,0,
256,96,17917,1,0,
224,96,18080,1,0,
128,160,18406,5,0,
128,256,19385,1,0,
128,288,19711,1,0,
32,352,20200,5,0,
32,320,20363,1,2,
96,256,20852,5,0,
128,256,21015,5,0,
192,256,21504,1,0,
224,288,21667,1,2,
256,320,21830,1,0,
288,352,21993,1,2,
320,352,22156,1,0,
352,352,22319,1,0,
352,288,22809,1,0,
352,256,22972,2,2,C|352:256|352:160,1,75
352,192,23624,1,0,
352,192,23950,1,0,
416,160,24765,5,0,
448,128,24928,1,4,
480,32,25580,5,0,
480,32,25906,1,0,
416,32,26232,2,0,C|416:32|256:32,3,150
256,64,28515,1,0,
256,64,28678,1,0,
256,64,28841,1,0,
256,64,29004,1,0,
256,64,29167,1,0,
256,64,29330,1,0,
256,64,29493,1,2,
256,64,29656,1,0,
256,64,29819,1,0,
256,64,29982,1,0,
256,64,30146,1,4,
256,160,30635,5,0,
256,192,30798,1,4,
32,352,31450,6,0,C|32:352|128:352,1,75
160,352,32428,1,0,
160,352,32591,1,0,
160,352,32754,1,0,
160,352,32917,1,0,
256,352,33406,5,2,
480,352,34059,5,0,
480,352,34222,1,0,
480,352,34385,1,0,
480,352,34548,1,0,
480,352,34711,2,0,C|480:352|384:352,1,75
384,352,35363,1,0,
384,352,35689,1,0,
384,352,36015,1,0,
256,288,36341,5,2,
32,288,36667,6,0,C|32:288|32:352,2,37.5
96,288,37319,1,2,
160,288,37809,1,0,
160,288,37972,1,0,
160,288,38135,1,0,
160,288,38298,1,0,
192,288,38624,1,2,
256,64,38950,5,0,
256,64,39113,1,0,
256,64,39276,1,2,
256,64,39439,1,0,
256,64,39602,1,0,
256,64,39765,1,2,
256,64,39928,1,0,
256,64,40091,1,4,
320,32,40580,5,2,
320,32,40906,1,2,
320,32,41233,1,2,
32,32,52319,5,2,
64,32,52482,1,0,
96,32,52645,1,0,
128,32,52809,1,0,
128,32,52972,1,0,
128,32,53135,1,0,
192,32,53298,1,0,
192,96,53624,2,0,C|192:96|288:96,1,75
288,96,54276,1,0,
256,192,54928,6,2,C|256:192|256:224,2,37.5
256,192,55580,1,0,
256,192,55906,2,0,C|256:192|352:192,1,75
352,192,56559,1,0,
352,192,56885,1,0,
352,192,57211,1,0,
256,128,57537,6,0,C|256:128|256:224,1,75
256,224,58189,2,0,C|256:224|256:128,1,75
256,192,58841,5,4,
256,320,59493,5,0,
256,320,59656,1,0,
256,320,59819,1,0,
320,320,60145,1,0,
352,320,60472,1,0,
352,320,60635,1,0,
352,320,60798,1,0,
384,320,61124,1,0,
416,320,61450,1,0,
448,320,61776,1,0,
480,320,62102,1,0,
479,238,62428,5,4,
480,192,62754,6,2,C|480:192|480:32,1,150
480,32,64059,2,2,C|480:32|352:160,1,150
256,192,65363,5,0,
256,160,65689,1,0,
256,128,66015,1,0,
256,128,66178,1,0,
192,96,66667,5,0,
96,96,66993,1,0,
96,160,67319,2,2,L|96:160|128:192|96:224|128:256|96:288,1,150
256,256,68624,5,0,
256,192,68950,1,0,
256,128,69276,1,0,
320,128,69602,1,0,
352,128,69765,1,0,
480,32,70580,5,0,
480,64,70743,1,0,
480,128,71232,2,0,L|480:128|480:288,1,150
480,320,72211,1,0,
384,352,73189,5,0,
352,352,73515,1,0,
352,352,73678,1,0,
352,352,73841,1,2,
352,352,74004,1,0,
352,352,74167,1,0,
288,352,74493,2,0,L|288:352|288:320,1,37.5
288,256,74982,5,0,
256,256,75145,1,0,
224,256,75309,1,0,
160,256,75635,1,0,
160,256,75798,1,0,
160,192,76124,1,0,
160,192,76450,1,0,
160,192,76613,1,0,
384,192,77754,5,2,
384,192,77917,1,2,
384,256,78243,1,2,
384,256,78406,1,2,
384,320,79059,5,0,
352,320,79222,1,0,
320,320,79385,2,0,L|320:320|224:320,1,75
256,256,80363,5,0,
320,256,80689,1,0,
320,224,81015,1,2,
320,128,81667,1,2,
320,128,81993,1,2,
384,128,82319,1,2,
384,128,82645,1,2,
384,128,82972,1,6,
