osu file format v4

[General]
AudioFilename: Bill Cosby Rap.mp3
AudioLeadIn: 1977
AudioHash: 35a7056c57960562ce04fda11ab1c688
PreviewTime: -1
SampleSet: Normal

[Metadata]
Title:Bill Cosby Gangsta Rap
Artist:Sludged
Creator:wiicademan
Version:Easy

[Difficulty]
HPDrainRate:3
CircleSize:3
OverallDifficulty:3
SliderMultiplier: 1.5
SliderTickRate: 2

[Events]
2,41433,51119
3,0,163,162,255

[TimingPoints]
146,652.173913043478,4,1,0

[HitObjects]
320,64,146,1,0,
256,256,2102,1,2,
64,32,2754,5,0,
64,256,4058,1,0,
64,128,4711,5,2,
32,32,5363,6,0,C|32:32|192:32,3,150
32,192,7972,2,0,C|32:192|288:192,1,225
256,192,9928,5,2,
128,32,10580,6,0,C|128:32|384:32,1,225
256,96,11885,5,0,
224,224,12537,1,0,
224,224,13189,1,0,
224,224,13841,1,0,
224,224,14493,1,0,
224,224,15146,1,0,
32,32,15798,5,0,
96,32,16776,1,0,
224,32,17102,5,0,
288,96,17754,5,0,
128,160,18406,5,0,
128,288,19711,1,0,
416,192,21015,6,0,L|416:192|160:352,1,300
160,256,22972,2,2,L|160:256|160:96,1,150
83,120,24928,1,4,
32,32,25580,5,0,
96,32,26232,2,0,C|96:32|256:32,3,150
256,96,28841,2,2,L|256:96|256:192|480:192,1,300
256,192,30798,1,4,
32,352,31450,6,0,C|32:352|128:352,1,75
160,352,32754,1,0,
256,352,33406,5,2,
320,352,34059,2,0,L|320:352|480:352|480:32,1,450
448,64,36341,5,2,
352,64,37319,1,2,
256,64,38624,1,2,
192,96,39276,1,0,
192,160,39602,1,0,
192,224,39928,1,2,
320,32,40580,5,2,
320,32,40906,1,2,
320,32,41233,1,2,
64,32,52319,6,0,L|64:32|224:32,1,150
192,96,53624,6,0,C|192:96|352:96,1,150
384,96,54928,2,0,L|384:96|384:256,1,150
256,64,57537,5,0,
256,128,58189,1,0,
256,192,58841,5,4,
256,256,59493,5,0,
320,320,60145,1,0,
416,320,61450,1,0,
480,320,62102,1,0,
480,192,62754,6,2,C|480:192|480:32,1,150
480,32,64059,2,2,C|480:32|352:160,1,150
256,192,65363,5,0,
256,128,66015,1,0,
76,138,66667,2,2,L|76:138|128:192|79:245|149:285|64:352,1,300
256,256,68624,5,0,
256,128,69276,1,0,
480,32,70580,6,0,L|480:32|480:352|320:352,1,450
32,32,73189,5,0,
96,32,73841,1,2,
160,32,74493,1,0,
160,128,75145,1,0,
256,128,75798,1,0,
256,192,76124,1,0,
256,192,76450,1,0,
256,192,76613,1,0,
384,192,77754,5,2,
384,256,78406,1,2,
384,336,79059,6,0,L|384:336|203:334,1,150
320,224,81015,1,2,
320,128,81667,1,2,
320,128,81993,1,2,
384,128,82319,1,2,
384,128,82645,1,2,
384,128,82972,1,6,
