osu file format v13

[General]
AudioFilename: Slipknot - Snuff.mp3
AudioLeadIn: 0
PreviewTime: -1
Countdown: 0
SampleSet: None
StackLeniency: 0.7
Mode: 0
LetterboxInBreaks: 1
WidescreenStoryboard: 0

[Editor]
Bookmarks: 21517,22001,22485,22969,23453,27565,27807,28291,28775,29259,29985,30227,31436,32162,32646,33130,35065,35307,35791,36033,36517,37001,37485,37969,38453,38936,42807,43049,43775,44259,44743,45469,45711,46678,46920,47162,47646,48130,48614,50065,50549,51033,64582,68453,72323,73291,73533,74138,80065,83936,87807,92404,93130,93251
DistanceSpacing: 0.9
BeatDivisor: 8
GridSize: 8
TimelineZoom: 1

[Metadata]
Title:Snuff
TitleUnicode:Snuff
Artist:Slipknot
ArtistUnicode:Slipknot
Creator:-Heptagon-
Version:Hard
Source:
Tags:English
BeatmapID:574435
BeatmapSetID:249925

[Difficulty]
HPDrainRate:4
CircleSize:4
OverallDifficulty:5
ApproachRate:8
SliderMultiplier:3
SliderTickRate:1

[Events]
//Background and Video events
0,0,"3201_slipknot.jpg",0,0
//Break Periods
2,50749,63832
//Storyboard Layer 0 (Background)
//Storyboard Layer 1 (Fail)
//Storyboard Layer 2 (Pass)
//Storyboard Layer 3 (Foreground)
//Storyboard Sound Samples

[TimingPoints]
8211.09386338789,967.741935483871,4,1,0,100,1,0

[Colours]
Combo1 : 255,255,255
Combo2 : 0,0,0
Combo3 : 32,32,32
Combo4 : 122,122,122
Combo5 : 186,182,184

[HitObjects]
48,48,19823,6,8,B|128:120|104:96|136:120,1,75,0|0,0:0|0:0,0:0:0:0:
224,104,20549,2,0,P|208:176|128:200,1,150
40,144,21517,2,0,P|48:256|72:272,1,150
184,320,22485,2,0,P|296:312|312:288,1,150
368,184,23453,1,0,0:0:0:0:
464,48,27323,6,0,L|352:48,1,75
320,88,27807,1,0,0:0:0:0:
264,176,28291,1,0,0:0:0:0:
192,272,28775,1,0,0:0:0:0:
288,344,29259,2,0,P|392:304|448:208,1,225
464,128,30227,1,0,0:0:0:0:
256,72,31194,1,0,0:0:0:0:
176,48,31436,2,0,P|72:64|56:168,1,225
104,280,32646,1,0,0:0:0:0:
224,312,33130,1,0,0:0:0:0:
48,344,35065,5,0,0:0:0:0:
128,344,35307,2,0,P|152:280|120:192,1,150
80,40,36033,2,0,L|232:40,1,150
230,40,37001,1,0,0:0:0:0:
336,88,37485,1,0,0:0:0:0:
440,144,37969,1,0,0:0:0:0:
368,224,38694,1,0,0:0:0:0:
304,280,38936,1,0,0:0:0:0:
480,352,42807,5,0,0:0:0:0:
480,256,43049,2,0,P|400:304|384:376,1,150
304,360,43775,1,0,0:0:0:0:
240,256,44259,1,0,0:0:0:0:
184,360,44743,2,0,P|80:296|64:168,1,225
56,120,45711,1,0,0:0:0:0:
280,40,46678,5,0,0:0:0:0:
224,104,46920,2,0,P|256:128|312:128,1,75
408,152,47646,1,0,0:0:0:0:
408,272,48130,1,0,0:0:0:0:
328,360,48614,2,0,B|240:344|272:104|16:40,1,450
104,48,50307,1,0,0:0:0:0:
192,56,50549,1,0,0:0:0:0:
48,48,64582,6,0,L|128:48|120:48,1,75
120,120,65065,2,0,L|40:120|48:120,1,75
48,192,65549,2,0,L|128:192|120:192,1,75
152,192,65912,1,0,0:0:0:0:
208,192,66154,1,0,0:0:0:0:
464,48,68453,2,0,L|384:48|392:48,1,75
392,120,68936,2,0,L|472:120|464:120,1,75
464,192,69420,2,0,L|384:192|392:192,1,75
320,192,69904,1,0,0:0:0:0:
248,192,70267,1,0,0:0:0:0:
40,344,72323,6,0,L|136:344,1,75
120,272,72807,2,0,L|208:272,1,75
192,344,73291,1,0,0:0:0:0:
280,344,73533,2,0,B|352:344|352:344|352:216,1,187.5
352,152,74380,1,0,0:0:0:0:
256,136,76194,1,0,0:0:0:0:
256,248,76436,1,0,0:0:0:0:
208,192,76678,1,0,0:0:0:0:
304,192,76920,1,0,0:0:0:0:
352,112,77041,1,0,0:0:0:0:
424,192,77404,1,0,0:0:0:0:
352,264,77646,1,0,0:0:0:0:
136,192,78130,1,0,0:0:0:0:
48,336,80066,6,0,L|128:336|120:336,1,75
120,264,80549,2,0,L|40:264|48:264,1,75
48,192,81033,2,0,L|128:192|120:192,1,75
192,192,81517,1,0,0:0:0:0:
256,192,82001,1,0,0:0:0:0:
464,336,83936,6,0,L|384:336|392:336,1,75
392,264,84419,2,0,L|472:264|464:264,1,75
464,192,84903,2,0,L|384:192|392:192,1,75
320,192,85387,1,0,0:0:0:0:
256,192,85871,1,0,0:0:0:0:
224,160,87807,1,0,0:0:0:0:
288,224,88049,1,0,0:0:0:0:
224,224,88291,1,0,0:0:0:0:
288,160,88533,1,0,0:0:0:0:
256,104,88775,1,0,0:0:0:0:
256,40,89017,1,0,0:0:0:0:
256,344,89380,1,0,0:0:0:0:
48,48,92404,2,0,B|104:72|104:72|160:48,2,112.5,0|0|0,0:0|0:0|0:0,0:0:0:0:
48,128,93372,1,0,0:0:0:0:
48,200,93614,2,0,L|128:272,1,75
160,296,94098,1,0,0:0:0:0:
224,328,94340,2,0,L|296:256,1,75,0|0,0:0|0:0,0:0:0:0:
328,216,94703,1,0,0:0:0:0:
336,96,95186,6,0,L|272:96,1,37.5
256,48,95549,1,0,0:0:0:0:
256,144,95791,1,0,0:0:0:0:
168,24,96033,1,0,0:0:0:0:
168,200,96275,1,0,0:0:0:0:
80,8,96517,1,0,0:0:0:0:
80,248,96759,1,0,0:0:0:0:
176,136,97243,6,0,L|248:136,5,37.5,0|0|0|0|0|0,0:0|0:0|0:0|0:0|0:0|0:0,0:0:0:0:
288,136,97969,2,0,L|360:136,6,37.5,0|0|0|0|0|0|0,0:0|0:0|0:0|0:0|0:0|0:0|0:0,0:0:0:0:
408,136,98815,2,0,L|445:136,4,37.5,0|0|0|0|0,0:0|0:0|0:0|0:0|0:0,0:0:0:0:
448,216,99420,2,0,L|376:216,4,37.5,0|0|0|0|0,0:0|0:0|0:0|0:0|0:0,0:0:0:0:
336,216,100025,2,0,L|264:216,4,37.5,0|0|0|0|0,0:0|0:0|0:0|0:0|0:0,0:0:0:0:
224,216,100630,2,0,L|152:216,4,37.5,0|0|0|0|0,0:0|0:0|0:0|0:0|0:0,0:0:0:0:
112,216,101235,2,0,L|40:216,30,37.5,0|0|0|0|0|0|0|0|0|0|0|0|0|0|0|0|0|0|0|0|0|0|0|0|0|0|0|0|0|0|0,0:0|0:0|0:0|0:0|0:0|0:0|0:0|0:0|0:0|0:0|0:0|0:0|0:0|0:0|0:0|0:0|0:0|0:0|0:0|0:0|0:0|0:0|0:0|0:0|0:0|0:0|0:0|0:0|0:0|0:0|0:0,0:0:0:0:
