osu file format v11

[General]
AudioFilename: Psychosocial (Cropped).mp3
AudioLeadIn: 0
PreviewTime: 166574
Countdown: 0
SampleSet: Normal
StackLeniency: 0.7
Mode: 0
LetterboxInBreaks: 1

[Editor]
Bookmarks: 38269,48478,74160,108748,121475
DistanceSpacing: 1.3
BeatDivisor: 4
GridSize: 8

[Metadata]
Title:Psychosocial
TitleUnicode:Psychosocial
Artist:Slipknot
ArtistUnicode:Slipknot
Creator:ErufenRito
Version:Hard
Source:
Tags:MoodyRPG
BeatmapID:115489
BeatmapSetID:31179

[Difficulty]
HPDrainRate:6
CircleSize:4
OverallDifficulty:6
ApproachRate:7
SliderMultiplier:1.4
SliderTickRate:2

[Events]
//Background and Video events
0,0,"Do you really have to check my files - Nothing much to check!.jpg"
//Break Periods
2,38468,47571
2,109037,119869
//Storyboard Layer 0 (Background)
//Storyboard Layer 1 (Fail)
//Storyboard Layer 2 (Pass)
//Storyboard Layer 3 (Foreground)
//Storyboard Sound Samples
//Background Colour Transformations
3,100,163,162,255

[TimingPoints]
4104,441.176470588235,4,1,0,50,1,0
4820,-100,4,1,0,30,0,0
5206,-100,4,1,0,50,0,0
6585,-100,4,1,0,30,0,0
6695,-100,4,1,0,50,0,0
6788,441.501103752759,4,1,0,50,1,0
8388,-100,4,1,0,40,0,0
8774,-100,4,1,0,50,0,0
9456,443.458980044346,4,1,0,50,1,0
11174,-100,4,1,0,70,0,0
11950,-100,4,1,0,50,0,0
12338,-100,4,1,0,70,0,0
13724,-100,4,1,0,50,0,0
14112,-100,4,1,0,70,0,0
15498,-100,4,1,0,50,0,0
15886,-100,4,1,0,40,0,0
15956,-100,4,1,0,70,0,0
16234,-100,4,1,0,40,0,0
16556,445.103857566766,4,1,0,40,1,0
18280,-100,4,1,0,50,0,0
20061,-100,4,1,0,60,0,0
20541,442.151805453206,4,1,0,60,1,0
21812,-100,4,1,0,80,0,0
23193,-100,4,1,0,100,0,0
23620,443.62292051756,4,1,0,60,1,0
24839,-100,4,1,0,40,0,0
25061,-100,4,1,0,60,0,0
25861,442.151805453206,4,1,0,60,1,0
26614,-100,4,1,0,40,0,0
26836,-100,4,1,0,60,0,0
28388,-100,4,1,0,40,0,0
28832,-100,4,1,0,60,0,0
31937,-100,4,1,0,40,0,0
32159,-100,4,1,0,60,0,0
32935,444.444444444444,4,1,0,60,1,0
33712,-100,4,1,0,40,0,0
33934,-100,4,1,0,60,0,0
35486,-100,4,1,0,40,0,0
35930,-100,4,1,0,60,0,0
37815,-100,4,1,0,100,0,0
44919,444.115470022206,4,1,0,70,1,0
50256,437.956204379562,4,1,0,70,1,0
51995,443.786982248521,4,1,0,70,1,0
57340,437.956204379562,4,1,0,70,1,0
59077,442.80442804428,4,1,0,70,1,0
64390,437.956204379562,4,1,0,70,1,0
66147,444.444444444444,4,1,0,70,1,1
70924,-100,4,1,0,100,0,1
71147,-100,4,1,0,70,0,1
76827,441.176470588235,4,1,0,70,1,1
77157,-100,4,1,0,100,0,1
78591,-100,4,1,0,100,0,0
78812,-100,4,1,0,70,0,0
79584,-100,4,1,0,50,0,0
79768,-100,4,1,0,70,0,0
80330,444.444444444444,4,1,0,70,1,0
92786,434.782608695652,4,1,0,70,1,0
94524,444.444444444444,4,1,0,70,1,0
108724,454.545454545455,4,1,0,50,1,0
122587,-100,4,1,0,50,0,0
141451,-100,4,1,0,70,0,0
150769,-100,4,1,0,100,0,0
151451,-100,4,1,0,70,0,0
152383,444.444444444444,4,1,0,70,1,0
164832,437.956204379562,4,1,0,70,1,0
166569,442.477876106195,4,1,0,70,1,1
171311,-100,4,1,0,100,0,1
171532,-100,4,1,0,70,0,1
173680,444.427984148735,4,1,0,70,1,1
185568,-100,4,1,0,100,0,1
185790,-100,4,1,0,70,0,1
191790,-100,4,1,0,100,0,1
195004,444.427984148735,4,1,1,70,1,0
198003,-100,4,1,0,70,0,0
198559,-100,4,1,1,70,0,0
201559,-100,4,1,0,70,0,0
202114,-100,4,1,1,70,0,0
205114,-100,4,1,0,70,0,0
205670,-100,4,1,1,70,0,0
207447,-100,4,1,0,70,0,0
221891,-100,4,1,0,100,0,0

[Colours]
Combo1 : 192,192,192
Combo2 : 128,128,255
Combo3 : 128,128,128
Combo4 : 128,128,192

[HitObjects]
373,39,4104,1,0,0:0:0
373,39,4324,1,0,0:0:0
436,104,4545,2,0,B|460:128,2,35
410,141,4876,2,2,B|382:191|303:177,1,105,2|0,0:0|0:0,0:0:0
232,208,5427,1,0,0:0:0
172,139,5648,6,0,B|196:107,8,35,0|0|0|0|0|0|0|0|0,0:0|0:0|0:0|0:0|0:0|0:0|0:0|0:0|0:0,0:0:0
126,145,6640,2,2,B|51:141|47:64,1,117,2|0,0:0|0:0,0:0:0
117,24,7229,1,8,0:0:0
76,294,7891,6,0,B|20:318,4,35,0|0|8|0|0,0:0|0:0|0:0|0:0|0:0,0:0:0
119,307,8443,2,2,B|146:366|239:345,1,105,10|0,0:0|0:0,0:0:0
248,269,8995,1,8,0:0:0
331,305,9216,6,0,B|379:311,3,37
394,280,9677,2,0,B|442:286,3,35,0|0|8|0,0:0|0:0|0:0|0:0,0:0:0
460,252,10121,2,0,B|466:204,3,35
435,188,10564,2,0,B|441:140,3,35,0|0|8|0,0:0|0:0|0:0|0:0,0:0:0
404,117,11008,2,0,B|410:69,1,35
431,43,11229,5,4,0:0:0
345,15,11451,1,0,0:0:0
256,37,11673,2,0,B|210:20,2,35,8|0|0,0:0|0:0|0:0,0:0:0
280,75,12005,2,2,B|277:140|206:160,1,105,10|0,0:0|0:0,0:0:0
146,206,12560,6,0,B|143:250|185:283,1,70,8|0,0:0|0:0,0:0:0
202,301,12892,2,0,B|174:325,7,35,0|0|0|0|0|8|0|0,0:0|0:0|0:0|0:0|0:0|0:0|0:0|0:0,0:0:0
207,356,13779,2,2,B|256:391|321:374,1,105,10|0,0:0|0:0,0:0:0
369,310,14334,1,8,0:0:0
369,310,14444,1,0,0:0:0
182,179,14999,6,0,B|134:180,4,35,0|0|8|0|0,0:0|0:0|0:0|0:0|0:0,0:0:0
214,211,15553,2,2,B|270:190|270:128,1,105,2|2,0:0|0:0,0:0:0
293,111,15960,2,0,B|330:111,2,23.3333333333333,0|0|8,0:0|0:0|0:0,0:0:0
251,28,16329,5,0,0:0:0
251,28,16440,1,0,0:0:0
251,28,16556,2,0,B|197:17,3,35,8|0|0|0,0:0|0:0|0:0|0:0,0:0:0
184,53,17001,2,0,B|130:42,3,35,8|0|0|0,0:0|0:0|0:0|0:0,0:0:0
117,78,17446,2,0,B|63:67,3,35,8|0|0|0,0:0|0:0|0:0|0:0,0:0:0
50,103,17891,2,0,B|-4:92,3,35,8|0|0|0,0:0|0:0|0:0|0:0,0:0:0
39,175,18336,6,0,B|93:186,3,35,8|0|0|0,0:0|0:0|0:0|0:0,0:0:0
106,150,18781,2,0,B|160:161,3,35,8|0|0|0,0:0|0:0|0:0|0:0,0:0:0
173,125,19226,2,0,B|227:136,3,35,8|0|0|0,0:0|0:0|0:0|0:0,0:0:0
240,100,19671,2,0,B|294:111,3,35,8|0|0|0,0:0|0:0|0:0|0:0,0:0:0
322,155,20116,6,0,B|311:209,3,35,8|0|0|0,0:0|0:0|0:0|0:0,0:0:0
364,239,20541,2,0,B|418:250,3,35,8|0|0|0,0:0|0:0|0:0|0:0,0:0:0
448,196,20983,2,0,B|459:142,3,35,8|0|0|0,0:0|0:0|0:0|0:0,0:0:0
405,111,21425,2,0,B|351:100,3,35,8|0|0|0,0:0|0:0|0:0|0:0,0:0:0
320,53,21867,6,0,B|324:23,17,23.3333333333333,8|0|0|0|0|0|8|0|0|0|0|0|8|0|0|0|0|0,0:0|0:0|0:0|0:0|0:0|0:0|0:0|0:0|0:0|0:0|0:0|0:0|0:0|0:0|0:0|0:0|0:0|0:0,0:0:0
323,29,23193,5,12,0:0:0
147,35,23620,6,0,B|161:126|84:157,1,140,2|8,0:0|0:0,0:0:0
31,219,24285,2,0,B|43:300|141:315,1,140,2|0,0:0|0:0,0:0:0
183,380,24950,1,10,0:0:0
268,349,25172,1,0,0:0:0
270,257,25394,6,0,B|251:169|327:131,1,140,2|8,0:0|0:0,0:0:0
402,167,26082,2,0,B|421:255|345:293,1,140,2|0,0:0|0:0,0:0:0
414,356,26745,1,10,0:0:0
495,315,26966,1,0,0:0:0
490,224,27187,6,0,B|470:130|528:73,1,140,2|8,0:0|0:0,0:0:0
463,13,27850,2,0,B|317:4,1,140,2|0,0:0|0:0,0:0:0
308,94,28513,2,0,B|235:89,1,70,10|0,0:0|0:0,0:0:0
149,113,28956,6,0,B|133:34|51:4,2,140,0|8|0,0:0|0:0|0:0,0:0:0
168,201,30061,2,0,B|176:240|217:255,2,70,0|8|0,0:0|0:0|0:0,0:0:0
82,168,30724,6,0,B|2:181|-19:262,1,140,6|8,0:0|0:0,0:0:0
19,338,31387,1,2,0:0:0
193,285,31830,1,0,0:0:0
260,345,32051,1,10,0:0:0
279,255,32272,1,0,0:0:0
344,191,32493,6,0,B|362:109|465:102,1,140,2|8,0:0|0:0,0:0:0
472,18,33157,1,2,0:0:0
298,72,33601,1,0,0:0:0
223,19,33823,1,10,0:0:0
179,99,34046,1,0,0:0:0
253,150,34268,6,0,B|266:233|188:283,1,140,2|8,0:0|0:0,0:0:0
256,346,34935,1,2,0:0:0
116,228,35379,1,0,0:0:0
29,256,35601,1,10,0:0:0
5,168,35823,1,0,0:0:0
91,140,36046,6,0,B|129:73|100:-1,1,140,0|8,0:0|0:0,0:0:0
221,142,36935,2,0,B|183:209|212:283,1,140,0|8,0:0|0:0,0:0:0
209,276,37601,1,0,0:0:0
209,276,38268,1,4,0:0:0
280,257,48471,6,0,B|297:339|397:342,2,140,0|8|0,0:0|0:0|0:0,0:0:0
344,192,49582,1,0,0:0:0
408,127,49804,2,0,B|391:45|291:42,1,140,8|0,0:0|0:0,0:0:0
200,192,50693,5,8,0:0:0
88,48,51131,1,0,0:0:0
8,88,51350,1,0,0:0:0
88,48,51569,1,8,0:0:0
8,88,51788,1,0,0:0:0
44,171,51995,6,0,B|0:302,1,140,2|8,0:0|0:0,0:0:0
92,296,52660,2,0,B|135:161,1,140,2|0,0:0|0:0,0:0:0
137,71,53326,1,8,0:0:0
221,34,53548,1,0,0:0:0
300,77,53770,6,0,B|315:157|400:154,1,140,2|8,0:0|0:0,0:0:0
456,84,54435,2,0,B|436:2|354:3,1,140,2|0,0:0|0:0,0:0:0
377,79,55101,1,8,0:0:0
377,79,55323,1,0,0:0:0
377,79,55545,5,2,0:0:0
440,249,55989,1,8,0:0:0
440,249,56210,2,0,B|357:263|343:351,1,140,2|0,0:0|0:0,0:0:0
429,375,56876,2,0,B|503:378,1,70,8|0,0:0|0:0,0:0:0
498,377,57340,5,0,0:0:0
484,195,57777,1,8,0:0:0
317,267,58215,1,0,0:0:0
253,331,58434,1,0,0:0:0
162,328,58653,2,0,B|80:311|77:211,1,135,8|4,0:0|0:0,0:0:0
57,48,59519,5,8,0:0:0
142,15,59741,1,0,0:0:0
204,80,59962,2,0,B|241:147|327:132,1,140,2|8,0:0|0:0,0:0:0
411,110,60626,1,0,0:0:0
418,200,60848,2,0,B|427:290|368:334,1,140,2|8,0:0|0:0,0:0:0
286,347,61512,2,0,B|327:235|249:152,1,210,2|8,0:0|0:0,0:0:0
362,9,62619,1,2,0:0:0
191,74,63062,1,8,0:0:0
156,158,63283,6,0,B|65:158,1,70,0|0,0:0|0:0,0:0:0
19,220,63726,1,0,0:0:0
81,285,63947,2,0,B|100:371|219:339,1,140,8|0,0:0|0:0,0:0:0
280,347,64608,5,0,0:0:0
305,260,64827,2,0,B|396:260,1,70,8|0,0:0|0:0,0:0:0
448,206,65265,2,0,B|487:221|495:261,2,70,0|0|8,0:0|0:0|0:0,0:0:0
512,140,65922,1,0,0:0:0
464,63,66147,5,6,0:0:0
373,86,66369,2,0,B|333:68|333:3,2,70,0|8|0,0:0|0:0|0:0,0:0:0
345,172,67035,2,0,B|303:157|262:200,1,70
194,151,67480,1,10,0:0:0
203,241,67702,6,0,B|173:307|92:322,1,140,0|0,0:0|0:0,0:0:0
11,284,68369,1,8,0:0:0
6,193,68591,2,0,B|35:126|116:111,1,140,2|2,0:0|0:0,0:0:0
194,151,69258,1,8,0:0:0
203,241,69480,2,0,B|173:307|92:322,1,140,2|0,0:0|0:0,0:0:0
192,368,70147,6,0,B|266:368,1,70,8|0,0:0|0:0,0:0:0
376,288,70591,2,0,B|302:288,1,70
192,208,71035,2,0,B|266:208,2,70,8|8|2,0:0|0:0|0:0,0:0:0
128,273,71702,5,2,0:0:0
43,235,71924,2,0,B|7:213|-1:184,2,70,8|2|0,0:0|0:0|0:0,0:0:0
108,171,72591,1,0,0:0:0
108,171,72813,1,10,0:0:0
193,139,73035,2,0,B|183:80|117:24,1,140,2|2,0:0|0:0,0:0:0
32,58,73702,6,0,B|40:98|-2:139,1,70,8|0,0:0|0:0,0:0:0
28,212,74146,1,0,0:0:0
106,258,74369,1,0,0:0:0
103,347,74591,5,8,0:0:0
103,347,74813,2,0,B|268:358,1,140,2|0,0:0|0:0,0:0:0
292,279,75480,1,8,0:0:0
292,279,75702,2,0,B|127:268,1,140,2|2,0:0|0:0,0:0:0
117,185,76369,1,8,0:0:0
117,185,76591,2,0,B|279:195,1,140,2|0,0:0|0:0,0:0:0
306,117,77268,6,0,B|223:111,1,70,8|0,0:0|0:0,0:0:0
117,185,77709,2,0,B|199:190,1,70
293,281,78150,2,0,B|210:275,1,70,8|0,0:0|0:0,0:0:0
342,202,78591,2,0,B|485:211,1,140,0|0,0:0|0:0,0:0:0
481,211,79253,1,0,0:0:0
481,211,79474,1,0,0:0:0
481,211,79694,1,0,0:0:0
481,211,79915,1,8,0:0:0
280,43,80330,5,4,0:0:0
116,123,80774,1,8,0:0:0
214,276,81218,1,0,0:0:0
369,370,81663,6,0,B|349:340|350:303,1,70,10|0,0:0|0:0,0:0:0
440,290,82107,2,0,B|440:252|421:223,1,70,2|0,0:0|0:0,0:0:0
353,162,82552,1,10,0:0:0
224,33,82996,1,0,0:0:0
68,127,83441,6,0,B|72:167|42:188,1,70,10|0,0:0|0:0,0:0:0
130,210,83885,2,0,B|100:231|104:271,1,70,2|0,0:0|0:0,0:0:0
29,324,84330,1,10,0:0:0
205,366,84774,1,0,0:0:0
333,237,85218,6,0,B|383:251|399:292,1,70,10|0,0:0|0:0,0:0:0
436,353,85663,1,2,0:0:0
436,353,85885,1,0,0:0:0
502,291,86107,1,8,0:0:0
468,206,86330,1,0,0:0:0
468,206,86552,1,0,0:0:0
468,206,86774,1,0,0:0:0
401,144,86996,1,8,0:0:0
477,94,87218,5,2,0:0:0
477,94,87330,1,0,0:0:0
477,94,87441,2,0,B|466:5|369:0,1,140,2|8,0:0|0:0,0:0:0
307,44,88107,1,2,0:0:0
307,44,88218,1,0,0:0:0
307,44,88330,2,0,B|296:133|199:138,1,140,2|8,0:0|0:0,0:0:0
152,199,88996,1,2,0:0:0
152,199,89107,1,0,0:0:0
152,199,89218,2,0,B|152:259|200:299,2,105,2|2|2,0:0|0:0|0:0,0:0:0
242,211,90107,5,2,0:0:0
308,273,90330,1,2,0:0:0
308,273,90552,2,0,B|397:271,1,70,2|0,0:0|0:0,0:0:0
449,214,90996,2,0,B|505:188|496:113,2,105,2|0|2,0:0|0:0|0:0,0:0:0
362,183,91885,2,0,B|367:121|298:91,2,105,2|0|2,0:0|0:0|0:0,0:0:0
295,256,92786,6,0,B|244:256,11,35
223,282,94090,2,2,B|212:366|119:369,1,140,6|0,0:0|0:0,0:0:0
72,290,94746,6,0,B|3:265,2,70,0|8|0,0:0|0:0|0:0,0:0:0
143,234,95412,1,0,0:0:0
213,175,95635,2,0,B|233:138|226:99,1,70,0|8,0:0|0:0,0:0:0
309,68,96079,6,2,B|377:110|374:204,1,140,2|0,0:0|0:0,0:0:0
417,265,96746,1,8,0:0:0
326,271,96968,2,2,B|252:279|209:344,1,140,2|0,0:0|0:0,0:0:0
125,374,97635,1,8,0:0:0
108,284,97857,2,2,B|120:128,1,140,2|0,0:0|0:0,0:0:0
202,59,98524,5,8,0:0:0
287,141,98746,1,0,0:0:0
202,59,98968,1,0,0:0:0
287,141,99190,1,0,0:0:0
202,59,99412,5,8,0:0:0
202,59,99635,1,8,0:0:0
119,97,99857,2,0,B|94:174|17:199,1,140,4|8,0:0|0:0,0:0:0
80,269,100524,2,0,B|94:310|83:350,2,70
147,208,101190,5,8,0:0:0
147,208,101412,2,2,B|300:202,1,140,6|0,0:0|0:0,0:0:0
336,125,102079,1,8,0:0:0
408,180,102301,2,0,B|445:163|445:111,2,70
397,270,102968,1,8,0:0:0
397,270,103190,6,2,B|369:350|274:358,1,140,2|0,0:0|0:0,0:0:0
239,282,103857,1,8,0:0:0
181,352,104079,2,2,B|99:346|39:383,1,140,2|0,0:0|0:0,0:0:0
7,296,104746,1,8,0:0:0
46,214,104968,2,2,B|202:226,1,140,2|0,0:0|0:0,0:0:0
244,121,105635,5,8,0:0:0
336,196,105857,1,0,0:0:0
244,121,106079,1,8,0:0:0
336,196,106301,5,0,0:0:0
336,196,106524,1,8,0:0:0
425,177,106746,1,8,0:0:0
486,244,106968,1,0,0:0:0
397,264,107190,1,8,0:0:0
459,330,107412,1,0,0:0:0
370,351,107635,1,8,0:0:0
309,283,107857,5,0,0:0:0
138,346,108301,1,0,0:0:0
92,176,108724,1,0,0:0:0
92,176,108837,1,0,0:0:0
97,18,120769,5,2,0:0:0
89,25,120883,1,0,0:0:0
81,32,120997,1,0,0:0:0
148,95,121224,2,0,B|188:167|140:239,1,140,2|2,0:0|0:0,0:0:0
154,235,121792,1,0,0:0:0
161,242,121906,1,2,0:0:0
168,249,122019,1,0,0:0:0
415,319,122663,6,0,B|384:311,1,23.3333333333333,10|0,0:0|0:0,0:0:0
379,299,122814,2,0,B|339:227|387:155,1,140,10|8,0:0|0:0,0:0:0
261,25,123724,2,0,B|301:97|253:169,1,140,8|8,0:0|0:0,0:0:0
187,213,124406,2,0,B|43:213,2,140,2|2|2,0:0|0:0|0:0,0:0:0
194,220,125428,1,0,0:0:0
201,227,125542,1,0,0:0:0
208,234,125656,1,0,0:0:0
376,273,125997,2,8,B|388:358|487:382,1,140,10|8,0:0|0:0,0:0:0
505,197,126906,5,10,0:0:0
497,189,127019,2,0,B|487:121|408:101,1,105,0|8,0:0|0:0,0:0:0
273,26,127815,1,8,0:0:0
199,80,128042,2,0,B|173:153|77:165,1,140,2|2,0:0|0:0,0:0:0
101,169,128610,1,0,0:0:0
108,176,128724,1,0,0:0:0
166,254,128951,1,2,0:0:0
173,246,129065,1,0,0:0:0
180,238,129178,2,0,B|205:166|284:157,2,140,0|10|8,0:0|0:0|0:0,0:0:0
362,245,130542,5,10,0:0:0
355,253,130656,2,0,B|363:374,1,105,0|8,0:0|0:0,0:0:0
236,224,131451,1,8,0:0:0
294,154,131678,2,0,B|268:67|169:80,2,140,2|2|2,0:0|0:0|0:0,0:0:0
301,161,132701,1,0,0:0:0
308,168,132815,1,0,0:0:0
315,175,132928,1,0,0:0:0
163,279,133269,1,10,0:0:0
155,287,133383,1,0,0:0:0
147,295,133497,1,0,0:0:0
139,303,133610,1,0,0:0:0
131,311,133724,1,8,0:0:0
47,149,134178,5,10,0:0:0
54,141,134292,2,0,B|90:89|42:21,1,105,0|8,0:0|0:0,0:0:0
216,125,135088,2,0,B|199:156|219:196,1,70,8|2,0:0|0:0,0:0:0
210,199,135428,1,0,0:0:0
202,206,135542,1,0,0:0:0
292,203,135769,2,0,B|327:275|292:347,1,140,2|2,0:0|0:0,0:0:0
303,345,136338,1,0,0:0:0
310,352,136451,1,0,0:0:0
317,359,136565,1,0,0:0:0
427,220,136906,2,8,B|391:142|430:74,1,140,10|8,0:0|0:0,0:0:0
424,84,137588,1,8,0:0:0
424,84,137815,5,2,0:0:0
88,300,138269,1,10,0:0:0
256,192,138383,12,2,141451,0:0:0
63,107,141906,6,0,B|78:189|177:205,1,140,2|8,0:0|0:0,0:0:0
216,268,142588,2,0,B|201:350|102:366,2,140,2|2|2,0:0|0:0|0:0,0:0:0
223,260,143610,1,0,0:0:0
230,252,143724,2,0,B|377:252,1,140,0|10,0:0|0:0,0:0:0
377,244,144292,1,0,0:0:0
384,236,144406,1,0,0:0:0
391,228,144519,6,2,B|385:161|443:115,1,105,2|0,0:0|0:0,0:0:0
336,107,145088,2,0,B|252:100|238:-1,1,140,2|2,0:0|0:0,0:0:0
256,192,145656,12,2,148724,0:0:0
390,322,149178,6,0,B|375:240|276:224,1,140,2|8,0:0|0:0,0:0:0
238,159,149860,2,0,B|253:77|352:61,2,140,2|2|0,0:0|0:0|0:0,0:0:0
202,159,150883,1,0,0:0:0
167,159,150997,1,0,0:0:0
131,159,151110,1,0,0:0:0
144,172,151678,5,0,0:0:0
144,172,151906,1,8,0:0:0
144,172,152133,1,0,0:0:0
144,172,152383,2,0,B|134:261|27:279,2,140,2|8|0,0:0|0:0|0:0,0:0:0
184,90,153494,1,0,0:0:0
266,50,153717,6,0,B|353:80,1,70,10|0,0:0|0:0,0:0:0
397,10,154161,2,0,B|476:31|483:117,2,140,2|8|0,0:0|0:0|0:0,0:0:0
396,101,155272,1,0,0:0:0
437,182,155494,6,0,B|429:275,1,70,10|0,0:0|0:0,0:0:0
344,278,155939,2,0,B|255:288|237:395,2,140,2|8|0,0:0|0:0|0:0,0:0:0
347,186,157050,1,0,0:0:0
297,110,157272,2,0,B|198:104,1,70,10|0,0:0|0:0,0:0:0
144,66,157717,5,0,0:0:0
144,66,157939,1,0,0:0:0
69,118,158161,2,0,B|63:217,1,70,8|0,0:0|0:0,0:0:0
139,240,158606,1,0,0:0:0
139,240,158828,1,0,0:0:0
62,288,159050,2,0,B|55:376,1,70,8|0,0:0|0:0,0:0:0
145,379,159494,6,0,B|224:369|241:291,1,140,6|8,0:0|0:0,0:0:0
255,201,160161,2,0,B|272:123|351:113,1,140,2|0,0:0|0:0,0:0:0
426,61,160828,2,0,B|461:-7,1,70,10|0,0:0|0:0,0:0:0
511,71,161272,2,0,B|476:139,1,70,2|0,0:0|0:0,0:0:0
399,177,161717,5,8,0:0:0
399,177,161939,2,0,B|413:267|506:281,1,140,2|0,0:0|0:0,0:0:0
423,344,162606,2,0,B|339:376,1,70,10|0,0:0|0:0,0:0:0
283,315,163050,2,0,B|367:283,1,70,2|0,0:0|0:0,0:0:0
297,214,163494,5,8,0:0:0
213,248,163717,2,0,B|135:274|57:217,1,140,2|0,0:0|0:0,0:0:0
27,157,164383,2,0,B|23:64,1,70,10|0,0:0|0:0,0:0:0
23,87,164832,1,0,0:0:0
185,5,165269,5,0,0:0:0
330,114,165707,2,0,B|325:166|268:178,1,70
218,222,166145,2,0,B|218:311|323:325,1,136,8|2,0:0|0:0,0:0:0
367,272,166790,6,0,B|377:234|429:223,2,70,0|8|0,0:0|0:0|0:0,0:0:0
432,335,167453,2,0,B|518:330,1,70
501,239,167896,1,10,0:0:0
501,239,168117,6,0,B|485:89,1,140,0|0,0:0|0:0,0:0:0
415,42,168781,1,8,0:0:0
356,112,169002,2,0,B|372:262,1,140,2|2,0:0|0:0,0:0:0
318,325,169666,1,8,0:0:0
249,265,169887,2,0,B|233:115,1,140,2|0,0:0|0:0,0:0:0
143,114,170551,6,0,B|68:122,1,70,8|0,0:0|0:0,0:0:0
20,251,170993,2,0,B|12:181,1,70
92,296,171436,2,0,B|161:288,2,70,8|8|2,0:0|0:0|0:0,0:0:0
122,201,172099,5,2,0:0:0
213,162,172321,2,0,B|220:231,2,70,8|2|0,0:0|0:0|0:0,0:0:0
270,91,172984,1,0,0:0:0
270,91,173206,1,10,0:0:0
352,136,173427,2,0,B|361:212|427:250,1,140,2|2,0:0|0:0,0:0:0
339,313,174124,6,0,B|332:358|289:374,1,70,8|0,0:0|0:0,0:0:0
264,285,174568,2,0,B|271:240|314:224,1,70
226,177,175013,5,8,0:0:0
226,177,175235,2,0,B|197:258|98:260,1,140,2|0,0:0|0:0,0:0:0
122,166,175902,1,8,0:0:0
122,166,176124,2,0,B|151:85|250:83,1,140,2|2,0:0|0:0,0:0:0
316,78,176790,1,8,0:0:0
316,78,177013,2,0,B|391:77|420:-3,1,140,2|0,0:0|0:0,0:0:0
471,73,177679,5,8,0:0:0
374,143,177902,1,0,0:0:0
484,186,178124,1,0,0:0:0
390,259,178346,2,0,B|379:267|380:288,3,23.3333333333333,0|0|0|10,0:0|0:0|0:0|0:0,0:0:0
300,325,178790,5,0,0:0:0
300,325,179013,1,2,0:0:0
245,252,179235,1,0,0:0:0
154,264,179457,2,0,B|114:228|124:179,2,70,10|0|2,0:0|0:0|0:0,0:0:0
70,301,180124,1,0,0:0:0
12,230,180346,2,0,B|53:170|38:93,1,140,10|2,0:0|0:0,0:0:0
104,32,181013,5,0,0:0:0
156,106,181235,2,0,B|193:117|242:114,2,70,8|0|0,0:0|0:0|0:0,0:0:0
116,187,181901,1,0,0:0:0
167,262,182124,1,10,0:0:0
254,236,182346,6,0,B|311:192|401:205,1,140
465,248,183012,1,8,0:0:0
466,156,183235,2,0,B|466:72|524:11,1,140,2|2,0:0|0:0,0:0:0
420,13,183901,1,8,0:0:0
341,60,184124,2,0,B|262:55|212:3,1,140,2|0,0:0|0:0,0:0:0
203,94,184790,5,8,0:0:0
115,174,185012,1,0,0:0:0
203,94,185235,1,0,0:0:0
115,174,185457,1,0,0:0:0
203,94,185679,5,8,0:0:0
203,94,185901,1,8,0:0:0
258,166,186123,2,0,B|293:232|377:228,1,140,2|8,0:0|0:0,0:0:0
408,312,186790,2,0,B|407:356|361:377,2,70,2|0|0,0:0|0:0|0:0,0:0:0
317,301,187457,5,10,0:0:0
317,301,187679,2,0,B|167:294,1,140,2|2,0:0|0:0,0:0:0
214,211,188346,2,0,B|139:207,1,70,8|0,0:0|0:0,0:0:0
109,123,188790,2,0,B|178:126,1,70
220,45,189234,1,8,0:0:0
220,45,189457,6,0,B|70:38,1,140,2|0,0:0|0:0,0:0:0
15,102,190123,1,8,0:0:0
15,102,190346,2,0,B|8:252,1,140,2|2,0:0|0:0,0:0:0
72,306,191012,1,8,0:0:0
72,306,191234,2,0,B|222:313,1,140,2|0,0:0|0:0,0:0:0
296,272,191901,6,0,B|299:197,1,70,8|0,0:0|0:0,0:0:0
216,112,192345,2,0,B|212:187,1,70,8|0,0:0|0:0,0:0:0
360,128,192790,2,0,B|285:125,1,70,8|0,0:0|0:0,0:0:0
152,256,193234,2,0,B|227:260,2,70,8|0|8,0:0|0:0|0:0,0:0:0
314,101,193901,6,0,B|384:104,1,70,0|8,0:0|0:0,0:0:0
333,179,194345,2,0,B|263:176,1,70,0|8,0:0|0:0,0:0:0
383,103,195004,5,6,0:0:0
445,270,195448,1,2,0:0:0
283,354,195892,2,0,B|224:365,3,35,10|0|0|0,0:0|0:0|0:0|0:0,0:0:0
216,327,196337,2,0,B|157:338,3,35,2|0|0|0,0:0|0:0|0:0|0:0,0:0:0
149,301,196781,2,0,B|90:312,3,35,2|0|0|0,0:0|0:0|0:0|0:0,0:0:0
82,274,197226,2,0,B|23:285,3,35,2|0|0|0,0:0|0:0|0:0|0:0,0:0:0
15,248,197670,1,10,0:0:0
57,167,197892,1,8,0:0:0
64,76,198114,6,2,B|152:86|160:186,1,140,2|6,0:0|0:0,0:0:0
284,35,199003,1,2,0:0:0
260,215,199448,2,0,B|310:254|309:256,3,35,10|0|0|0,0:0|0:0|0:0|0:0,0:0:0
319,204,199892,2,0,B|369:243|368:245,3,35,2|0|0|0,0:0|0:0|0:0|0:0,0:0:0
378,193,200337,2,0,B|428:232|427:234,3,35,2|0|0|0,0:0|0:0|0:0|0:0,0:0:0
437,182,200781,2,0,B|487:221|486:223,3,35,2|0|0|0,0:0|0:0|0:0|0:0,0:0:0
496,171,201225,1,10,0:0:0
468,84,201448,1,8,0:0:0
421,9,201670,6,2,B|343:41|358:126,1,140,2|4,0:0|0:0,0:0:0
357,119,202225,1,0,0:0:0
357,119,202337,1,0,0:0:0
281,170,202559,1,2,0:0:0
281,170,202670,1,0,0:0:0
281,170,202781,1,0,0:0:0
276,79,203003,2,0,B|224:63,3,35,10|0|0|0,0:0|0:0|0:0|0:0,0:0:0
210,101,203448,2,0,B|158:85,3,35,2|0|0|0,0:0|0:0|0:0|0:0,0:0:0
144,122,203892,2,0,B|92:106,3,35,2|0|0|0,0:0|0:0|0:0|0:0,0:0:0
81,146,204336,2,0,B|29:130,3,35,2|0|0|0,0:0|0:0|0:0|0:0,0:0:0
15,168,204781,1,10,0:0:0
75,236,205003,1,8,0:0:0
165,239,205225,6,2,B|178:331|78:360,1,140,2|4,0:0|0:0,0:0:0
102,352,205781,1,0,0:0:0
102,352,205892,1,0,0:0:0
187,383,206114,1,2,0:0:0
187,383,206225,1,0,0:0:0
187,383,206336,1,0,0:0:0
253,320,206559,2,0,B|299:327,3,35,10|0|0|0,0:0|0:0|0:0|0:0,0:0:0
319,293,207003,2,0,B|365:300,3,35,2|0|0|0,0:0|0:0|0:0|0:0,0:0:0
385,266,207447,2,8,B|449:219|424:142,1,140,12|8,0:0|0:0,0:0:0
305,4,208336,6,8,B|241:51|266:128,1,140
323,198,209003,1,8,0:0:0
245,245,209225,2,0,B|245:338|140:354,1,140,2|2,0:0|0:0,0:0:0
256,192,209781,12,2,212781,0:0:0
192,51,213225,6,0,B|109:13|42:94,1,140,2|8,0:0|0:0,0:0:0
138,123,213892,2,0,B|220:160|287:79,1,140,2|2,0:0|0:0,0:0:0
274,108,214447,1,0,0:0:0
281,115,214558,1,0,0:0:0
357,165,214781,1,2,0:0:0
349,172,214892,1,0,0:0:0
341,179,215003,1,0,0:0:0
333,186,215114,1,0,0:0:0
415,294,215447,5,10,0:0:0
407,301,215558,1,0,0:0:0
399,308,215669,2,0,B|346:375|255:334,1,140,0|0,0:0|0:0,0:0:0
273,341,216336,1,2,0:0:0
239,43,216780,1,2,0:0:0
256,192,216892,12,2,219891,0:0:0
318,24,220336,6,0,B|281:93|319:182,1,140,2|8,0:0|0:0,0:0:0
400,178,221003,2,0,B|437:247|399:336,1,140,2|2,0:0|0:0,0:0:0
400,321,221558,1,0,0:0:0
392,328,221669,1,0,0:0:0
184,347,221891,5,0,0:0:0
151,314,222003,1,0,0:0:0
118,281,222114,1,0,0:0:0
85,248,222225,1,0,0:0:0
