osu file format v5

[General]
AudioFilename: Skye Sweetnam - Sharada.mp3
AudioLeadIn: 0
PreviewTime: 33270
Countdown: 0
SampleSet: Normal
StackLeniency: 0.3
Mode: 0
LetterboxInBreaks: 1

[Metadata]
Title:Sharada
Artist:Skye Sweetnam
Creator:Nexy
Version:Rough
Source:
Tags:Haruhi Yuki Mikuru SOS Tsuruya Pop

[Difficulty]
HPDrainRate:7
CircleSize:5
OverallDifficulty:7
SliderMultiplier:1.2
SliderTickRate:0.5

[Events]
//Background and Video events
0,0,"Tsuruya.png"
//Break Periods
2,48275,56881
//Storyboard Layer 0 (Background)
//Storyboard Layer 1 (Failing)
//Storyboard Layer 2 (Passing)
//Storyboard Layer 3 (Foreground)
//Storyboard Sound Samples
//Background Colour Transformations
3,100,163,162,255

[TimingPoints]
7708,441.176470588235,4,1,0,70,1,0
16310,-200,4,1,0,70,0,0
18075,-100,4,1,0,70,0,0
31421,-100,4,1,0,70,0,1
47413,-100,4,1,0,70,0,0
71873,-100,4,1,0,70,0,1
95722,-100,4,2,0,60,0,0
98810,-100,4,2,0,80,0,0
100134,-100,4,2,0,90,0,0
103002,-100,4,2,0,100,0,0
106752,-100,4,1,0,20,0,0
106862,-100,4,1,0,30,0,0
106972,-100,4,1,0,39,0,0
107082,-100,4,1,0,50,0,0
107193,-100,4,1,0,60,0,0
107302,-100,4,1,0,70,0,1
123737,-100,4,1,0,70,0,0
141163,-100,4,1,0,70,0,1
141383,-100,4,1,0,65,0,1
141603,-100,4,1,0,60,0,1
141823,-100,4,1,0,54,0,1
142043,-100,4,1,0,50,0,1
142263,-100,4,1,0,45,0,1
142483,-100,4,1,0,40,0,1
142703,-100,4,1,0,35,0,1
142923,-100,4,1,0,30,0,1
143143,-100,4,1,0,24,0,0

[Colours]
Combo1 : 0,255,0
Combo2 : 255,0,255
Combo3 : 128,0,255
Combo4 : 0,255,255

[HitObjects]
88,152,7487,2,0,L|80:128|144:112,2,60,0|0|0
208,176,8369,1,0
208,232,8590,1,0
208,288,8810,2,0,L|240:280|256:240|256:224,2,60,2|0|0
208,288,9472,2,0,L|168:272|160:232|160:232,1,60,2|0
384,96,10134,6,0,L|416:104|408:160,2,60,0|0|2
344,136,10796,1,0
344,192,11016,1,0
288,216,11237,1,2
232,192,11458,1,0
192,232,11678,2,0,L|160:216|184:176,2,60,0|0|2
32,144,12781,6,0,L|72:96,2,60,0|0|2
80,168,13443,1,0
96,224,13663,1,0
144,192,13884,1,2
160,248,14105,1,0
216,264,14325,2,0,L|200:208|264:232,1,120,0|0
368,272,15208,5,0
368,272,15428,1,0
328,312,15649,1,0
328,312,15869,1,0
256,192,16310,12,2,18075
256,192,18296,5,0
256,192,18516,1,2
440,320,18958,5,0
384,304,19178,2,0,B|344:312|304:256,1,60
368,240,19619,2,0,B|320:200|288:256,1,60,0|2
272,272,20060,2,0,B|224:256|224:216,1,60,0|0
272,192,20502,1,0
216,176,20722,1,2
256,128,20943,1,2
64,320,21384,6,0,B|56:256|96:232,2,60,0|0|0
112,288,22046,1,0
168,264,22266,2,0,B|152:216|80:240,2,60,0|0|2
152,320,22928,1,2
208,304,23149,2,0,B|208:360|160:368,2,60,0|0|2
160,192,24031,6,0,B|112:136|176:88,1,120,0|0
264,16,24913,2,0,B|304:72|240:120,1,120,0|0
240,240,25796,1,0
144,168,26237,1,0
240,96,26678,1,0
296,88,26899,1,0
328,136,27119,1,0
296,184,27340,1,2
296,304,27781,1,2
176,320,28222,5,2
136,208,28663,1,0
136,208,28884,1,2
136,208,29105,1,0
200,104,29546,5,2
200,104,29766,1,0
200,104,29987,1,0
256,128,30208,1,2
256,128,30428,1,0
256,128,30649,1,0
312,104,30869,1,2
312,104,31090,1,2
312,104,31310,1,2
312,104,31531,1,0
208,160,31972,5,0
256,128,32193,1,0
264,72,32413,1,0
256,128,32634,1,0
296,168,32855,1,0
128,192,33296,6,0,B|40:192,1,60,0|0
72,248,33737,1,0
128,248,33958,1,0
128,304,34178,2,0,B|32:304,2,60,0|0|0
188,304,34840,1,0
248,304,35060,5,0
296,264,35281,1,0
304,208,35502,1,2
296,264,35722,1,2
296,152,36163,1,4
112,152,36825,5,0
296,152,37046,1,2
208,152,37487,1,0
208,248,37708,1,0
208,56,37928,1,2
328,88,38369,5,2
384,64,38590,1,0
376,120,38810,1,0
400,168,39031,1,0
296,240,39472,2,0,B|224:240,1,60,0|2
56,240,40355,6,0,B|152:240,1,60,2|0
184,240,40796,1,0
184,240,41016,1,2
116,240,41237,2,0,B|44:240,3,60,2|0|0|4
288,288,42340,6,0,B|320:224,1,60
341,181,42781,2,0,B|309:245,1,60,0|0
200,280,43443,2,0,B|120:256,2,60
200,280,44105,2,0,B|224:208,1,60
232,168,44546,1,2
218,223,44766,1,0
232,168,44987,1,0
248,112,45207,1,4
384,224,45869,5,4
328,224,46090,2,0,B|264:224,1,60
218,223,46531,1,0
96,224,46972,1,4
96,224,47193,2,0,B|168:224,1,60
219,223,47634,2,0,B|220:151,1,60,4|0
220,104,48075,1,4
240,232,57781,6,0,B|296:176,1,60,0|2
328,232,58222,2,0,B|382:291,2,60
283,189,58884,2,0,B|227:133,1,60,2|0
120,112,59546,5,0
120,168,59766,1,0
120,288,60207,1,2
176,288,60428,1,0
232,288,60649,1,2
128,232,61090,1,2
184,232,61310,1,0
240,232,61531,1,2
240,112,61972,5,0
296,112,62193,1,0
352,112,62413,1,0
408,136,62634,1,2
352,168,62855,1,0
240,208,63296,1,0
296,208,63516,1,2
296,264,63737,1,0
240,264,63957,1,0
184,264,64178,1,2
80,200,64619,5,0
184,264,65060,1,0
184,144,65502,1,0
184,264,65943,1,0
184,144,66384,1,2
184,144,66605,1,0
184,144,66825,1,2
288,200,67266,6,0,C|368:200,1,60
408,200,67707,2,0,C|408:112,1,60,0|2
352,144,68149,1,0
288,144,68369,1,0
224,144,68590,2,0,C|152:144,3,60,0|2|0|0
104,144,69472,6,0,C|64:144|48:176,1,60,2|0
40,216,69913,2,0,C|32:248|56:288,1,60,0|2
88,312,70355,2,0,C|120:328|152:312,1,60,2|0
192,288,70796,2,0,C|224:256|208:216,1,60,2|0
208,184,71237,2,0,C|184:152|152:152,1,60,0|2
104,144,71678,2,0,C|64:144|48:176,1,60,2|0
54,160,72009,1,0
54,159,72119,1,0
56,40,72560,6,0,C|120:32|192:48,1,120
232,56,73222,1,0
288,72,73443,1,0
408,72,73884,5,0
408,72,74105,1,0
304,136,74546,1,0
248,136,74766,1,0
224,184,74987,1,2
224,304,75428,5,0
264,264,75649,1,0
304,224,75869,1,0
344,264,76090,1,0
384,224,76310,1,0
384,104,76752,6,0,C|384:192,1,60
384,164,77193,2,0,C|384:232,1,60,0|2
384,224,77634,1,2
264,224,78075,2,0,C|360:224,1,60,2|2
264,224,78516,1,2
160,168,78957,5,0
160,168,79178,1,0
96,264,79619,1,0
216,264,80060,1,0
216,264,80281,2,0,B|296:264|344:192|296:168,1,120
312,144,80943,5,0
312,88,81163,2,0,B|312:16,1,60,0|0
208,88,81825,1,0
208,144,82046,2,0,B|208:224,1,60,2|2
208,264,82487,1,0
208,264,82707,1,2
264,264,82928,5,0
320,264,83149,1,2
264,264,83369,1,0
320,264,83590,1,2
320,144,84031,2,0,B|320:72,1,60,0|2
199,144,84693,2,0,B|359:144,1,120,0|2
319,144,85355,2,0,B|392:144,5,60,0|0|0|0|0|0
320,144,86678,6,0,B|320:32,1,60
320,144,87119,2,0,B|320:232,1,60
336,264,87560,2,0,B|280:264,8,30,0|0|0|0|0|0|0|0|4
216,264,88884,5,8
112,328,89325,1,0
112,208,89766,1,8
216,144,90208,1,0
320,200,90649,1,8
320,88,91090,1,0
320,144,91310,1,8
320,144,91531,1,8
200,120,91972,6,0,B|144:112|112:184|160:216,2,120,0|8|0
200,176,93075,1,0
200,232,93296,1,8
144,256,93516,1,8
144,198,93737,1,0
272,192,94178,5,8
88,192,94840,1,8
24,192,95060,1,8
88,192,95281,1,8
248,88,95943,6,8,B|336:40|368:168,1,120,8|0
360,232,96825,2,8,B|408:144|280:112,1,120,8|0
208,120,97708,2,8,B|296:72|328:200,1,120,8|0
312,264,98590,2,8,B|360:176|232:144,1,120,8|0
160,152,99472,2,8,B|248:104|280:232,1,120,8|0
264,296,100355,2,8,B|312:208|184:176,1,120,8|0
112,184,101237,2,8,B|200:136|232:264,1,120,8|0
120,288,102119,2,0,B|240:192,1,120,8|0
213,213,103002,2,0,B|328:120,1,120,8|0
306,137,103884,2,0,B|408:56,1,120,8|0
399,62,104546,6,2,B|400:128,1,60
399,121,104987,2,2,B|400:192,1,60,0|2
399,180,105428,2,2,B|400:256,1,60,0|2
399,239,105869,2,0,B|400:368,1,120,2|0
399,358,106531,1,2
399,357,106752,2,0,B|353:357,6,30
312,272,107855,6,0,B|312:208,2,60
200,216,108737,2,0,B|200:280,2,60,0|0|0
200,216,109399,1,2
136,156,109840,2,0,B|136:80,1,60,2|0
136,96,110281,1,2
136,216,110722,1,0
136,272,110943,5,0
136,272,111163,1,0
176,320,111384,1,0
176,320,111605,2,0,C|200:296|208:264,1,60,0|0
208,208,112046,2,0,C|208:280|248:336,1,120
296,320,112708,5,0
296,256,112928,1,2
296,136,113369,1,2
347,167,113590,1,0
400,195,113810,1,2
296,256,114252,5,0
240,232,114472,1,0
128,184,114913,2,0,C|128:88,1,60
128,184,115355,6,0,C|200:184,1,60
188,184,115796,1,0
188,184,116016,1,0
188,184,116237,1,0
188,184,116458,1,2
188,303,116899,1,2
188,359,117119,1,0
188,304,117340,1,2
189,183,117781,1,2
256,80,118222,6,0,C|256:120|296:128,1,60,0|2
280,184,118663,2,0,C|248:200|248:240,1,60,0|2
192,248,119105,2,0,C|160:240|128:256,2,60,0|2|0
240,280,119766,1,2
288,312,119987,2,0,C|304:272|280:248,1,60,0|2
248,224,120428,2,0,C|256:192|288:184,1,60,2|2
344,176,120869,2,0,C|410:168,1,60,2|2
464,160,121310,2,0,C|400:169,1,60,2|2
405,169,121752,1,2
256,192,121972,12,0,123737
144,192,124178,5,0
144,192,124399,1,0
144,192,124619,1,0
200,296,125060,6,0,C|280:296,1,60,0|2
260,296,125502,2,0,C|260:226,1,60,0|0
260,236,125943,2,0,C|346:236,1,60,0|2
320,236,126384,2,0,C|320:152,1,60,2|2
376,176,126825,6,0,B|424:96|296:48,1,120
288,72,127487,2,0,B|288:216,1,120
107,187,128590,6,0,B|19:187,2,60,0|2|2
107,187,129252,2,0,B|187:187,2,60,2|2|2
107,187,130134,1,2
108,276,130355,5,0
227,276,130796,1,0
225,156,131237,1,0
225,156,131458,1,0
225,156,131678,1,0
225,156,131899,1,0
315,157,132119,5,2
404,157,132340,1,0
225,156,132781,1,2
135,157,133002,1,0
225,157,133222,1,2
404,158,133663,1,2
257,53,134105,5,0
188,111,134325,1,2
119,168,134546,1,0
51,227,134766,1,2
230,211,135208,6,0,B|298:226|280:303|358:287,1,120,0|0
319,286,135869,1,0
319,286,136090,5,2
319,286,136310,2,0,B|285:269|274:212|229:212,1,120,2|0
184,192,136972,5,4
222,148,137193,1,0
256,105,137413,1,0
336,192,137855,5,4
296,253,138075,1,4
256,312,138296,1,0
184,192,138737,5,4
219,134,138958,1,0
256,78,139178,1,0
336,192,139619,5,4
295,268,139840,1,4
256,341,140060,1,0
184,192,140502,5,4
220,120,140722,1,0
256,48,140943,1,0
256,120,141163,6,0,B|256:200,1,60
256,180,141605,2,0,B|256:264,1,60
256,240,142046,1,0
256,180,142266,1,0
257,120,142487,1,0
256,180,142708,1,0
256,208,142818,1,0
256,240,142928,1,0
256,272,143038,1,0
256,304,143149,1,4
