osu file format v12

[General]
AudioFilename: Tennis Elbow.mp3
AudioLeadIn: 2000
PreviewTime: 172
Countdown: 0
SampleSet: Soft
StackLeniency: 0.7
Mode: 0
LetterboxInBreaks: 1

[Editor]
DistanceSpacing: 1.1
BeatDivisor: 4
GridSize: 4

[Metadata]
Title:Tennis Elbow
TitleUnicode:Tennis Elbow
Artist:Sky Sailing
ArtistUnicode:Sky Sailing
Creator:Zero__wind
Version:Normal
Source:
Tags:An Airplane Carried Me to Bed Adam Young
BeatmapID:226846
BeatmapSetID:81043

[Difficulty]
HPDrainRate:4
CircleSize:3
OverallDifficulty:4
ApproachRate:5
SliderMultiplier:1.6
SliderTickRate:2

[Events]
//Background and Video events
0,0,"lu.jpg",0,0
//Break Periods
2,64413,75014
2,112414,125014
//Storyboard Layer 0 (Background)
//Storyboard Layer 1 (Fail)
//Storyboard Layer 2 (Pass)
//Storyboard Layer 3 (Foreground)
//Storyboard Sound Samples
//Background Colour Transformations
3,100,163,162,255

[TimingPoints]
214,500,4,2,1,25,1,0
14464,-100,4,1,2,15,0,0
14714,-100,4,1,2,25,0,0
14964,-100,4,2,1,25,0,0
15464,-100,4,2,2,40,0,0
15714,-100,4,2,1,30,0,0
16964,-100,4,2,3,30,0,0
17089,-100,4,2,1,30,0,0
22964,-100,4,2,3,30,0,0
23089,-100,4,2,1,30,0,0
31464,-100,4,2,2,40,0,0
31714,-100,4,1,2,30,0,0
32214,-100,4,2,1,30,0,0
36964,-100,4,2,3,30,0,0
37089,-100,4,2,1,30,0,0
47464,-100,4,2,2,40,0,0
47714,-100,4,1,2,30,0,0
48214,-100,4,2,1,30,0,0
48964,-100,4,2,3,30,0,0
49089,-100,4,2,1,30,0,0
58964,-100,4,2,3,30,0,0
59089,-100,4,2,1,30,0,0
63464,-100,4,2,2,40,0,0
63714,-100,4,1,1,30,0,0
64214,-100,4,2,1,30,0,0
79464,-100,4,2,2,40,0,0
79714,-100,4,1,1,30,0,0
79964,-100,4,1,1,20,0,0
80214,-100,4,2,1,30,0,0
80964,-100,4,2,3,30,0,0
81089,-100,4,2,1,30,0,0
82714,-100,4,3,3,30,0,0
82839,-100,4,2,1,30,0,0
95464,-100,4,2,2,40,0,0
95714,-100,4,1,2,30,0,0
96214,-100,4,2,1,30,0,0
104714,-100,4,3,3,30,0,0
104839,-100,4,2,1,30,0,0
111464,-100,4,2,2,40,0,0
111714,-100,4,1,1,30,0,0
111964,-100,4,1,1,20,0,0
112214,-100,4,2,1,30,0,0
126464,-100,4,1,1,30,0,0
126714,-100,4,1,1,40,0,0
126964,-100,4,1,1,50,0,0
127214,-100,4,1,1,60,0,0
127464,-100,4,1,1,70,0,0
127714,-100,4,2,2,60,0,0
128214,-100,4,2,1,30,0,0
144214,-100,4,2,1,40,0,1
144339,-100,4,2,1,40,0,0
145589,-100,4,2,2,40,0,0
146589,-100,4,2,2,50,0,0
146964,-100,4,2,1,40,0,0
147589,-100,4,2,2,50,0,0
147964,-100,4,2,2,30,0,0
148214,-100,4,2,1,40,0,0
149464,-100,4,2,2,30,0,0
149589,-100,4,2,2,40,0,0
149964,-100,4,2,2,30,0,0
150214,-100,4,2,2,50,0,0
150589,-100,4,2,2,40,0,0
150964,-100,4,2,1,40,0,0
151464,-100,4,2,2,30,0,0
151714,-100,4,2,3,40,0,0
151964,-100,4,2,2,50,0,0
152214,-100,4,2,1,40,0,0
153589,-100,4,2,2,40,0,0
154589,-100,4,2,2,50,0,0
154964,-100,4,2,1,40,0,0
155589,-100,4,2,2,50,0,0
155964,-100,4,2,2,30,0,0
156214,-100,4,2,1,40,0,0
157464,-100,4,2,2,30,0,0
157589,-100,4,2,2,40,0,0
158214,-100,4,2,2,50,0,0
158589,-100,4,2,2,40,0,0
158964,-100,4,2,1,40,0,0
159464,-100,4,2,2,30,0,0
159714,-100,4,2,3,40,0,0
159964,-100,4,2,2,50,0,0
160214,-100,4,2,1,40,0,0
161589,-100,4,2,2,40,0,0
162589,-100,4,2,2,50,0,0
162964,-100,4,2,1,40,0,0
163589,-100,4,2,2,50,0,0
163964,-100,4,2,2,30,0,0
164214,-100,4,2,1,40,0,0
165464,-100,4,2,2,40,0,0
165589,-100,4,2,2,50,0,0
166589,-100,4,2,2,40,0,0
166964,-100,4,2,1,40,0,0
167464,-100,4,2,2,30,0,0
167714,-100,4,2,3,40,0,0
167964,-100,4,2,2,50,0,0
168214,-100,4,2,1,40,0,0
169589,-100,4,2,2,40,0,0
170589,-100,4,2,2,50,0,0
170964,-100,4,2,1,40,0,0
171589,-100,4,2,2,50,0,0
171964,-100,4,2,2,30,0,0
172214,-100,4,2,2,50,0,0
172589,-100,4,2,1,40,0,0
173464,-100,4,2,2,30,0,0
173589,-100,4,2,2,40,0,0
174214,-100,4,2,2,5,0,0
174464,-100,4,2,1,10,0,0
174714,-100,4,2,1,20,0,0
174964,-100,4,2,1,30,0,0
175214,-100,4,2,1,40,0,0
175464,-100,4,2,1,50,0,0
175714,-100,4,2,1,60,0,0
175964,-100,4,2,1,70,0,0
176214,-100,4,1,1,40,0,1
176464,-100,4,2,1,40,0,0

[Colours]
Combo1 : 226,220,24
Combo2 : 224,121,140
Combo3 : 122,195,212
Combo4 : 178,64,157
Combo5 : 238,117,110
Combo6 : 118,202,70
Combo7 : 236,226,243

[HitObjects]
348,296,214,2,0,P|296:248|296:160,1,160,2|8,0:0|1:0,0:0:0:0:
332,84,964,2,0,L|392:24,1,80,2|2,0:0|0:0,0:0:0:0:
385,203,1714,2,0,P|300:208|224:164,1,160,8|2,1:0|0:0,0:0:0:0:
100,60,2714,2,0,P|68:32|32:16,2,80,8|2|2,1:0|0:0|0:0,0:0:0:0:
235,174,3714,1,8,1:0:0:0:
60,192,4214,6,0,P|84:268|144:328,1,160,2|8,0:0|1:0,0:0:0:0:
224,308,4964,2,0,L|296:272,1,80,2|2,0:0|0:0,0:0:0:0:
416,144,5714,2,0,P|332:84|272:80,1,160,8|2,1:0|0:0,0:0:0:0:
128,172,6714,2,0,L|64:228,1,80,8|2,1:0|0:0,0:0:0:0:
148,260,7214,2,0,L|142:344,1,80,2|0,0:0|0:0,0:0:0:0:
224,312,7714,2,0,L|279:375,1,80,8|0,1:0|0:0,0:0:0:0:
328,300,8214,6,0,P|364:272|384:164,1,160,2|8,0:0|1:0,0:0:0:0:
296,172,8964,1,2,0:0:0:0:
236,108,9214,2,0,P|208:72|100:52,1,160,2|8,0:0|1:0,0:0:0:0:
211,190,10214,2,0,P|296:168|320:104,1,160,2|8,0:0|1:0,0:0:0:0:
398,151,10964,1,2,0:0:0:0:
404,240,11214,2,0,P|428:302|512:314,1,160,2|8,0:0|1:0,0:0:0:0:
344,372,12214,6,0,B|300:336|297:283|297:283|248:256,1,160,2|8,0:0|1:0,0:0:0:0:
172,216,12964,1,2,0:0:0:0:
92,180,13214,1,2,0:0:0:0:
134,348,13714,6,0,P|221:311|249:257,1,160,8|2,1:0|0:0,0:0:0:0:
284,176,14464,1,0,0:0:0:0:
286,87,14714,1,8,0:0:0:0:
220,28,14964,1,2,0:0:0:0:
220,28,15464,6,0,L|140:52,1,80,8|8,0:0|1:0,0:0:0:0:
92,220,16214,6,0,P|96:304|44:352,2,160,2|8|2,0:0|1:0|0:0,0:0:0:0:
8,64,17714,1,8,1:0:0:0:
184,64,18214,2,0,P|264:56|340:32,1,160,2|8,0:0|1:0,0:0:0:0:
312,208,19214,2,0,P|384:168|428:100,1,160,2|8,0:0|1:0,0:0:0:0:
256,148,20214,6,0,P|308:204|320:284,1,160,2|8,0:0|1:0,0:0:0:0:
252,340,20964,1,2,0:0:0:0:
164,356,21214,2,0,P|89:373|14:343,1,160,2|8,0:0|1:0,0:0:0:0:
102,188,22214,1,2,0:0:0:0:
276,232,22714,2,0,B|228:276|228:276|268:312|268:368,2,160,8|2|8,1:0|0:0|1:0,0:0:0:0:
448,260,24214,6,0,P|432:175|380:124,1,160,2|8,0:0|1:0,0:0:0:0:
312,72,24964,2,0,L|241:27,1,80,2|2,0:0|0:0,0:0:0:0:
76,92,25714,2,0,P|157:111|202:170,1,160,8|2,1:0|0:0,0:0:0:0:
52,258,26714,2,0,L|104:190,2,80,8|2|2,1:0|0:0|0:0,0:0:0:0:
192,364,27714,1,8,1:0:0:0:
256,192,28214,12,2,30964,0:0:0:0:
380,252,31464,5,8,0:0:0:0:
380,252,31714,1,8,0:0:0:0:
300,96,32214,5,2,0:0:0:0:
140,24,32714,2,0,P|108:48|68:60,1,80,8|2,0:0|0:0,0:0:0:0:
76,148,33214,2,0,P|159:120|214:71,2,160,2|8|2,0:0|0:0|0:0,0:0:0:0:
56,324,34714,2,0,P|88:296|116:256,1,80,8|2,0:0|0:0,0:0:0:0:
196,244,35214,2,0,P|232:272|344:292,1,160,2|8,0:0|0:0,0:0:0:0:
436,144,36214,6,0,P|464:56|512:12,2,160,2|8|2,0:0|0:0|0:0,0:0:0:0:
504,308,37714,1,8,0:0:0:0:
356,208,38214,2,0,P|304:164|272:80,1,160,2|8,0:0|0:0,0:0:0:0:
204,24,38964,2,0,L|124:52,1,80,2|2,0:0|0:0,0:0:0:0:
20,184,39714,2,0,P|40:256|104:312,1,160,8|2,0:0|0:0,0:0:0:0:
219,179,40714,6,0,P|188:170|145:185,1,80,8|2,0:0|0:0,0:0:0:0:
112,104,41214,2,0,P|189:83|266:105,1,160,2|8,0:0|0:0,0:0:0:0:
372,239,42214,1,2,0:0:0:0:
436,80,42714,2,0,L|508:40,2,80,8|2|2,0:0|0:0|0:0,0:0:0:0:
264,104,43714,1,8,0:0:0:0:
256,192,44214,12,2,46964,0:0:0:0:
223,312,47464,5,8,0:0:0:0:
144,274,47714,1,8,0:0:0:0:
57,284,47964,2,0,L|24:312,2,40,8|8|2,0:0|0:0|0:0,0:0:0:0:
34,113,48714,6,0,P|89:45|161:22,1,160,8|2,0:0|0:0,0:0:0:0:
327,67,49714,2,0,P|271:134|199:157,2,160,8|2|8,0:0|0:0|0:0,0:0:0:0:
393,9,50964,1,2,0:0:0:0:
474,45,51214,1,2,0:0:0:0:
380,196,51714,6,0,P|404:268|488:316,2,160,8|2|8,0:0|0:0|0:0,0:0:0:0:
332,120,52964,2,0,P|292:104|252:104,1,80,2|2,0:0|0:0,0:0:0:0:
255,103,53714,6,0,B|188:88|168:72|168:72|140:104|116:116,1,160,8|2,0:0|0:0,0:0:0:0:
72,192,54464,2,0,P|48:232|20:260,1,80,0|8,0:0|0:0,0:0:0:0:
48,340,54964,2,0,P|92:360|128:368,1,80,2|2,0:0|0:0,0:0:0:0:
296,340,55714,2,0,P|380:312|428:256,2,160,8|2|8,0:0|0:0|0:0,0:0:0:0:
216,304,56964,5,2,0:0:0:0:
152,244,57214,2,0,P|136:160|180:96,1,160,2|8,0:0|0:0,0:0:0:0:
316,208,58214,2,0,P|386:247|468:240,2,160,2|8|2,0:0|0:0|0:0,0:0:0:0:
174,100,59714,1,8,0:0:0:0:
128,24,59964,1,0,0:0:0:0:
256,192,60214,12,2,62964,0:0:0:0:
180,120,63464,5,8,0:0:0:0:
256,72,63714,1,8,0:0:0:0:
332,120,63964,2,0,L|364:148,2,40,8|8|2,0:0|0:0|0:0,0:0:0:0:
256,192,76214,12,0,78964,1:0:0:0:
384,168,79464,5,8,0:0:0:0:
432,240,79714,1,8,0:0:0:0:
460,324,79964,2,0,L|496:348,2,40,8|8|2,0:0|0:0|0:0,0:0:0:0:
284,344,80714,6,0,B|236:335|222:294|222:294|190:323|144:306,1,160,8|2,0:0|0:0,0:0:0:0:
72,352,81464,1,0,0:0:0:0:
36,272,81714,2,0,P|84:216|88:128,1,160,8|2,0:0|0:0,0:0:0:0:
152,68,82464,2,0,P|236:84|304:52,1,160,0|2,0:0|0:0,0:0:0:0:
388,56,83214,2,0,P|444:132|504:156,2,160,2|8|2,0:0|0:0|0:0,0:0:0:0:
348,228,84714,6,0,P|300:236|260:236,1,80,8|2,0:0|0:0,0:0:0:0:
179,236,85214,2,0,P|96:216|44:160,1,160,2|8,0:0|0:0,0:0:0:0:
220,152,86214,2,0,P|268:228|248:296,1,160,2|8,0:0|0:0,0:0:0:0:
276,377,86964,1,2,0:0:0:0:
356,336,87214,2,0,P|402:290|492:293,1,160,2|8,0:0|0:0,0:0:0:0:
488,116,88214,6,0,P|400:164|336:160,1,160,2|8,0:0|0:0,0:0:0:0:
272,108,88964,1,2,0:0:0:0:
204,164,89214,2,0,P|116:212|52:208,1,160,2|8,0:0|0:0,0:0:0:0:
80,36,90214,5,2,0:0:0:0:
256,32,90714,2,0,P|304:40|336:52,1,80,8|2,0:0|0:0,0:0:0:0:
396,112,91214,2,0,P|400:196|364:268,1,160,2|8,0:0|0:0,0:0:0:0:
296,316,91964,1,0,0:0:0:0:
256,192,92214,12,2,94964,0:0:0:0:
319,220,95464,5,8,0:0:0:0:
319,220,95714,1,8,0:0:0:0:
144,208,96214,6,0,P|168:124|220:72,1,160,2|8,0:0|0:0,0:0:0:0:
304,56,96964,2,0,P|352:48|384:32,1,80,2|2,0:0|0:0,0:0:0:0:
508,156,97714,2,0,P|412:120|352:144,1,160,8|2,0:0|0:0,0:0:0:0:
296,196,98464,1,0,0:0:0:0:
288,284,98714,2,0,L|360:336,2,80,8|2|2,0:0|0:0|0:0,0:0:0:0:
116,252,99714,2,0,P|76:156|96:104,1,160,8|2,0:0|0:0,0:0:0:0:
260,52,100714,6,0,P|320:52|344:48,1,80,8|2,0:0|0:0,0:0:0:0:
424,76,101214,2,0,P|440:160|488:216,1,160,2|8,0:0|0:0,0:0:0:0:
336,304,102214,2,0,P|360:240|316:164,1,160,2|8,0:0|0:0,0:0:0:0:
232,148,102964,1,2,0:0:0:0:
148,128,103214,2,0,B|108:112|80:84|80:84|40:112|44:152,1,160,2|8,0:0|0:0,0:0:0:0:
52,236,103964,2,0,B|60:288|84:320,1,80,0|2,0:0|0:0,0:0:0:0:
148,364,104464,6,0,P|228:360|301:331,1,160,0|2,0:0|0:0,0:0:0:0:
380,288,105214,2,0,B|420:264|421:223|421:223|394:187|388:152,1,160,2|8,0:0|0:0,0:0:0:0:
256,32,106214,2,0,P|210:35|166:55,1,80,2|0,0:0|0:0,0:0:0:0:
126,121,106714,2,0,P|129:166|149:210,1,80,8|2,0:0|0:0,0:0:0:0:
216,250,107214,2,0,P|261:246|305:226,1,80,2|0,0:0|0:0,0:0:0:0:
345,161,107714,2,0,P|341:115|321:71,1,80,8|0,0:0|0:0,0:0:0:0:
256,192,108214,12,0,110964,1:0:0:0:
316,168,111464,5,8,0:0:0:0:
384,112,111714,1,8,0:0:0:0:
399,198,111964,2,0,L|427:231,2,40,8|8|2,0:0|0:0|0:0,0:0:0:0:
256,192,126214,12,2,127714,2:0:0:0:
424,164,128214,6,0,P|392:240|328:280,1,160,2|8,0:0|0:0,0:0:0:0:
240,280,128964,1,2,0:0:0:0:
172,224,129214,2,0,P|204:148|268:108,1,160,2|8,0:0|0:0,0:0:0:0:
240,280,130214,6,0,P|167:319|102:289,1,160,2|8,0:0|0:0,0:0:0:0:
87,202,130964,1,2,0:0:0:0:
172,224,131214,2,0,P|184:312|141:368,1,160,2|8,0:0|0:0,0:0:0:0:
87,202,132214,6,0,P|80:136|152:88,1,160,2|8,0:0|0:0,0:0:0:0:
240,92,132964,1,2,0:0:0:0:
324,116,133214,2,0,P|408:104|460:48,1,160,2|8,0:0|0:0,0:0:0:0:
280,35,134214,6,0,P|234:114|254:176,1,160,2|8,0:0|0:0,0:0:0:0:
336,204,134964,1,2,0:0:0:0:
324,116,135214,2,0,P|236:93|174:118,1,160,2|8,0:0|0:0,0:0:0:0:
29,225,136214,6,0,P|103:207|183:227,1,160,2|8,0:0|0:0,0:0:0:0:
256,280,136964,1,2,0:0:0:0:
328,228,137214,2,0,P|408:208|488:228,1,160,2|8,0:0|0:0,0:0:0:0:
335,313,138214,6,0,P|252:268|245:208,1,160,2|8,0:0|0:0,0:0:0:0:
304,144,138964,1,2,0:0:0:0:
328,228,139214,2,0,P|247:212|217:144,1,160,2|8,0:0|0:0,0:0:0:0:
100,20,140214,6,0,P|105:88|54:164,1,160,2|8,0:0|0:0,0:0:0:0:
127,217,140964,1,2,0:0:0:0:
148,304,141214,2,0,P|200:372|268:377,1,160,2|8,0:0|0:0,0:0:0:0:
374,230,142214,6,0,P|288:228|244:280,1,160,2|8,0:0|0:0,0:0:0:0:
329,308,142964,1,2,0:0:0:0:
416,312,143214,2,0,P|448:284|464:248,1,80,2|0,0:0|0:0,0:0:0:0:
440,164,143714,2,0,P|400:136|368:128,1,80,8|0,0:0|0:0,0:0:0:0:
349,41,144214,6,0,B|294:56|282:114|282:114|256:128|224:124,1,160,2|8,0:0|0:0,0:0:0:0:
140,120,144964,1,2,0:0:0:0:
56,144,145214,1,2,0:0:0:0:
88,272,145589,2,0,L|124:297,1,40,2|8,0:0|0:0,0:0:0:0:
191,344,145964,1,2,0:0:0:0:
280,332,146214,6,0,P|332:308|374:261,1,120,2|2,0:0|0:0,0:0:0:0:
428,140,146964,1,2,0:0:0:0:
344,108,147214,2,0,P|296:72|260:24,1,120,2|2,0:0|0:0,0:0:0:0:
164,112,147964,1,2,0:0:0:0:
236,160,148214,5,2,0:0:0:0:
340,240,148589,2,0,L|376:264,1,40,0|8,0:0|0:0,0:0:0:0:
304,316,148964,2,0,P|256:336|216:340,1,80,2|2,0:0|0:0,0:0:0:0:
141,324,149464,2,0,P|118:322|97:324,1,40,2|2,0:0|0:0,0:0:0:0:
56,200,149964,1,2,0:0:0:0:
112,132,150214,6,0,P|148:72|144:20,1,120,2|2,0:0|0:0,0:0:0:0:
276,40,150964,2,0,P|320:52|356:48,1,80,2|2,0:0|0:0,0:0:0:0:
420,104,151464,2,0,P|468:92|492:72,2,80,2|14|2,0:0|0:0|0:0,0:0:0:0:
353,48,152214,5,2,0:0:0:0:
360,176,152589,2,0,L|401:193,1,40,0|8,0:0|0:0,0:0:0:0:
456,256,152964,2,0,P|444:308|420:329,1,80,2|2,0:0|0:0,0:0:0:0:
304,368,153589,2,0,L|261:358,1,40,2|8,0:0|0:0,0:0:0:0:
200,296,153964,1,2,0:0:0:0:
286,271,154214,6,0,P|244:218|194:207,1,120,2|2,0:0|0:0,0:0:0:0:
112,308,154964,1,2,0:0:0:0:
200,296,155214,2,0,P|176:244|120:220,1,120,2|2,0:0|0:0,0:0:0:0:
0,164,155964,2,0,P|44:140|60:116,1,80,2|2,0:0|0:0,0:0:0:0:
180,56,156589,6,0,L|208:28,1,40,0|8,0:0|0:0,0:0:0:0:
280,80,156964,2,0,P|320:84|356:104,1,80,2|2,0:0|0:0,0:0:0:0:
432,140,157464,2,0,L|476:144,1,40,2|2,0:0|0:0,0:0:0:0:
392,248,157964,6,0,P|368:280|367:318,1,80,0|2,0:0|0:0,0:0:0:0:
474,236,158589,2,0,P|442:183|379:166,1,120,2|2,0:0|0:0,0:0:0:0:
300,156,159214,2,0,P|256:156|212:160,1,80,2|2,0:0|0:0,0:0:0:0:
132,152,159714,2,0,P|84:112|75:97,1,80,14|2,0:0|0:0,0:0:0:0:
159,66,160214,6,0,P|218:130|208:200,1,160,2|8,0:0|0:0,0:0:0:0:
148,260,160964,2,0,P|111:284|72:284,1,80,2|2,0:0|0:0,0:0:0:0:
176,372,161589,2,0,L|216:378,1,40,2|8,0:0|0:0,0:0:0:0:
304,364,161964,1,2,0:0:0:0:
380,324,162214,6,0,P|424:272|428:216,1,120,2|2,0:0|0:0,0:0:0:0:
307,162,162964,2,0,P|308:204|329:235,1,80,2|2,0:0|0:0,0:0:0:0:
401,124,163589,2,0,P|350:71|299:61,1,120,2|2,0:0|0:0,0:0:0:0:
220,48,164214,5,2,0:0:0:0:
88,36,164589,2,0,L|48:20,1,40,0|8,0:0|0:0,0:0:0:0:
28,104,164964,2,0,P|24:152|4:184,1,80,2|2,0:0|0:0,0:0:0:0:
76,236,165464,2,0,L|112:264,1,40,2|2,0:0|0:0,0:0:0:0:
24,364,165964,1,0,0:0:0:0:
112,364,166214,6,0,P|172:342|205:297,1,120,2|2,0:0|0:0,0:0:0:0:
256,176,166964,1,2,0:0:0:0:
304,248,167214,2,0,P|352:240|384:216,1,80,2|2,0:0|0:0,0:0:0:0:
456,264,167714,2,0,P|464:224|460:184,1,80,14|2,0:0|0:0,0:0:0:0:
436,100,168214,5,2,0:0:0:0:
316,40,168589,2,0,L|276:44,1,40,0|8,0:0|0:0,0:0:0:0:
213,106,168964,2,0,P|182:138|146:154,1,80,2|2,0:0|0:0,0:0:0:0:
110,28,169589,2,0,L|152:23,1,40,2|8,0:0|0:0,0:0:0:0:
240,20,169964,6,0,P|276:44|301:84,1,80,2|2,0:0|0:0,0:0:0:0:
344,200,170589,2,0,P|304:256|260:288,1,120,2|2,0:0|0:0,0:0:0:0:
176,304,171214,2,0,P|112:328|80:372,2,120,2|2|2,0:0|0:0|0:0,0:0:0:0:
263,286,172214,5,2,0:0:0:0:
388,328,172589,2,0,L|440:352,1,40,0|8,0:0|0:0,0:0:0:0:
441,257,172964,2,0,L|368:224,1,80,2|2,0:0|0:0,0:0:0:0:
307,157,173464,2,0,L|292:112,1,40,2|2,0:0|0:0,0:0:0:0:
196,32,173964,1,2,0:0:0:0:
256,192,174214,12,4,176214,0:0:0:0:
