osu file format v14

[General]
AudioFilename: Autumn Dreams (SoundLift Remix).mp3
AudioLeadIn: 0
PreviewTime: 164636
Countdown: 0
SampleSet: Soft
StackLeniency: 0.9
Mode: 3
LetterboxInBreaks: 0
SpecialStyle: 0
WidescreenStoryboard: 0

[Editor]
Bookmarks: 137179,192037,219465,274322,301751,329179,356608,445698
DistanceSpacing: 1
BeatDivisor: 4
GridSize: 16
TimelineZoom: 0.6999999

[Metadata]
Title:Autumn Dreams (SoundLift Remix)
TitleUnicode:Autumn Dreams (SoundLift Remix)
Artist:Sky Motion
ArtistUnicode:Sky Motion
Creator:Razorflamekun
Version:Autumn Dreams
Source:Blue Soho Records
Tags:trance remix "autumn dreams" marathon
BeatmapID:627639
BeatmapSetID:244314

[Difficulty]
HPDrainRate:7
CircleSize:4
OverallDifficulty:8
ApproachRate:6
SliderMultiplier:1.4
SliderTickRate:1

[Events]
//Background and Video events
0,0,"autumn-dreams-leaves-falling.jpg",0,0
//Break Periods
//Storyboard Layer 0 (Background)
//Storyboard Layer 1 (Fail)
//Storyboard Layer 2 (Pass)
//Storyboard Layer 3 (Foreground)
//Storyboard Sound Samples

[TimingPoints]
34,428.571428571429,4,2,0,5,1,0
34,-133.333333333333,4,2,1,10,0,0
1748,-125,4,2,1,15,0,0
3462,-117.647058823529,4,2,1,20,0,0
5176,-111.111111111111,4,2,1,25,0,0
6891,-111.111111111111,4,2,1,30,0,0
8605,-105.263157894737,4,2,1,35,0,0
13319,-100,4,2,1,40,0,0
48034,-111.111111111111,4,2,1,35,0,0
48462,-125,4,2,1,30,0,0
49319,-142.857142857143,4,2,1,25,0,0
49748,-166.666666666667,4,2,1,20,0,0
50176,-142.857142857143,4,2,1,25,0,0
50605,-125,4,2,1,30,0,0
51034,-111.111111111111,4,2,1,35,0,0
51462,-108.695652173913,4,2,1,36,0,0
51891,-106.382978723404,4,2,1,37,0,0
52319,-104.166666666667,4,2,1,38,0,0
52748,-102.040816326531,4,2,1,39,0,0
53176,-100,4,2,1,40,0,0
82319,-100,4,2,1,45,0,0
87462,-100,4,2,1,10,0,0
89176,-100,4,2,1,45,0,0
94319,-100,4,2,1,10,0,0
96034,-100,4,2,1,45,0,0
101176,-100,4,2,1,10,0,0
102891,-100,4,2,1,35,0,0
104605,-100,4,2,1,30,0,0
106319,-100,4,2,1,20,0,0
108034,-100,4,2,1,20,0,0
109748,-100,4,2,1,15,0,0
111462,-105.263157894737,4,2,1,15,0,0
114891,-111.111111111111,4,2,1,10,0,0
120034,-117.647058823529,4,2,1,10,0,0
121748,-117.647058823529,4,2,1,5,0,0
123462,-125,4,2,1,5,0,0
130319,-133.333333333333,4,2,1,5,0,0
137176,-142.857142857143,4,2,1,5,0,0
157748,-133.333333333333,4,2,1,7,0,0
159462,-125,4,2,1,8,0,0
161176,-117.647058823529,4,2,1,10,0,0
163319,-116.279069767442,4,2,1,11,0,0
163534,-114.942528735632,4,2,1,12,0,0
163748,-113.636363636364,4,2,1,13,0,0
164176,-111.111111111111,4,2,1,15,0,0
188605,-108.695652173913,4,2,1,16,0,0
189462,-106.382978723404,4,2,1,17,0,0
190319,-104.166666666667,4,2,1,18,0,0
191176,-104.166666666667,4,2,1,19,0,0
192034,-100,4,2,1,20,0,0
205748,-100,4,2,1,30,0,0
216034,-100,4,2,1,35,0,0
217748,-100,4,2,1,40,0,0
218605,-100,4,2,1,40,0,0
219462,-100,4,2,1,45,0,0
233176,-100,4,2,1,50,0,0
274319,-98.0392156862745,4,2,1,50,0,0
301748,-95.2380952380952,4,2,1,65,0,1
329176,-117.647058823529,4,2,1,15,0,0
356605,-100,4,2,1,40,0,0
384034,-105.263157894737,4,2,1,30,0,0
411462,-111.111111111111,4,2,1,20,0,0
432034,-117.647058823529,4,2,1,15,0,0
438891,-125,4,2,1,10,0,0

[HitObjects]
64,192,34,5,4,0:0:0:0:
448,192,34,1,4,0:0:0:0:
320,192,34,1,4,0:0:0:0:
192,192,248,5,0,0:0:0:0:
320,192,248,1,0,0:0:0:0:
448,192,462,1,0,0:0:0:0:
320,192,569,1,0,0:0:0:0:
192,192,676,1,0,0:0:0:0:
64,192,676,1,0,0:0:0:0:
64,192,891,1,0,0:0:0:0:
192,192,998,1,0,0:0:0:0:
320,192,1105,1,0,0:0:0:0:
448,192,1105,1,0,0:0:0:0:
448,192,1319,1,0,0:0:0:0:
64,192,1426,1,0,0:0:0:0:
320,192,1534,1,0,0:0:0:0:
192,192,1534,1,0,0:0:0:0:
448,192,1748,1,0,0:0:0:0:
320,192,1855,1,0,0:0:0:0:
192,192,1962,1,0,0:0:0:0:
64,192,1962,1,0,0:0:0:0:
64,192,2176,1,0,0:0:0:0:
192,192,2284,1,0,0:0:0:0:
448,192,2391,1,0,0:0:0:0:
320,192,2391,1,0,0:0:0:0:
320,192,2605,1,0,0:0:0:0:
448,192,2712,1,0,0:0:0:0:
192,192,2819,1,0,0:0:0:0:
64,192,2819,1,0,0:0:0:0:
64,192,3034,1,0,0:0:0:0:
320,192,3141,1,0,0:0:0:0:
448,192,3248,1,0,0:0:0:0:
192,192,3248,1,0,0:0:0:0:
320,192,3462,1,0,0:0:0:0:
64,192,3569,1,0,0:0:0:0:
448,192,3676,1,0,0:0:0:0:
192,192,3676,1,0,0:0:0:0:
64,192,3891,1,0,0:0:0:0:
192,192,3998,1,0,0:0:0:0:
448,192,4105,1,0,0:0:0:0:
320,192,4105,1,0,0:0:0:0:
320,192,4319,1,0,0:0:0:0:
192,192,4426,1,0,0:0:0:0:
448,192,4534,1,0,0:0:0:0:
64,192,4534,1,0,0:0:0:0:
320,192,4748,1,0,0:0:0:0:
448,192,4855,1,0,0:0:0:0:
192,192,4962,1,0,0:0:0:0:
64,192,4962,1,0,0:0:0:0:
448,192,5176,1,0,0:0:0:0:
192,192,5284,1,0,0:0:0:0:
320,192,5391,1,0,0:0:0:0:
64,192,5391,1,0,0:0:0:0:
320,192,5605,1,0,0:0:0:0:
64,192,5712,1,0,0:0:0:0:
448,192,5819,1,0,0:0:0:0:
192,192,5819,1,0,0:0:0:0:
64,192,6034,1,0,0:0:0:0:
192,192,6141,1,0,0:0:0:0:
320,192,6248,1,0,0:0:0:0:
448,192,6248,1,0,0:0:0:0:
448,192,6462,1,0,0:0:0:0:
192,192,6569,1,0,0:0:0:0:
64,192,6676,1,0,0:0:0:0:
448,192,6676,1,0,0:0:0:0:
320,192,6891,1,0,0:0:0:0:
192,192,6998,1,0,0:0:0:0:
448,192,7105,1,0,0:0:0:0:
64,192,7105,1,0,0:0:0:0:
448,192,7319,1,0,0:0:0:0:
192,192,7426,1,0,0:0:0:0:
320,192,7534,1,0,0:0:0:0:
64,192,7534,1,0,0:0:0:0:
448,192,7748,1,0,0:0:0:0:
192,192,7855,1,0,0:0:0:0:
64,192,7962,1,0,0:0:0:0:
320,192,7962,1,0,0:0:0:0:
64,192,8176,1,0,0:0:0:0:
192,192,8284,1,0,0:0:0:0:
448,192,8391,1,0,0:0:0:0:
320,192,8391,1,0,0:0:0:0:
192,192,8605,1,0,0:0:0:0:
448,192,8712,1,0,0:0:0:0:
64,192,8819,1,0,0:0:0:0:
320,192,8819,1,0,0:0:0:0:
192,192,9034,1,0,0:0:0:0:
64,192,9141,1,0,0:0:0:0:
320,192,9248,1,0,0:0:0:0:
448,192,9248,1,0,0:0:0:0:
192,192,9462,1,0,0:0:0:0:
320,192,9569,1,0,0:0:0:0:
192,192,9676,1,0,0:0:0:0:
64,192,9676,1,0,0:0:0:0:
448,192,9891,1,0,0:0:0:0:
192,192,9998,1,0,0:0:0:0:
64,192,10105,1,0,0:0:0:0:
320,192,10105,1,0,0:0:0:0:
192,192,10319,1,0,0:0:0:0:
64,192,10426,1,0,0:0:0:0:
448,192,10534,1,0,0:0:0:0:
320,192,10534,1,0,0:0:0:0:
64,192,10748,1,0,0:0:0:0:
448,192,10855,1,0,0:0:0:0:
64,192,10962,1,0,0:0:0:0:
192,192,10962,1,0,0:0:0:0:
320,192,11176,1,0,0:0:0:0:
64,192,11284,1,0,0:0:0:0:
448,192,11391,1,0,0:0:0:0:
192,192,11391,1,0,0:0:0:0:
64,192,11605,1,0,0:0:0:0:
448,192,11712,1,0,0:0:0:0:
192,192,11819,1,0,0:0:0:0:
320,192,11819,1,0,0:0:0:0:
320,192,12034,1,0,0:0:0:0:
192,192,12141,1,0,0:0:0:0:
64,192,12248,1,0,0:0:0:0:
448,192,12248,1,0,0:0:0:0:
192,192,12462,1,0,0:0:0:0:
448,192,12569,1,0,0:0:0:0:
64,192,12676,1,0,0:0:0:0:
320,192,12676,1,0,0:0:0:0:
64,192,12891,1,0,0:0:0:0:
192,192,12998,1,0,0:0:0:0:
448,192,13105,1,0,0:0:0:0:
320,192,13105,1,0,0:0:0:0:
192,192,13212,1,0,0:0:0:0:
64,192,13319,1,4,0:0:0:0:
320,192,13319,1,0,0:0:0:0:
448,192,13319,1,4,0:0:0:0:
448,192,13748,5,0,0:0:0:0:
320,192,13748,1,0,0:0:0:0:
64,192,14176,1,0,0:0:0:0:
192,192,14176,1,0,0:0:0:0:
320,192,14176,1,8,0:0:0:0:
448,192,14605,1,0,0:0:0:0:
192,192,14605,1,0,0:0:0:0:
64,192,15034,1,0,0:0:0:0:
320,192,15034,1,8,0:0:0:0:
448,192,15034,1,0,0:0:0:0:
64,192,15462,1,0,0:0:0:0:
192,192,15462,1,0,0:0:0:0:
448,192,15891,1,0,0:0:0:0:
320,192,15891,1,0,0:0:0:0:
192,192,15891,1,8,0:0:0:0:
448,192,16319,1,0,0:0:0:0:
192,192,16319,1,0,0:0:0:0:
192,192,16748,1,0,0:0:0:0:
448,192,16748,1,8,0:0:0:0:
64,192,16748,1,0,0:0:0:0:
448,192,17176,1,0,0:0:0:0:
64,192,17176,1,0,0:0:0:0:
192,192,17605,1,8,0:0:0:0:
64,192,17605,1,0,0:0:0:0:
320,192,17605,1,0,0:0:0:0:
448,192,18034,1,0,0:0:0:0:
320,192,18034,1,0,0:0:0:0:
448,192,18462,1,8,0:0:0:0:
64,192,18462,1,0,0:0:0:0:
320,192,18462,1,0,0:0:0:0:
448,192,18891,1,0,0:0:0:0:
192,192,18891,1,0,0:0:0:0:
320,192,19319,1,8,0:0:0:0:
192,192,19319,1,0,0:0:0:0:
448,192,19319,1,0,0:0:0:0:
64,192,19748,1,0,0:0:0:0:
192,192,19748,1,0,0:0:0:0:
320,192,20176,1,0,0:0:0:0:
448,192,20176,1,0,0:0:0:0:
64,192,20176,1,8,0:0:0:0:
64,192,20605,1,0,0:0:0:0:
448,192,20605,1,0,0:0:0:0:
192,192,21034,1,0,0:0:0:0:
320,192,21034,1,0,0:0:0:0:
448,192,21034,1,8,0:0:0:0:
448,192,21462,1,0,0:0:0:0:
320,192,21462,1,0,0:0:0:0:
192,192,21891,1,8,0:0:0:0:
64,192,21891,1,0,0:0:0:0:
320,192,21891,1,0,0:0:0:0:
320,192,22319,1,0,0:0:0:0:
192,192,22319,1,0,0:0:0:0:
192,192,22748,1,0,0:0:0:0:
448,192,22748,1,0,0:0:0:0:
64,192,22748,1,8,0:0:0:0:
64,192,23176,1,0,0:0:0:0:
448,192,23176,1,0,0:0:0:0:
192,192,23605,1,0,0:0:0:0:
448,192,23605,1,8,0:0:0:0:
320,192,23605,1,0,0:0:0:0:
64,192,24034,1,0,0:0:0:0:
192,192,24034,1,0,0:0:0:0:
192,192,24462,1,8,0:0:0:0:
64,192,24462,1,0,0:0:0:0:
448,192,24462,1,0,0:0:0:0:
448,192,24891,1,0,0:0:0:0:
320,192,24891,1,0,0:0:0:0:
320,192,25319,1,0,0:0:0:0:
64,192,25319,1,8,0:0:0:0:
192,192,25319,1,0,0:0:0:0:
192,192,25748,1,0,0:0:0:0:
64,192,25748,1,0,0:0:0:0:
64,192,26176,1,0,0:0:0:0:
320,192,26176,1,0,0:0:0:0:
448,192,26176,1,8,0:0:0:0:
320,192,26605,1,0,0:0:0:0:
448,192,26605,1,0,0:0:0:0:
192,192,27034,1,8,0:0:0:0:
64,192,27034,1,0,0:0:0:0:
320,192,27034,1,0,0:0:0:0:
192,192,27462,1,0,0:0:0:0:
64,192,27462,1,0,0:0:0:0:
320,192,27676,1,0,0:0:0:0:
448,192,27891,1,8,0:0:0:0:
192,192,27891,1,0,0:0:0:0:
320,192,27891,1,0,0:0:0:0:
64,192,28105,1,0,0:0:0:0:
448,192,28319,1,0,0:0:0:0:
320,192,28319,1,0,0:0:0:0:
192,192,28534,1,0,0:0:0:0:
320,192,28748,1,0,0:0:0:0:
448,192,28748,1,8,0:0:0:0:
64,192,28748,1,0,0:0:0:0:
192,192,28962,1,0,0:0:0:0:
192,192,29176,1,0,0:0:0:0:
64,192,29176,1,0,0:0:0:0:
448,192,29391,1,0,0:0:0:0:
64,192,29605,1,0,0:0:0:0:
320,192,29605,1,0,0:0:0:0:
448,192,29605,1,8,0:0:0:0:
320,192,29819,1,0,0:0:0:0:
64,192,30034,1,0,0:0:0:0:
448,192,30034,1,0,0:0:0:0:
192,192,30248,1,0,0:0:0:0:
448,192,30462,1,8,0:0:0:0:
320,192,30462,1,0,0:0:0:0:
192,192,30462,1,0,0:0:0:0:
448,192,30676,1,0,0:0:0:0:
320,192,30891,1,0,0:0:0:0:
64,192,30891,1,0,0:0:0:0:
192,192,31105,1,0,0:0:0:0:
320,192,31319,1,0,0:0:0:0:
64,192,31319,1,0,0:0:0:0:
448,192,31319,1,8,0:0:0:0:
192,192,31534,1,0,0:0:0:0:
320,192,31748,1,0,0:0:0:0:
448,192,31748,1,0,0:0:0:0:
64,192,31962,1,0,0:0:0:0:
320,192,32176,1,0,0:0:0:0:
448,192,32176,1,8,0:0:0:0:
192,192,32176,1,0,0:0:0:0:
320,192,32391,1,0,0:0:0:0:
192,192,32605,1,0,0:0:0:0:
448,192,32605,1,0,0:0:0:0:
64,192,32819,1,0,0:0:0:0:
320,192,33034,1,0,0:0:0:0:
448,192,33034,1,8,0:0:0:0:
64,192,33034,1,0,0:0:0:0:
320,192,33248,1,0,0:0:0:0:
192,192,33462,1,0,0:0:0:0:
320,192,33462,1,0,0:0:0:0:
64,192,33676,1,0,0:0:0:0:
192,192,33891,1,0,0:0:0:0:
320,192,33891,1,0,0:0:0:0:
448,192,33891,1,8,0:0:0:0:
64,192,34105,1,0,0:0:0:0:
448,192,34319,1,0,0:0:0:0:
320,192,34319,1,0,0:0:0:0:
192,192,34534,1,0,0:0:0:0:
64,192,34748,1,0,0:0:0:0:
448,192,34748,1,8,0:0:0:0:
320,192,34748,1,0,0:0:0:0:
192,192,34962,1,0,0:0:0:0:
448,192,35176,1,0,0:0:0:0:
64,192,35176,1,0,0:0:0:0:
320,192,35391,1,0,0:0:0:0:
192,192,35605,1,0,0:0:0:0:
320,192,35605,1,0,0:0:0:0:
448,192,35605,1,8,0:0:0:0:
64,192,35819,1,0,0:0:0:0:
320,192,36034,1,0,0:0:0:0:
192,192,36034,1,0,0:0:0:0:
448,192,36248,1,0,0:0:0:0:
64,192,36462,1,0,0:0:0:0:
320,192,36462,1,0,0:0:0:0:
448,192,36462,1,8,0:0:0:0:
192,192,36676,1,0,0:0:0:0:
448,192,36891,1,0,0:0:0:0:
320,192,36891,1,0,0:0:0:0:
64,192,37105,1,0,0:0:0:0:
320,192,37319,1,8,0:0:0:0:
192,192,37319,1,0,0:0:0:0:
64,192,37319,1,0,0:0:0:0:
448,192,37534,1,0,0:0:0:0:
192,192,37748,1,0,0:0:0:0:
64,192,37748,1,0,0:0:0:0:
448,192,37962,1,0,0:0:0:0:
64,192,38176,1,0,0:0:0:0:
448,192,38176,1,8,0:0:0:0:
320,192,38176,1,0,0:0:0:0:
192,192,38391,1,0,0:0:0:0:
64,192,38605,1,0,0:0:0:0:
448,192,38605,1,0,0:0:0:0:
448,192,38819,1,0,0:0:0:0:
320,192,39034,1,8,0:0:0:0:
192,192,39034,1,0,0:0:0:0:
64,192,39034,1,0,0:0:0:0:
192,192,39248,1,0,0:0:0:0:
448,192,39462,1,0,0:0:0:0:
64,192,39462,1,0,0:0:0:0:
64,192,39676,1,0,0:0:0:0:
448,192,39891,1,8,0:0:0:0:
320,192,39891,1,0,0:0:0:0:
192,192,39891,1,0,0:0:0:0:
448,192,40105,1,0,0:0:0:0:
448,192,40319,1,0,0:0:0:0:
64,192,40319,1,0,0:0:0:0:
192,192,40534,1,0,0:0:0:0:
64,192,40748,1,0,0:0:0:0:
192,192,40748,1,0,0:0:0:0:
320,192,40748,1,8,0:0:0:0:
320,192,40962,1,0,0:0:0:0:
192,192,41176,1,0,0:0:0:0:
448,192,41176,1,0,0:0:0:0:
64,192,41391,1,0,0:0:0:0:
64,192,41605,1,0,0:0:0:0:
448,192,41605,1,8,0:0:0:0:
192,192,41605,1,0,0:0:0:0:
448,192,41819,1,0,0:0:0:0:
320,192,42034,1,0,0:0:0:0:
448,192,42034,1,0,0:0:0:0:
192,192,42248,1,0,0:0:0:0:
448,192,42462,1,8,0:0:0:0:
320,192,42462,1,0,0:0:0:0:
64,192,42462,1,0,0:0:0:0:
192,192,42676,1,0,0:0:0:0:
64,192,42891,128,0,48034:0:0:0:0:
448,192,42891,1,0,0:0:0:0:
320,192,42891,1,0,0:0:0:0:
192,192,42998,1,0,0:0:0:0:
320,192,43105,1,0,0:0:0:0:
192,192,43212,1,0,0:0:0:0:
448,192,43319,1,8,0:0:0:0:
320,192,43319,1,0,0:0:0:0:
192,192,43426,1,0,0:0:0:0:
448,192,43534,1,0,0:0:0:0:
320,192,43641,1,0,0:0:0:0:
448,192,43855,1,0,0:0:0:0:
192,192,43962,1,0,0:0:0:0:
448,192,44069,1,0,0:0:0:0:
192,192,44176,1,0,0:0:0:0:
320,192,44176,1,8,0:0:0:0:
448,192,44284,1,0,0:0:0:0:
320,192,44391,1,0,0:0:0:0:
192,192,44498,1,0,0:0:0:0:
320,192,44605,1,0,0:0:0:0:
448,192,44712,1,0,0:0:0:0:
192,192,44819,1,0,0:0:0:0:
320,192,44926,1,0,0:0:0:0:
448,192,45034,1,0,0:0:0:0:
192,192,45034,1,8,0:0:0:0:
320,192,45141,1,0,0:0:0:0:
448,192,45248,1,0,0:0:0:0:
192,192,45355,1,0,0:0:0:0:
320,192,45569,1,0,0:0:0:0:
192,192,45676,1,0,0:0:0:0:
320,192,45784,1,0,0:0:0:0:
192,192,45891,1,0,0:0:0:0:
448,192,45891,1,8,0:0:0:0:
320,192,45998,1,0,0:0:0:0:
448,192,46105,1,0,0:0:0:0:
192,192,46212,1,0,0:0:0:0:
320,192,46319,1,0,0:0:0:0:
448,192,46426,1,0,0:0:0:0:
192,192,46534,1,0,0:0:0:0:
320,192,46641,1,0,0:0:0:0:
448,192,46748,1,0,0:0:0:0:
192,192,46748,1,8,0:0:0:0:
320,192,46855,1,0,0:0:0:0:
192,192,46962,1,0,0:0:0:0:
448,192,47069,1,0,0:0:0:0:
192,192,47284,1,0,0:0:0:0:
448,192,47391,1,0,0:0:0:0:
320,192,47498,1,0,0:0:0:0:
192,192,47605,1,0,0:0:0:0:
448,192,47605,1,8,0:0:0:0:
320,192,47712,1,0,0:0:0:0:
192,192,47819,1,0,0:0:0:0:
320,192,47926,1,0,0:0:0:0:
448,192,48034,1,0,0:0:0:0:
192,192,48034,1,0,0:0:0:0:
64,192,48248,1,0,0:0:0:0:
192,192,48462,1,0,0:0:0:0:
320,192,48462,1,0,0:0:0:0:
448,192,48676,1,0,0:0:0:0:
64,192,48891,1,0,0:0:0:0:
320,192,48891,1,0,0:0:0:0:
64,192,49105,1,0,0:0:0:0:
448,192,49319,1,0,0:0:0:0:
320,192,49319,1,0,0:0:0:0:
64,192,49534,1,0,0:0:0:0:
448,192,49748,1,0,0:0:0:0:
192,192,49748,1,0,0:0:0:0:
192,192,49962,1,0,0:0:0:0:
64,192,50176,1,0,0:0:0:0:
320,192,50176,1,0,0:0:0:0:
448,192,50391,1,0,0:0:0:0:
320,192,50605,1,0,0:0:0:0:
192,192,50605,1,0,0:0:0:0:
64,192,50819,1,0,0:0:0:0:
448,192,51034,1,0,0:0:0:0:
320,192,51034,1,0,0:0:0:0:
192,192,51248,1,0,0:0:0:0:
64,192,51462,128,0,53176:0:0:0:0:
448,192,51462,1,0,0:0:0:0:
192,192,51569,1,0,0:0:0:0:
320,192,51676,1,0,0:0:0:0:
320,192,51998,1,0,0:0:0:0:
448,192,52105,1,0,0:0:0:0:
320,192,52426,1,0,0:0:0:0:
192,192,52534,1,0,0:0:0:0:
448,192,52855,1,0,0:0:0:0:
320,192,52962,1,0,0:0:0:0:
192,192,53176,1,4,0:0:0:0:
320,192,53176,1,0,0:0:0:0:
448,192,53284,1,0,0:0:0:0:
320,192,53391,1,0,0:0:0:0:
192,192,53498,1,0,0:0:0:0:
64,192,53605,1,0,0:0:0:0:
448,192,53712,1,0,0:0:0:0:
320,192,53819,1,0,0:0:0:0:
192,192,53926,1,0,0:0:0:0:
64,192,54034,1,0,0:0:0:0:
448,192,54141,1,0,0:0:0:0:
320,192,54248,1,0,0:0:0:0:
192,192,54355,1,0,0:0:0:0:
64,192,54462,1,0,0:0:0:0:
448,192,54569,1,0,0:0:0:0:
320,192,54676,1,0,0:0:0:0:
192,192,54784,1,0,0:0:0:0:
320,192,54891,1,4,0:0:0:0:
448,192,54891,1,4,0:0:0:0:
64,192,54891,1,0,0:0:0:0:
192,192,54998,1,0,0:0:0:0:
448,192,55105,1,0,0:0:0:0:
320,192,55212,1,0,0:0:0:0:
192,192,55319,1,0,0:0:0:0:
64,192,55319,1,8,0:0:0:0:
192,192,55534,1,0,0:0:0:0:
448,192,55534,1,0,0:0:0:0:
448,192,55748,1,0,0:0:0:0:
320,192,55748,1,0,0:0:0:0:
64,192,56069,1,0,0:0:0:0:
448,192,56069,1,0,0:0:0:0:
192,192,56176,1,0,0:0:0:0:
320,192,56176,1,8,0:0:0:0:
64,192,56284,1,0,0:0:0:0:
192,192,56391,1,0,0:0:0:0:
320,192,56498,1,0,0:0:0:0:
448,192,56605,1,0,0:0:0:0:
192,192,56605,1,0,0:0:0:0:
320,192,56712,1,0,0:0:0:0:
192,192,56819,1,0,0:0:0:0:
448,192,56926,1,0,0:0:0:0:
192,192,57034,1,8,0:0:0:0:
64,192,57034,1,0,0:0:0:0:
320,192,57248,1,0,0:0:0:0:
448,192,57248,1,0,0:0:0:0:
64,192,57462,1,0,0:0:0:0:
448,192,57462,1,0,0:0:0:0:
320,192,57784,1,0,0:0:0:0:
64,192,57784,1,0,0:0:0:0:
192,192,57891,1,8,0:0:0:0:
448,192,57891,1,0,0:0:0:0:
320,192,57998,1,0,0:0:0:0:
64,192,58105,1,0,0:0:0:0:
448,192,58212,1,0,0:0:0:0:
192,192,58319,1,0,0:0:0:0:
320,192,58319,1,0,0:0:0:0:
448,192,58426,1,0,0:0:0:0:
320,192,58534,1,0,0:0:0:0:
192,192,58641,1,0,0:0:0:0:
64,192,58748,1,8,0:0:0:0:
320,192,58748,1,0,0:0:0:0:
320,192,58962,1,0,0:0:0:0:
448,192,58962,1,0,0:0:0:0:
192,192,59176,1,0,0:0:0:0:
64,192,59176,1,0,0:0:0:0:
448,192,59498,1,0,0:0:0:0:
192,192,59498,1,0,0:0:0:0:
64,192,59605,1,0,0:0:0:0:
320,192,59605,1,8,0:0:0:0:
448,192,59712,1,0,0:0:0:0:
192,192,59819,1,0,0:0:0:0:
64,192,59926,1,0,0:0:0:0:
320,192,60034,1,0,0:0:0:0:
448,192,60034,1,0,0:0:0:0:
64,192,60141,1,0,0:0:0:0:
320,192,60248,1,0,0:0:0:0:
448,192,60355,1,0,0:0:0:0:
192,192,60462,1,0,0:0:0:0:
320,192,60462,1,8,0:0:0:0:
320,192,60676,1,0,0:0:0:0:
448,192,60676,1,0,0:0:0:0:
64,192,60891,1,0,0:0:0:0:
320,192,60891,1,0,0:0:0:0:
448,192,61212,1,0,0:0:0:0:
320,192,61212,1,0,0:0:0:0:
192,192,61319,1,8,0:0:0:0:
64,192,61319,1,0,0:0:0:0:
320,192,61426,1,0,0:0:0:0:
448,192,61534,1,0,0:0:0:0:
320,192,61641,1,0,0:0:0:0:
192,192,61748,1,0,0:0:0:0:
64,192,61748,1,0,0:0:0:0:
448,192,61855,1,0,0:0:0:0:
320,192,61962,1,0,0:0:0:0:
64,192,62069,1,0,0:0:0:0:
448,192,62176,1,8,0:0:0:0:
192,192,62176,1,0,0:0:0:0:
192,192,62391,1,0,0:0:0:0:
320,192,62391,1,0,0:0:0:0:
64,192,62605,1,0,0:0:0:0:
448,192,62605,1,0,0:0:0:0:
320,192,62926,1,0,0:0:0:0:
64,192,62926,1,0,0:0:0:0:
448,192,63034,1,0,0:0:0:0:
192,192,63034,1,8,0:0:0:0:
64,192,63141,1,0,0:0:0:0:
320,192,63248,1,0,0:0:0:0:
64,192,63355,1,0,0:0:0:0:
320,192,63462,1,0,0:0:0:0:
448,192,63462,1,0,0:0:0:0:
192,192,63569,1,0,0:0:0:0:
64,192,63676,1,0,0:0:0:0:
448,192,63784,1,0,0:0:0:0:
192,192,63891,1,0,0:0:0:0:
64,192,63891,1,8,0:0:0:0:
64,192,64105,1,0,0:0:0:0:
320,192,64105,1,0,0:0:0:0:
192,192,64319,1,0,0:0:0:0:
320,192,64319,1,0,0:0:0:0:
448,192,64641,1,0,0:0:0:0:
192,192,64641,1,0,0:0:0:0:
64,192,64748,1,0,0:0:0:0:
320,192,64748,1,8,0:0:0:0:
192,192,64855,1,0,0:0:0:0:
448,192,64962,1,0,0:0:0:0:
192,192,65069,1,0,0:0:0:0:
320,192,65176,1,0,0:0:0:0:
448,192,65176,1,0,0:0:0:0:
192,192,65284,1,0,0:0:0:0:
448,192,65391,1,0,0:0:0:0:
320,192,65498,1,0,0:0:0:0:
64,192,65605,1,0,0:0:0:0:
192,192,65605,1,8,0:0:0:0:
192,192,65819,1,0,0:0:0:0:
448,192,65819,1,0,0:0:0:0:
320,192,66034,1,0,0:0:0:0:
448,192,66034,1,0,0:0:0:0:
320,192,66355,1,0,0:0:0:0:
192,192,66355,1,0,0:0:0:0:
448,192,66462,1,0,0:0:0:0:
64,192,66462,1,8,0:0:0:0:
192,192,66569,1,0,0:0:0:0:
320,192,66676,1,0,0:0:0:0:
64,192,66784,1,0,0:0:0:0:
192,192,66891,1,0,0:0:0:0:
448,192,66891,1,0,0:0:0:0:
320,192,66998,1,0,0:0:0:0:
64,192,67105,1,0,0:0:0:0:
192,192,67212,1,0,0:0:0:0:
448,192,67319,1,0,0:0:0:0:
320,192,67319,1,8,0:0:0:0:
192,192,67534,1,0,0:0:0:0:
320,192,67534,1,0,0:0:0:0:
64,192,67748,1,0,0:0:0:0:
320,192,67748,1,0,0:0:0:0:
448,192,68069,1,0,0:0:0:0:
64,192,68069,1,0,0:0:0:0:
320,192,68176,1,8,0:0:0:0:
192,192,68176,1,0,0:0:0:0:
448,192,68284,1,0,0:0:0:0:
192,192,68391,1,0,0:0:0:0:
320,192,68498,1,0,0:0:0:0:
64,192,68605,1,0,0:0:0:0:
448,192,68605,1,4,0:0:0:0:
192,192,68605,1,4,0:0:0:0:
320,192,68712,1,0,0:0:0:0:
448,192,68819,1,0,0:0:0:0:
64,192,68926,1,0,0:0:0:0:
320,192,69034,1,0,0:0:0:0:
448,192,69034,1,8,0:0:0:0:
192,192,69248,1,0,0:0:0:0:
64,192,69462,1,0,0:0:0:0:
320,192,69462,1,0,0:0:0:0:
448,192,69784,1,0,0:0:0:0:
64,192,69784,1,0,0:0:0:0:
192,192,69891,1,8,0:0:0:0:
320,192,69891,1,0,0:0:0:0:
64,192,69998,1,0,0:0:0:0:
320,192,70105,1,0,0:0:0:0:
192,192,70212,1,0,0:0:0:0:
320,192,70319,1,0,0:0:0:0:
448,192,70319,1,0,0:0:0:0:
192,192,70426,1,0,0:0:0:0:
448,192,70534,1,0,0:0:0:0:
320,192,70641,1,0,0:0:0:0:
192,192,70748,1,0,0:0:0:0:
64,192,70748,1,8,0:0:0:0:
448,192,70962,1,0,0:0:0:0:
64,192,71176,1,0,0:0:0:0:
320,192,71176,1,0,0:0:0:0:
448,192,71498,1,0,0:0:0:0:
192,192,71498,1,0,0:0:0:0:
64,192,71605,1,8,0:0:0:0:
320,192,71605,1,0,0:0:0:0:
192,192,71712,1,0,0:0:0:0:
448,192,71819,1,0,0:0:0:0:
320,192,71926,1,0,0:0:0:0:
448,192,72034,1,0,0:0:0:0:
64,192,72034,1,0,0:0:0:0:
192,192,72141,1,0,0:0:0:0:
320,192,72248,1,0,0:0:0:0:
64,192,72355,1,0,0:0:0:0:
448,192,72462,1,8,0:0:0:0:
320,192,72462,1,0,0:0:0:0:
192,192,72676,1,0,0:0:0:0:
64,192,72891,1,0,0:0:0:0:
320,192,72891,1,0,0:0:0:0:
192,192,73212,1,0,0:0:0:0:
64,192,73212,1,0,0:0:0:0:
448,192,73319,1,8,0:0:0:0:
320,192,73319,1,0,0:0:0:0:
192,192,73426,1,0,0:0:0:0:
64,192,73534,1,0,0:0:0:0:
320,192,73641,1,0,0:0:0:0:
448,192,73748,1,0,0:0:0:0:
192,192,73748,1,0,0:0:0:0:
320,192,73855,1,0,0:0:0:0:
192,192,73962,1,0,0:0:0:0:
448,192,74069,1,0,0:0:0:0:
320,192,74176,1,8,0:0:0:0:
64,192,74176,1,0,0:0:0:0:
192,192,74391,1,0,0:0:0:0:
448,192,74605,1,0,0:0:0:0:
320,192,74605,1,0,0:0:0:0:
192,192,74926,1,0,0:0:0:0:
320,192,74926,1,0,0:0:0:0:
448,192,75034,1,0,0:0:0:0:
64,192,75034,1,8,0:0:0:0:
192,192,75141,1,0,0:0:0:0:
320,192,75248,1,0,0:0:0:0:
64,192,75355,1,0,0:0:0:0:
448,192,75462,1,0,0:0:0:0:
192,192,75462,1,0,0:0:0:0:
320,192,75569,1,0,0:0:0:0:
64,192,75676,1,0,0:0:0:0:
192,192,75784,1,0,0:0:0:0:
320,192,75891,1,0,0:0:0:0:
448,192,75891,1,8,0:0:0:0:
192,192,76105,1,0,0:0:0:0:
320,192,76319,1,0,0:0:0:0:
64,192,76319,1,0,0:0:0:0:
192,192,76641,1,0,0:0:0:0:
448,192,76641,1,0,0:0:0:0:
64,192,76748,1,0,0:0:0:0:
320,192,76748,1,8,0:0:0:0:
448,192,76855,1,0,0:0:0:0:
192,192,76962,1,0,0:0:0:0:
448,192,77069,1,0,0:0:0:0:
64,192,77176,1,0,0:0:0:0:
320,192,77176,1,0,0:0:0:0:
192,192,77284,1,0,0:0:0:0:
448,192,77391,1,0,0:0:0:0:
320,192,77498,1,0,0:0:0:0:
192,192,77605,1,0,0:0:0:0:
64,192,77605,1,8,0:0:0:0:
448,192,77819,1,0,0:0:0:0:
320,192,78034,1,0,0:0:0:0:
192,192,78034,1,0,0:0:0:0:
448,192,78355,1,0,0:0:0:0:
320,192,78355,1,0,0:0:0:0:
192,192,78462,1,0,0:0:0:0:
64,192,78462,1,8,0:0:0:0:
448,192,78569,1,0,0:0:0:0:
320,192,78676,1,0,0:0:0:0:
64,192,78784,1,0,0:0:0:0:
192,192,78891,1,0,0:0:0:0:
448,192,78891,1,0,0:0:0:0:
64,192,78998,1,0,0:0:0:0:
448,192,79105,1,0,0:0:0:0:
320,192,79212,1,0,0:0:0:0:
192,192,79319,1,0,0:0:0:0:
448,192,79319,1,8,0:0:0:0:
320,192,79534,1,0,0:0:0:0:
64,192,79748,1,0,0:0:0:0:
448,192,79748,1,0,0:0:0:0:
320,192,80069,1,0,0:0:0:0:
192,192,80069,1,0,0:0:0:0:
448,192,80176,1,0,0:0:0:0:
320,192,80284,1,0,0:0:0:0:
192,192,80391,1,0,0:0:0:0:
64,192,80498,1,0,0:0:0:0:
448,192,80605,1,0,0:0:0:0:
320,192,80712,1,0,0:0:0:0:
192,192,80819,1,0,0:0:0:0:
64,192,80926,1,0,0:0:0:0:
448,192,81034,1,0,0:0:0:0:
320,192,81141,1,0,0:0:0:0:
192,192,81248,1,0,0:0:0:0:
64,192,81355,1,0,0:0:0:0:
448,192,81462,1,0,0:0:0:0:
320,192,81569,1,0,0:0:0:0:
192,192,81676,1,0,0:0:0:0:
64,192,81784,1,0,0:0:0:0:
448,192,81891,1,0,0:0:0:0:
320,192,81998,1,0,0:0:0:0:
192,192,82105,1,0,0:0:0:0:
64,192,82212,1,0,0:0:0:0:
192,192,82319,1,0,0:0:0:0:
320,192,82319,1,0,0:0:0:0:
448,192,82319,1,4,0:0:0:0:
320,192,82534,1,0,0:0:0:0:
192,192,82641,1,0,0:0:0:0:
320,192,82748,1,8,0:0:0:0:
64,192,82748,1,0,0:0:0:0:
64,192,82962,1,0,0:0:0:0:
448,192,82962,1,0,0:0:0:0:
448,192,83176,1,0,0:0:0:0:
320,192,83176,1,0,0:0:0:0:
192,192,83391,1,0,0:0:0:0:
320,192,83498,1,0,0:0:0:0:
192,192,83605,1,8,0:0:0:0:
448,192,83605,1,8,0:0:0:0:
64,192,83819,1,0,0:0:0:0:
448,192,83819,1,0,0:0:0:0:
320,192,84034,1,0,0:0:0:0:
64,192,84034,1,0,0:0:0:0:
448,192,84248,1,0,0:0:0:0:
192,192,84355,1,0,0:0:0:0:
448,192,84462,1,8,0:0:0:0:
320,192,84462,1,8,0:0:0:0:
64,192,84676,1,0,0:0:0:0:
320,192,84676,1,0,0:0:0:0:
192,192,84891,1,0,0:0:0:0:
448,192,84891,1,0,0:0:0:0:
64,192,85105,1,0,0:0:0:0:
320,192,85212,1,0,0:0:0:0:
64,192,85319,1,8,0:0:0:0:
192,192,85319,1,8,0:0:0:0:
64,192,85534,1,0,0:0:0:0:
320,192,85534,1,0,0:0:0:0:
192,192,85748,1,0,0:0:0:0:
448,192,85748,1,0,0:0:0:0:
64,192,85962,1,0,0:0:0:0:
192,192,86069,1,0,0:0:0:0:
320,192,86176,1,8,0:0:0:0:
448,192,86176,1,8,0:0:0:0:
192,192,86391,1,0,0:0:0:0:
448,192,86391,1,0,0:0:0:0:
448,192,86605,1,0,0:0:0:0:
64,192,86605,1,0,0:0:0:0:
320,192,86819,1,0,0:0:0:0:
192,192,86926,1,0,0:0:0:0:
64,192,87034,1,8,0:0:0:0:
320,192,87034,1,8,0:0:0:0:
192,192,87248,1,0,0:0:0:0:
448,192,87248,1,0,0:0:0:0:
64,192,87462,128,0,87891:0:0:0:0:
192,192,87891,128,0,88319:0:0:0:0:
320,192,88319,128,0,88748:0:0:0:0:
64,192,88748,128,0,89176:0:0:0:0:
192,192,89176,1,0,0:0:0:0:
448,192,89176,1,0,0:0:0:0:
64,192,89391,1,0,0:0:0:0:
192,192,89498,1,0,0:0:0:0:
64,192,89605,1,8,0:0:0:0:
448,192,89605,1,8,0:0:0:0:
192,192,89819,1,0,0:0:0:0:
448,192,89819,1,0,0:0:0:0:
320,192,90034,1,0,0:0:0:0:
64,192,90034,1,0,0:0:0:0:
448,192,90248,1,0,0:0:0:0:
320,192,90355,1,0,0:0:0:0:
192,192,90462,1,8,0:0:0:0:
64,192,90462,1,8,0:0:0:0:
320,192,90676,1,0,0:0:0:0:
448,192,90676,1,0,0:0:0:0:
64,192,90891,1,0,0:0:0:0:
320,192,90891,1,0,0:0:0:0:
192,192,91105,1,0,0:0:0:0:
64,192,91212,1,0,0:0:0:0:
320,192,91319,1,8,0:0:0:0:
192,192,91319,1,8,0:0:0:0:
192,192,91534,1,0,0:0:0:0:
448,192,91534,1,0,0:0:0:0:
320,192,91748,1,0,0:0:0:0:
64,192,91748,1,0,0:0:0:0:
320,192,91962,1,0,0:0:0:0:
192,192,92069,1,0,0:0:0:0:
64,192,92176,1,8,0:0:0:0:
448,192,92176,1,8,0:0:0:0:
192,192,92391,1,0,0:0:0:0:
64,192,92391,1,0,0:0:0:0:
192,192,92605,1,0,0:0:0:0:
448,192,92605,1,0,0:0:0:0:
320,192,92819,1,0,0:0:0:0:
192,192,92926,1,0,0:0:0:0:
320,192,93034,1,8,0:0:0:0:
64,192,93034,1,8,0:0:0:0:
64,192,93248,1,0,0:0:0:0:
448,192,93248,1,0,0:0:0:0:
320,192,93462,1,0,0:0:0:0:
192,192,93462,1,0,0:0:0:0:
448,192,93676,1,0,0:0:0:0:
320,192,93784,1,0,0:0:0:0:
192,192,93891,1,8,0:0:0:0:
64,192,93891,1,8,0:0:0:0:
320,192,94105,1,0,0:0:0:0:
448,192,94105,1,0,0:0:0:0:
192,192,94319,1,0,0:0:0:0:
448,192,94534,1,0,0:0:0:0:
192,192,94641,1,0,0:0:0:0:
320,192,94855,1,0,0:0:0:0:
64,192,94962,1,0,0:0:0:0:
192,192,95176,1,0,0:0:0:0:
448,192,95284,1,0,0:0:0:0:
320,192,95391,1,0,0:0:0:0:
64,192,95498,1,0,0:0:0:0:
448,192,95605,1,0,0:0:0:0:
320,192,95712,1,0,0:0:0:0:
192,192,95819,1,0,0:0:0:0:
320,192,95926,1,0,0:0:0:0:
448,192,96034,1,4,0:0:0:0:
192,192,96034,1,4,0:0:0:0:
64,192,96034,1,0,0:0:0:0:
192,192,96248,1,0,0:0:0:0:
320,192,96355,1,0,0:0:0:0:
448,192,96462,1,8,0:0:0:0:
192,192,96462,1,8,0:0:0:0:
192,192,96676,1,0,0:0:0:0:
64,192,96676,1,0,0:0:0:0:
448,192,96891,1,0,0:0:0:0:
64,192,96891,1,0,0:0:0:0:
320,192,97105,1,0,0:0:0:0:
192,192,97212,1,0,0:0:0:0:
448,192,97319,1,8,0:0:0:0:
320,192,97319,1,8,0:0:0:0:
64,192,97534,1,0,0:0:0:0:
192,192,97534,1,0,0:0:0:0:
192,192,97748,1,0,0:0:0:0:
448,192,97748,1,0,0:0:0:0:
64,192,97962,1,0,0:0:0:0:
192,192,98069,1,0,0:0:0:0:
320,192,98176,1,8,0:0:0:0:
448,192,98176,1,8,0:0:0:0:
64,192,98391,1,0,0:0:0:0:
320,192,98391,1,0,0:0:0:0:
448,192,98605,1,0,0:0:0:0:
192,192,98605,1,0,0:0:0:0:
64,192,98819,1,0,0:0:0:0:
448,192,98926,1,0,0:0:0:0:
64,192,99034,1,8,0:0:0:0:
192,192,99034,1,8,0:0:0:0:
64,192,99248,1,0,0:0:0:0:
448,192,99248,1,0,0:0:0:0:
448,192,99462,1,0,0:0:0:0:
192,192,99462,1,0,0:0:0:0:
64,192,99676,1,0,0:0:0:0:
192,192,99784,1,0,0:0:0:0:
448,192,99891,1,8,0:0:0:0:
320,192,99891,1,8,0:0:0:0:
320,192,100105,1,0,0:0:0:0:
192,192,100105,1,0,0:0:0:0:
64,192,100319,1,0,0:0:0:0:
448,192,100319,1,0,0:0:0:0:
320,192,100534,1,0,0:0:0:0:
448,192,100641,1,0,0:0:0:0:
192,192,100748,1,8,0:0:0:0:
64,192,100748,1,8,0:0:0:0:
320,192,100962,1,0,0:0:0:0:
448,192,100962,1,0,0:0:0:0:
192,192,101176,1,0,0:0:0:0:
320,192,101391,1,0,0:0:0:0:
64,192,101498,1,0,0:0:0:0:
448,192,101712,1,0,0:0:0:0:
192,192,101819,1,0,0:0:0:0:
64,192,102034,1,0,0:0:0:0:
320,192,102141,1,0,0:0:0:0:
448,192,102248,1,0,0:0:0:0:
64,192,102355,1,0,0:0:0:0:
448,192,102462,1,0,0:0:0:0:
192,192,102569,1,0,0:0:0:0:
320,192,102676,1,0,0:0:0:0:
64,192,102784,1,0,0:0:0:0:
192,192,102891,1,0,0:0:0:0:
448,192,102891,1,0,0:0:0:0:
64,192,103105,1,0,0:0:0:0:
192,192,103212,1,0,0:0:0:0:
448,192,103319,1,8,0:0:0:0:
320,192,103319,1,8,0:0:0:0:
192,192,103534,1,0,0:0:0:0:
448,192,103748,1,0,0:0:0:0:
64,192,103962,1,0,0:0:0:0:
192,192,104069,1,0,0:0:0:0:
320,192,104176,1,8,0:0:0:0:
64,192,104176,1,8,0:0:0:0:
448,192,104391,1,0,0:0:0:0:
320,192,104605,1,0,0:0:0:0:
192,192,104605,1,0,0:0:0:0:
448,192,104819,1,0,0:0:0:0:
320,192,104926,1,0,0:0:0:0:
64,192,105034,1,8,0:0:0:0:
448,192,105034,1,8,0:0:0:0:
320,192,105248,1,0,0:0:0:0:
192,192,105462,1,0,0:0:0:0:
64,192,105676,1,0,0:0:0:0:
320,192,105784,1,0,0:0:0:0:
448,192,105891,1,8,0:0:0:0:
192,192,105891,1,8,0:0:0:0:
64,192,106105,1,0,0:0:0:0:
192,192,106319,1,0,0:0:0:0:
320,192,106319,1,0,0:0:0:0:
64,192,106534,1,0,0:0:0:0:
192,192,106641,1,0,0:0:0:0:
320,192,106748,1,8,0:0:0:0:
448,192,106748,1,8,0:0:0:0:
192,192,106962,1,0,0:0:0:0:
64,192,107176,1,0,0:0:0:0:
448,192,107391,1,0,0:0:0:0:
192,192,107498,1,0,0:0:0:0:
320,192,107605,1,8,0:0:0:0:
64,192,107605,1,8,0:0:0:0:
64,192,107819,1,0,0:0:0:0:
192,192,108034,1,0,0:0:0:0:
448,192,108248,1,0,0:0:0:0:
64,192,108569,1,0,0:0:0:0:
320,192,108891,1,0,0:0:0:0:
64,192,109212,1,0,0:0:0:0:
192,192,109534,1,0,0:0:0:0:
448,192,109748,128,4,111462:0:0:0:0:
320,192,109748,1,4,0:0:0:0:
64,192,109748,1,4,0:0:0:0:
192,192,109962,1,0,0:0:0:0:
320,192,110069,1,0,0:0:0:0:
64,192,110176,1,8,0:0:0:0:
192,192,110391,1,0,0:0:0:0:
64,192,110605,1,0,0:0:0:0:
320,192,110819,1,0,0:0:0:0:
192,192,110926,1,0,0:0:0:0:
64,192,111034,1,8,0:0:0:0:
192,192,111248,1,0,0:0:0:0:
320,192,111462,1,0,0:0:0:0:
64,192,111462,128,0,113176:0:0:0:0:
192,192,111676,1,0,0:0:0:0:
320,192,111784,1,0,0:0:0:0:
448,192,111891,1,8,0:0:0:0:
320,192,112105,1,0,0:0:0:0:
192,192,112319,1,0,0:0:0:0:
320,192,112534,1,0,0:0:0:0:
448,192,112641,1,0,0:0:0:0:
192,192,112748,1,8,0:0:0:0:
320,192,112962,1,0,0:0:0:0:
448,192,113176,1,0,0:0:0:0:
192,192,113176,128,0,114891:0:0:0:0:
320,192,113391,1,0,0:0:0:0:
448,192,113498,1,0,0:0:0:0:
64,192,113605,1,8,0:0:0:0:
320,192,113819,1,0,0:0:0:0:
448,192,114034,1,0,0:0:0:0:
320,192,114248,1,0,0:0:0:0:
64,192,114355,1,0,0:0:0:0:
448,192,114462,1,8,0:0:0:0:
320,192,114676,1,0,0:0:0:0:
64,192,114891,1,0,0:0:0:0:
448,192,114891,128,0,116605:0:0:0:0:
320,192,115105,1,0,0:0:0:0:
64,192,115426,1,0,0:0:0:0:
192,192,115748,1,0,0:0:0:0:
320,192,116069,1,0,0:0:0:0:
64,192,116391,1,0,0:0:0:0:
192,192,116605,128,0,118319:0:0:0:0:
320,192,116605,1,0,0:0:0:0:
64,192,116819,1,0,0:0:0:0:
320,192,116926,1,0,0:0:0:0:
448,192,117034,1,8,0:0:0:0:
64,192,117248,1,0,0:0:0:0:
320,192,117462,1,0,0:0:0:0:
448,192,117676,1,0,0:0:0:0:
320,192,117784,1,0,0:0:0:0:
64,192,117891,1,0,0:0:0:0:
448,192,118105,1,0,0:0:0:0:
64,192,118319,128,0,120034:0:0:0:0:
320,192,118319,1,0,0:0:0:0:
448,192,118534,1,0,0:0:0:0:
320,192,118641,1,0,0:0:0:0:
192,192,118748,1,0,0:0:0:0:
448,192,118962,1,0,0:0:0:0:
320,192,119176,1,0,0:0:0:0:
192,192,119391,1,0,0:0:0:0:
320,192,119498,1,0,0:0:0:0:
448,192,119605,1,0,0:0:0:0:
192,192,119819,1,0,0:0:0:0:
320,192,120034,128,0,121748:0:0:0:0:
448,192,120034,1,0,0:0:0:0:
64,192,120248,1,0,0:0:0:0:
192,192,120355,1,0,0:0:0:0:
448,192,120462,1,8,0:0:0:0:
192,192,120676,1,0,0:0:0:0:
64,192,120891,1,0,0:0:0:0:
448,192,121105,1,0,0:0:0:0:
192,192,121212,1,0,0:0:0:0:
64,192,121319,1,8,0:0:0:0:
192,192,121534,1,0,0:0:0:0:
64,192,121748,1,0,0:0:0:0:
192,192,121962,1,0,0:0:0:0:
448,192,122284,1,0,0:0:0:0:
320,192,122605,1,0,0:0:0:0:
64,192,122926,1,0,0:0:0:0:
448,192,123248,1,0,0:0:0:0:
192,192,123462,1,0,0:0:0:0:
64,192,123462,128,0,125176:0:0:0:0:
448,192,123676,1,0,0:0:0:0:
320,192,124105,1,0,0:0:0:0:
448,192,124534,1,0,0:0:0:0:
192,192,124962,1,0,0:0:0:0:
320,192,125176,128,0,126891:0:0:0:0:
448,192,125176,1,0,0:0:0:0:
192,192,125391,1,0,0:0:0:0:
192,192,125819,1,0,0:0:0:0:
448,192,126248,1,0,0:0:0:0:
64,192,126676,1,0,0:0:0:0:
448,192,126891,128,0,128605:0:0:0:0:
192,192,126891,1,0,0:0:0:0:
64,192,127105,1,0,0:0:0:0:
320,192,127534,1,0,0:0:0:0:
192,192,127962,1,0,0:0:0:0:
64,192,128391,1,0,0:0:0:0:
192,192,128605,128,0,130319:0:0:0:0:
320,192,128605,1,0,0:0:0:0:
64,192,128819,1,0,0:0:0:0:
448,192,129141,1,0,0:0:0:0:
320,192,129462,1,0,0:0:0:0:
64,192,129784,1,0,0:0:0:0:
320,192,130105,1,0,0:0:0:0:
64,192,130319,128,0,132034:0:0:0:0:
448,192,130319,1,0,0:0:0:0:
320,192,130534,1,0,0:0:0:0:
192,192,130962,1,0,0:0:0:0:
448,192,131391,1,0,0:0:0:0:
192,192,131819,1,0,0:0:0:0:
320,192,132034,128,0,133748:0:0:0:0:
448,192,132034,1,0,0:0:0:0:
192,192,132248,1,0,0:0:0:0:
64,192,132676,1,0,0:0:0:0:
448,192,133105,1,0,0:0:0:0:
192,192,133534,1,0,0:0:0:0:
448,192,133748,128,0,137176:0:0:0:0:
64,192,133748,1,0,0:0:0:0:
192,192,133962,1,0,0:0:0:0:
320,192,134391,1,0,0:0:0:0:
64,192,134819,1,0,0:0:0:0:
320,192,135248,1,0,0:0:0:0:
192,192,135462,1,0,0:0:0:0:
64,192,135676,1,0,0:0:0:0:
320,192,135998,1,0,0:0:0:0:
192,192,136319,1,0,0:0:0:0:
64,192,136641,1,0,0:0:0:0:
320,192,136962,1,0,0:0:0:0:
64,192,137176,1,4,0:0:0:0:
192,192,137176,128,4,140605:0:0:0:0:
320,192,140605,128,0,144034:0:0:0:0:
64,192,144034,128,0,145748:0:0:0:0:
192,192,145748,128,0,147462:0:0:0:0:
320,192,147462,128,0,150891:0:0:0:0:
64,192,150891,128,0,152605:0:0:0:0:
448,192,152605,128,0,154319:0:0:0:0:
320,192,154319,128,0,157748:0:0:0:0:
64,192,157748,128,0,159462:0:0:0:0:
192,192,159462,128,0,161176:0:0:0:0:
320,192,161176,128,0,164605:0:0:0:0:
448,192,161176,1,0,0:0:0:0:
64,192,161819,1,0,0:0:0:0:
448,192,161819,1,0,0:0:0:0:
192,192,162248,1,0,0:0:0:0:
192,192,162462,1,0,0:0:0:0:
192,192,162676,1,0,0:0:0:0:
192,192,162891,1,0,0:0:0:0:
448,192,163319,128,0,164605:0:0:0:0:
64,192,163534,1,0,0:0:0:0:
64,192,163962,1,0,0:0:0:0:
64,192,164176,1,0,0:0:0:0:
192,192,164605,128,4,165891:0:0:0:0:
64,192,164605,1,4,0:0:0:0:
64,192,165034,1,0,0:0:0:0:
320,192,165248,1,8,0:0:0:0:
448,192,165248,1,8,0:0:0:0:
448,192,165676,1,0,0:0:0:0:
320,192,165891,128,0,166319:0:0:0:0:
448,192,165891,1,0,0:0:0:0:
448,192,166105,1,0,0:0:0:0:
64,192,166319,128,0,168034:0:0:0:0:
448,192,166319,1,0,0:0:0:0:
192,192,166748,1,0,0:0:0:0:
320,192,166962,1,8,0:0:0:0:
448,192,166962,1,8,0:0:0:0:
192,192,167391,1,8,0:0:0:0:
320,192,167391,1,8,0:0:0:0:
448,192,167605,1,0,0:0:0:0:
320,192,167605,1,0,0:0:0:0:
320,192,168034,128,0,168891:0:0:0:0:
448,192,168034,1,4,0:0:0:0:
192,192,168034,1,0,0:0:0:0:
448,192,168462,1,0,0:0:0:0:
64,192,168676,1,8,0:0:0:0:
448,192,168676,1,8,0:0:0:0:
192,192,168891,128,0,169534:0:0:0:0:
448,192,168891,1,0,0:0:0:0:
448,192,169105,1,0,0:0:0:0:
448,192,169319,1,0,0:0:0:0:
64,192,169534,1,0,0:0:0:0:
320,192,169587,1,0,0:0:0:0:
448,192,169641,1,0,0:0:0:0:
320,192,169694,1,0,0:0:0:0:
192,192,169748,1,0,0:0:0:0:
64,192,169748,128,0,171034:0:0:0:0:
192,192,170176,1,0,0:0:0:0:
448,192,170391,1,8,0:0:0:0:
320,192,170391,1,8,0:0:0:0:
448,192,170819,1,8,0:0:0:0:
192,192,170819,1,8,0:0:0:0:
320,192,171034,128,0,171462:0:0:0:0:
448,192,171034,1,0,0:0:0:0:
192,192,171462,128,0,173176:0:0:0:0:
448,192,171462,1,4,0:0:0:0:
64,192,171462,1,0,0:0:0:0:
64,192,171891,1,0,0:0:0:0:
448,192,172105,1,8,0:0:0:0:
320,192,172105,1,8,0:0:0:0:
64,192,172534,1,0,0:0:0:0:
64,192,172748,1,8,0:0:0:0:
320,192,172748,1,8,0:0:0:0:
64,192,172962,1,0,0:0:0:0:
448,192,173176,128,0,174462:0:0:0:0:
64,192,173176,1,0,0:0:0:0:
320,192,173176,1,4,0:0:0:0:
320,192,173605,1,0,0:0:0:0:
64,192,173819,1,8,0:0:0:0:
192,192,173819,1,8,0:0:0:0:
64,192,174248,1,8,0:0:0:0:
320,192,174248,1,8,0:0:0:0:
192,192,174462,128,0,174891:0:0:0:0:
64,192,174462,1,0,0:0:0:0:
320,192,174891,128,0,176605:0:0:0:0:
64,192,174891,1,4,0:0:0:0:
448,192,174891,1,0,0:0:0:0:
64,192,175319,1,0,0:0:0:0:
448,192,175534,1,8,0:0:0:0:
192,192,175534,1,8,0:0:0:0:
64,192,175748,1,0,0:0:0:0:
448,192,175962,1,0,0:0:0:0:
448,192,176176,1,8,0:0:0:0:
448,192,176391,1,0,0:0:0:0:
448,192,176605,1,0,0:0:0:0:
64,192,176605,128,0,178319:0:0:0:0:
192,192,176605,1,4,0:0:0:0:
192,192,177034,1,0,0:0:0:0:
448,192,177248,1,8,0:0:0:0:
320,192,177248,1,8,0:0:0:0:
448,192,177676,1,8,0:0:0:0:
320,192,177676,1,8,0:0:0:0:
192,192,177891,1,0,0:0:0:0:
320,192,177891,1,0,0:0:0:0:
448,192,178319,128,0,179605:0:0:0:0:
192,192,178319,1,4,0:0:0:0:
320,192,178319,1,0,0:0:0:0:
64,192,178748,1,0,0:0:0:0:
320,192,178962,1,8,0:0:0:0:
192,192,178962,1,8,0:0:0:0:
64,192,179391,1,8,0:0:0:0:
64,192,179605,1,0,0:0:0:0:
192,192,179605,128,0,180034:0:0:0:0:
64,192,179819,1,0,0:0:0:0:
448,192,180034,128,0,181748:0:0:0:0:
64,192,180034,1,4,0:0:0:0:
320,192,180034,1,0,0:0:0:0:
320,192,180462,1,0,0:0:0:0:
64,192,180676,1,8,0:0:0:0:
192,192,180676,1,8,0:0:0:0:
64,192,181105,1,8,0:0:0:0:
320,192,181105,1,8,0:0:0:0:
192,192,181319,1,0,0:0:0:0:
64,192,181319,1,0,0:0:0:0:
64,192,181748,128,0,182605:0:0:0:0:
192,192,181748,1,0,0:0:0:0:
320,192,181748,1,4,0:0:0:0:
320,192,182176,1,0,0:0:0:0:
192,192,182391,1,8,0:0:0:0:
448,192,182391,1,8,0:0:0:0:
320,192,182605,128,0,183462:0:0:0:0:
448,192,182605,1,0,0:0:0:0:
448,192,182819,1,0,0:0:0:0:
448,192,183034,1,8,0:0:0:0:
448,192,183248,1,0,0:0:0:0:
192,192,183462,128,0,184748:0:0:0:0:
448,192,183462,1,0,0:0:0:0:
64,192,183462,1,4,0:0:0:0:
64,192,183891,1,0,0:0:0:0:
448,192,184105,1,8,0:0:0:0:
320,192,184105,1,8,0:0:0:0:
64,192,184534,1,8,0:0:0:0:
448,192,184534,1,8,0:0:0:0:
448,192,184748,128,0,185176:0:0:0:0:
320,192,184748,1,0,0:0:0:0:
64,192,184748,1,4,0:0:0:0:
64,192,185176,128,0,186891:0:0:0:0:
320,192,185176,1,4,0:0:0:0:
192,192,185176,1,0,0:0:0:0:
192,192,185605,1,0,0:0:0:0:
448,192,185819,1,0,0:0:0:0:
448,192,186248,1,0,0:0:0:0:
320,192,186462,1,0,0:0:0:0:
192,192,186676,1,0,0:0:0:0:
320,192,186891,128,0,188176:0:0:0:0:
448,192,186891,1,0,0:0:0:0:
192,192,187534,1,0,0:0:0:0:
192,192,188176,128,0,188605:0:0:0:0:
64,192,188176,1,0,0:0:0:0:
448,192,188605,128,0,192034:0:0:0:0:
64,192,188605,128,0,190319:0:0:0:0:
320,192,188605,1,4,0:0:0:0:
192,192,189248,1,0,0:0:0:0:
320,192,189891,1,0,0:0:0:0:
192,192,190319,1,4,0:0:0:0:
320,192,190319,128,0,192034:0:0:0:0:
64,192,190962,1,0,0:0:0:0:
192,192,191605,1,0,0:0:0:0:
192,192,192034,128,4,193748:0:0:0:0:
64,192,192034,1,4,0:0:0:0:
448,192,192248,1,0,0:0:0:0:
320,192,192462,1,8,0:0:0:0:
64,192,192676,1,0,0:0:0:0:
448,192,192784,1,0,0:0:0:0:
64,192,192891,1,0,0:0:0:0:
448,192,193105,1,0,0:0:0:0:
320,192,193319,1,8,0:0:0:0:
64,192,193534,1,0,0:0:0:0:
320,192,193641,1,0,0:0:0:0:
64,192,193748,1,0,0:0:0:0:
448,192,193748,128,0,195462:0:0:0:0:
320,192,193962,1,0,0:0:0:0:
192,192,194176,1,8,0:0:0:0:
64,192,194391,1,0,0:0:0:0:
192,192,194498,1,0,0:0:0:0:
64,192,194605,1,0,0:0:0:0:
320,192,194819,1,0,0:0:0:0:
192,192,195034,1,8,0:0:0:0:
320,192,195248,1,0,0:0:0:0:
192,192,195355,1,0,0:0:0:0:
64,192,195462,128,0,198891:0:0:0:0:
320,192,195462,1,0,0:0:0:0:
192,192,195676,1,0,0:0:0:0:
448,192,195891,1,8,0:0:0:0:
320,192,195891,1,0,0:0:0:0:
192,192,196105,1,0,0:0:0:0:
448,192,196319,1,0,0:0:0:0:
192,192,196534,1,0,0:0:0:0:
448,192,196748,1,8,0:0:0:0:
320,192,196748,1,0,0:0:0:0:
192,192,196962,1,0,0:0:0:0:
320,192,197176,1,0,0:0:0:0:
448,192,197391,1,0,0:0:0:0:
320,192,197605,1,0,0:0:0:0:
192,192,197605,1,8,0:0:0:0:
448,192,197819,1,0,0:0:0:0:
192,192,198034,1,0,0:0:0:0:
320,192,198248,1,0,0:0:0:0:
192,192,198462,1,8,0:0:0:0:
448,192,198462,1,0,0:0:0:0:
320,192,198676,1,0,0:0:0:0:
448,192,198891,128,0,200605:0:0:0:0:
192,192,198891,1,0,0:0:0:0:
320,192,199105,1,0,0:0:0:0:
64,192,199212,1,0,0:0:0:0:
320,192,199319,1,8,0:0:0:0:
64,192,199534,1,0,0:0:0:0:
192,192,199748,1,0,0:0:0:0:
320,192,199962,1,0,0:0:0:0:
192,192,200069,1,0,0:0:0:0:
64,192,200176,1,8,0:0:0:0:
320,192,200391,1,0,0:0:0:0:
64,192,200605,1,0,0:0:0:0:
192,192,200605,128,0,202319:0:0:0:0:
320,192,200819,1,0,0:0:0:0:
64,192,200926,1,0,0:0:0:0:
448,192,201034,1,8,0:0:0:0:
320,192,201248,1,0,0:0:0:0:
64,192,201462,1,0,0:0:0:0:
448,192,201676,1,0,0:0:0:0:
320,192,201784,1,0,0:0:0:0:
64,192,201891,1,8,0:0:0:0:
448,192,202105,1,0,0:0:0:0:
448,192,202319,128,0,205748:0:0:0:0:
320,192,202319,1,0,0:0:0:0:
192,192,202534,1,0,0:0:0:0:
64,192,202641,1,0,0:0:0:0:
320,192,202748,1,8,0:0:0:0:
320,192,202962,1,0,0:0:0:0:
64,192,203069,1,0,0:0:0:0:
192,192,203176,1,0,0:0:0:0:
64,192,203391,1,0,0:0:0:0:
192,192,203498,1,0,0:0:0:0:
320,192,203605,1,8,0:0:0:0:
64,192,203819,1,0,0:0:0:0:
192,192,203926,1,0,0:0:0:0:
64,192,204034,1,0,0:0:0:0:
192,192,204248,1,0,0:0:0:0:
64,192,204355,1,0,0:0:0:0:
320,192,204462,1,8,0:0:0:0:
320,192,204676,1,0,0:0:0:0:
64,192,204784,1,0,0:0:0:0:
192,192,204891,1,0,0:0:0:0:
320,192,205105,1,0,0:0:0:0:
192,192,205212,1,0,0:0:0:0:
320,192,205319,1,8,0:0:0:0:
64,192,205534,1,0,0:0:0:0:
192,192,205641,1,0,0:0:0:0:
320,192,205748,1,8,0:0:0:0:
64,192,205748,128,0,207462:0:0:0:0:
448,192,205962,1,0,0:0:0:0:
320,192,206069,1,0,0:0:0:0:
448,192,206176,1,8,0:0:0:0:
192,192,206391,1,0,0:0:0:0:
320,192,206498,1,0,0:0:0:0:
448,192,206605,1,8,0:0:0:0:
448,192,206819,1,0,0:0:0:0:
320,192,206926,1,0,0:0:0:0:
192,192,207034,1,8,0:0:0:0:
320,192,207248,1,0,0:0:0:0:
192,192,207355,1,0,0:0:0:0:
448,192,207462,1,8,0:0:0:0:
320,192,207462,128,0,209176:0:0:0:0:
64,192,207676,1,0,0:0:0:0:
448,192,207784,1,0,0:0:0:0:
192,192,207891,1,8,0:0:0:0:
192,192,208105,1,0,0:0:0:0:
64,192,208212,1,0,0:0:0:0:
448,192,208319,1,8,0:0:0:0:
192,192,208534,1,0,0:0:0:0:
448,192,208641,1,0,0:0:0:0:
64,192,208748,1,8,0:0:0:0:
448,192,208962,1,0,0:0:0:0:
192,192,209069,1,0,0:0:0:0:
448,192,209176,1,12,0:0:0:0:
64,192,209176,128,0,210891:0:0:0:0:
192,192,209391,1,0,0:0:0:0:
320,192,209498,1,0,0:0:0:0:
448,192,209605,1,8,0:0:0:0:
448,192,209819,1,0,0:0:0:0:
192,192,209926,1,0,0:0:0:0:
320,192,210034,1,8,0:0:0:0:
192,192,210248,1,0,0:0:0:0:
448,192,210355,1,0,0:0:0:0:
192,192,210462,1,8,0:0:0:0:
448,192,210676,1,0,0:0:0:0:
320,192,210784,1,0,0:0:0:0:
192,192,210891,128,0,212605:0:0:0:0:
448,192,210891,1,8,0:0:0:0:
320,192,211105,1,0,0:0:0:0:
448,192,211212,1,0,0:0:0:0:
64,192,211319,1,8,0:0:0:0:
448,192,211534,1,0,0:0:0:0:
320,192,211641,1,0,0:0:0:0:
64,192,211748,1,8,0:0:0:0:
448,192,211962,1,0,0:0:0:0:
320,192,212069,1,0,0:0:0:0:
448,192,212176,1,8,0:0:0:0:
320,192,212391,1,0,0:0:0:0:
64,192,212498,1,0,0:0:0:0:
320,192,212605,128,0,214319:0:0:0:0:
448,192,212605,1,12,0:0:0:0:
64,192,212819,1,0,0:0:0:0:
448,192,212926,1,0,0:0:0:0:
64,192,213034,1,8,0:0:0:0:
192,192,213248,1,0,0:0:0:0:
448,192,213355,1,0,0:0:0:0:
64,192,213462,1,8,0:0:0:0:
448,192,213676,1,0,0:0:0:0:
192,192,213784,1,0,0:0:0:0:
64,192,213891,1,8,0:0:0:0:
448,192,214105,1,0,0:0:0:0:
192,192,214212,1,0,0:0:0:0:
448,192,214319,1,12,0:0:0:0:
64,192,214319,128,0,216034:0:0:0:0:
192,192,214534,1,0,0:0:0:0:
448,192,214641,1,0,0:0:0:0:
320,192,214748,1,8,0:0:0:0:
448,192,214962,1,0,0:0:0:0:
192,192,215069,1,0,0:0:0:0:
320,192,215176,1,8,0:0:0:0:
192,192,215391,1,0,0:0:0:0:
320,192,215498,1,0,0:0:0:0:
448,192,215605,1,8,0:0:0:0:
320,192,215819,1,0,0:0:0:0:
192,192,215926,1,0,0:0:0:0:
448,192,216034,128,0,219462:0:0:0:0:
320,192,216034,1,12,0:0:0:0:
192,192,216141,1,0,0:0:0:0:
320,192,216248,1,0,0:0:0:0:
192,192,216355,1,0,0:0:0:0:
64,192,216462,1,0,0:0:0:0:
320,192,216569,1,0,0:0:0:0:
192,192,216676,1,0,0:0:0:0:
64,192,216784,1,0,0:0:0:0:
192,192,216891,1,8,0:0:0:0:
320,192,216998,1,0,0:0:0:0:
192,192,217105,1,0,0:0:0:0:
320,192,217212,1,0,0:0:0:0:
64,192,217319,1,0,0:0:0:0:
192,192,217426,1,0,0:0:0:0:
64,192,217534,1,0,0:0:0:0:
192,192,217641,1,0,0:0:0:0:
64,192,217748,1,8,0:0:0:0:
320,192,217855,1,0,0:0:0:0:
192,192,217962,1,0,0:0:0:0:
320,192,218069,1,0,0:0:0:0:
192,192,218176,1,0,0:0:0:0:
320,192,218284,1,0,0:0:0:0:
192,192,218391,1,0,0:0:0:0:
64,192,218498,1,0,0:0:0:0:
320,192,218605,1,8,0:0:0:0:
192,192,218712,1,0,0:0:0:0:
64,192,218819,1,0,0:0:0:0:
192,192,218926,1,0,0:0:0:0:
64,192,219034,1,0,0:0:0:0:
320,192,219141,1,0,0:0:0:0:
192,192,219248,1,0,0:0:0:0:
64,192,219355,1,0,0:0:0:0:
192,192,219462,1,4,0:0:0:0:
320,192,219462,1,4,0:0:0:0:
192,192,219676,1,0,0:0:0:0:
64,192,219676,1,0,0:0:0:0:
64,192,219891,1,8,0:0:0:0:
448,192,219891,1,8,0:0:0:0:
320,192,219891,1,0,0:0:0:0:
192,192,220105,1,0,0:0:0:0:
448,192,220105,1,0,0:0:0:0:
320,192,220319,1,0,0:0:0:0:
64,192,220319,1,0,0:0:0:0:
320,192,220534,1,0,0:0:0:0:
192,192,220534,1,0,0:0:0:0:
192,192,220748,1,0,0:0:0:0:
64,192,220748,1,8,0:0:0:0:
448,192,220748,1,8,0:0:0:0:
448,192,220962,1,0,0:0:0:0:
64,192,220962,1,0,0:0:0:0:
320,192,221176,1,0,0:0:0:0:
448,192,221176,1,0,0:0:0:0:
192,192,221391,1,0,0:0:0:0:
320,192,221391,1,0,0:0:0:0:
448,192,221605,1,8,0:0:0:0:
64,192,221605,1,8,0:0:0:0:
320,192,221605,1,0,0:0:0:0:
192,192,221819,1,0,0:0:0:0:
448,192,221819,1,0,0:0:0:0:
64,192,222034,1,0,0:0:0:0:
320,192,222034,1,0,0:0:0:0:
192,192,222248,1,0,0:0:0:0:
448,192,222248,1,0,0:0:0:0:
448,192,222462,1,8,0:0:0:0:
320,192,222462,1,8,0:0:0:0:
192,192,222462,1,0,0:0:0:0:
64,192,222676,1,0,0:0:0:0:
192,192,222676,1,0,0:0:0:0:
320,192,222891,128,0,226319:0:0:0:0:
448,192,222891,1,0,0:0:0:0:
192,192,222891,1,4,0:0:0:0:
64,192,223105,1,0,0:0:0:0:
192,192,223212,1,0,0:0:0:0:
64,192,223319,1,8,0:0:0:0:
448,192,223319,1,0,0:0:0:0:
192,192,223426,1,0,0:0:0:0:
64,192,223534,1,0,0:0:0:0:
448,192,223641,1,0,0:0:0:0:
64,192,223748,1,0,0:0:0:0:
192,192,223748,1,8,0:0:0:0:
192,192,223962,1,0,0:0:0:0:
64,192,224069,1,0,0:0:0:0:
192,192,224176,1,0,0:0:0:0:
448,192,224176,1,8,0:0:0:0:
64,192,224284,1,0,0:0:0:0:
192,192,224391,1,0,0:0:0:0:
448,192,224498,1,0,0:0:0:0:
192,192,224605,1,0,0:0:0:0:
64,192,224605,1,8,0:0:0:0:
448,192,224819,1,0,0:0:0:0:
192,192,224926,1,0,0:0:0:0:
448,192,225034,1,8,0:0:0:0:
64,192,225034,1,0,0:0:0:0:
192,192,225141,1,0,0:0:0:0:
448,192,225248,1,0,0:0:0:0:
192,192,225355,1,0,0:0:0:0:
64,192,225462,1,8,0:0:0:0:
448,192,225462,1,0,0:0:0:0:
64,192,225676,1,0,0:0:0:0:
192,192,225784,1,0,0:0:0:0:
64,192,225891,1,0,0:0:0:0:
448,192,225891,1,8,0:0:0:0:
192,192,225998,1,0,0:0:0:0:
64,192,226105,1,0,0:0:0:0:
448,192,226212,1,0,0:0:0:0:
64,192,226319,1,8,0:0:0:0:
192,192,226319,1,0,0:0:0:0:
320,192,226534,1,0,0:0:0:0:
192,192,226534,1,0,0:0:0:0:
448,192,226748,1,8,0:0:0:0:
64,192,226748,1,8,0:0:0:0:
320,192,226748,1,0,0:0:0:0:
64,192,226962,1,0,0:0:0:0:
192,192,226962,1,0,0:0:0:0:
448,192,227176,1,0,0:0:0:0:
192,192,227176,1,0,0:0:0:0:
64,192,227391,1,0,0:0:0:0:
320,192,227391,1,0,0:0:0:0:
192,192,227605,1,0,0:0:0:0:
320,192,227605,1,8,0:0:0:0:
64,192,227605,1,8,0:0:0:0:
320,192,227819,1,0,0:0:0:0:
448,192,227819,1,0,0:0:0:0:
320,192,228034,1,0,0:0:0:0:
192,192,228034,1,0,0:0:0:0:
64,192,228248,1,0,0:0:0:0:
448,192,228248,1,0,0:0:0:0:
448,192,228462,1,8,0:0:0:0:
192,192,228462,1,8,0:0:0:0:
320,192,228462,1,0,0:0:0:0:
64,192,228676,1,0,0:0:0:0:
192,192,228676,1,0,0:0:0:0:
320,192,228891,1,0,0:0:0:0:
64,192,228891,1,0,0:0:0:0:
448,192,229105,1,0,0:0:0:0:
320,192,229105,1,0,0:0:0:0:
320,192,229319,1,8,0:0:0:0:
448,192,229319,1,8,0:0:0:0:
64,192,229319,1,0,0:0:0:0:
192,192,229534,1,0,0:0:0:0:
448,192,229534,1,0,0:0:0:0:
192,192,229748,128,0,233176:0:0:0:0:
64,192,229748,1,8,0:0:0:0:
320,192,229748,1,4,0:0:0:0:
320,192,229962,1,0,0:0:0:0:
64,192,230069,1,0,0:0:0:0:
320,192,230176,1,8,0:0:0:0:
448,192,230176,1,0,0:0:0:0:
64,192,230284,1,0,0:0:0:0:
320,192,230391,1,0,0:0:0:0:
448,192,230498,1,0,0:0:0:0:
64,192,230605,1,8,0:0:0:0:
320,192,230605,1,0,0:0:0:0:
64,192,230819,1,0,0:0:0:0:
320,192,230926,1,0,0:0:0:0:
64,192,231034,1,0,0:0:0:0:
448,192,231034,1,8,0:0:0:0:
320,192,231141,1,0,0:0:0:0:
64,192,231248,1,0,0:0:0:0:
320,192,231355,1,0,0:0:0:0:
448,192,231462,1,0,0:0:0:0:
64,192,231462,1,8,0:0:0:0:
320,192,231676,1,0,0:0:0:0:
448,192,231784,1,0,0:0:0:0:
320,192,231891,1,8,0:0:0:0:
64,192,231891,1,0,0:0:0:0:
448,192,231998,1,0,0:0:0:0:
320,192,232105,1,0,0:0:0:0:
64,192,232212,1,0,0:0:0:0:
320,192,232319,1,0,0:0:0:0:
448,192,232319,1,8,0:0:0:0:
320,192,232534,1,0,0:0:0:0:
64,192,232641,1,0,0:0:0:0:
320,192,232748,1,8,0:0:0:0:
448,192,232748,1,0,0:0:0:0:
64,192,232855,1,0,0:0:0:0:
320,192,232962,1,0,0:0:0:0:
448,192,233069,1,0,0:0:0:0:
320,192,233176,1,8,0:0:0:0:
64,192,233176,1,4,0:0:0:0:
64,192,233391,1,0,0:0:0:0:
192,192,233391,1,0,0:0:0:0:
448,192,233605,1,8,0:0:0:0:
64,192,233605,1,8,0:0:0:0:
320,192,233605,1,0,0:0:0:0:
320,192,233819,1,0,0:0:0:0:
192,192,233819,1,0,0:0:0:0:
64,192,234034,1,0,0:0:0:0:
448,192,234034,1,0,0:0:0:0:
64,192,234248,1,0,0:0:0:0:
320,192,234248,1,0,0:0:0:0:
448,192,234462,1,8,0:0:0:0:
192,192,234462,1,0,0:0:0:0:
64,192,234462,1,8,0:0:0:0:
192,192,234676,1,0,0:0:0:0:
320,192,234676,1,0,0:0:0:0:
448,192,234891,1,4,0:0:0:0:
320,192,234891,1,0,0:0:0:0:
320,192,235105,1,0,0:0:0:0:
64,192,235105,1,0,0:0:0:0:
320,192,235319,1,0,0:0:0:0:
448,192,235319,1,8,0:0:0:0:
64,192,235319,1,8,0:0:0:0:
64,192,235534,1,0,0:0:0:0:
192,192,235534,1,0,0:0:0:0:
64,192,235748,1,0,0:0:0:0:
448,192,235748,1,0,0:0:0:0:
448,192,235962,1,0,0:0:0:0:
192,192,235962,1,0,0:0:0:0:
192,192,236176,1,0,0:0:0:0:
320,192,236176,1,8,0:0:0:0:
64,192,236176,1,8,0:0:0:0:
64,192,236391,1,0,0:0:0:0:
320,192,236391,1,0,0:0:0:0:
448,192,236605,1,0,0:0:0:0:
320,192,236605,1,4,0:0:0:0:
320,192,236819,1,0,0:0:0:0:
192,192,236819,1,0,0:0:0:0:
448,192,237034,1,8,0:0:0:0:
192,192,237034,1,8,0:0:0:0:
320,192,237034,1,0,0:0:0:0:
448,192,237248,1,0,0:0:0:0:
192,192,237248,1,0,0:0:0:0:
64,192,237462,1,0,0:0:0:0:
448,192,237462,1,0,0:0:0:0:
192,192,237676,1,0,0:0:0:0:
320,192,237676,1,0,0:0:0:0:
192,192,237891,1,0,0:0:0:0:
448,192,237891,1,8,0:0:0:0:
64,192,237891,1,8,0:0:0:0:
192,192,238105,1,0,0:0:0:0:
64,192,238105,1,0,0:0:0:0:
64,192,238319,1,0,0:0:0:0:
320,192,238319,1,0,0:0:0:0:
448,192,238534,1,0,0:0:0:0:
64,192,238534,1,0,0:0:0:0:
192,192,238748,1,8,0:0:0:0:
320,192,238748,1,0,0:0:0:0:
64,192,238748,1,8,0:0:0:0:
448,192,238962,1,0,0:0:0:0:
192,192,238962,1,0,0:0:0:0:
320,192,239176,1,0,0:0:0:0:
448,192,239176,1,0,0:0:0:0:
320,192,239391,1,0,0:0:0:0:
64,192,239391,1,0,0:0:0:0:
192,192,239605,1,0,0:0:0:0:
448,192,239605,1,8,0:0:0:0:
320,192,239605,1,8,0:0:0:0:
448,192,239819,1,0,0:0:0:0:
64,192,239819,1,0,0:0:0:0:
192,192,240034,1,0,0:0:0:0:
320,192,240034,1,4,0:0:0:0:
448,192,240248,1,0,0:0:0:0:
320,192,240248,1,0,0:0:0:0:
320,192,240462,1,0,0:0:0:0:
64,192,240462,1,8,0:0:0:0:
448,192,240462,1,8,0:0:0:0:
192,192,240676,1,0,0:0:0:0:
448,192,240676,1,0,0:0:0:0:
320,192,240891,1,0,0:0:0:0:
192,192,240891,1,0,0:0:0:0:
192,192,241105,1,0,0:0:0:0:
64,192,241105,1,0,0:0:0:0:
320,192,241319,1,0,0:0:0:0:
448,192,241319,1,8,0:0:0:0:
192,192,241319,1,8,0:0:0:0:
64,192,241534,1,0,0:0:0:0:
320,192,241534,1,0,0:0:0:0:
192,192,241748,1,4,0:0:0:0:
448,192,241748,1,0,0:0:0:0:
320,192,241962,1,0,0:0:0:0:
192,192,241962,1,0,0:0:0:0:
64,192,242176,1,8,0:0:0:0:
320,192,242176,1,0,0:0:0:0:
448,192,242176,1,8,0:0:0:0:
320,192,242391,1,0,0:0:0:0:
448,192,242391,1,0,0:0:0:0:
192,192,242605,1,0,0:0:0:0:
320,192,242605,1,0,0:0:0:0:
448,192,242819,1,0,0:0:0:0:
64,192,242819,1,0,0:0:0:0:
192,192,243034,1,0,0:0:0:0:
64,192,243034,1,8,0:0:0:0:
320,192,243034,1,8,0:0:0:0:
448,192,243248,1,0,0:0:0:0:
192,192,243248,1,0,0:0:0:0:
448,192,243462,128,0,246891:0:0:0:0:
64,192,243462,1,0,0:0:0:0:
192,192,243569,1,0,0:0:0:0:
320,192,243676,1,0,0:0:0:0:
192,192,243784,1,0,0:0:0:0:
64,192,243784,1,0,0:0:0:0:
320,192,243891,1,8,0:0:0:0:
64,192,243998,1,0,0:0:0:0:
192,192,244105,1,0,0:0:0:0:
320,192,244212,1,0,0:0:0:0:
64,192,244319,1,0,0:0:0:0:
192,192,244426,1,0,0:0:0:0:
320,192,244534,1,0,0:0:0:0:
192,192,244641,1,0,0:0:0:0:
64,192,244641,1,0,0:0:0:0:
320,192,244748,1,8,0:0:0:0:
64,192,244855,1,0,0:0:0:0:
192,192,244962,1,0,0:0:0:0:
320,192,245069,1,0,0:0:0:0:
64,192,245176,1,0,0:0:0:0:
192,192,245284,1,0,0:0:0:0:
320,192,245391,1,0,0:0:0:0:
192,192,245498,1,0,0:0:0:0:
64,192,245498,1,0,0:0:0:0:
320,192,245605,1,8,0:0:0:0:
64,192,245712,1,0,0:0:0:0:
192,192,245819,1,0,0:0:0:0:
320,192,245926,1,0,0:0:0:0:
64,192,246034,1,4,0:0:0:0:
192,192,246034,128,4,246462:0:0:0:0:
64,192,246462,1,0,0:0:0:0:
192,192,246676,1,0,0:0:0:0:
64,192,246891,1,4,0:0:0:0:
192,192,246891,128,4,248605:0:0:0:0:
320,192,246998,1,0,0:0:0:0:
448,192,247105,1,0,0:0:0:0:
64,192,247212,1,0,0:0:0:0:
320,192,247319,1,8,0:0:0:0:
448,192,247319,1,0,0:0:0:0:
448,192,247534,1,0,0:0:0:0:
320,192,247641,1,0,0:0:0:0:
448,192,247748,1,0,0:0:0:0:
320,192,247855,1,0,0:0:0:0:
64,192,247962,1,0,0:0:0:0:
448,192,248069,1,0,0:0:0:0:
320,192,248176,1,0,0:0:0:0:
64,192,248176,1,8,0:0:0:0:
448,192,248391,1,0,0:0:0:0:
320,192,248498,1,0,0:0:0:0:
448,192,248605,128,0,250319:0:0:0:0:
64,192,248605,1,0,0:0:0:0:
320,192,248712,1,0,0:0:0:0:
64,192,248819,1,0,0:0:0:0:
320,192,248926,1,0,0:0:0:0:
64,192,249034,1,0,0:0:0:0:
192,192,249034,1,8,0:0:0:0:
320,192,249248,1,0,0:0:0:0:
192,192,249355,1,0,0:0:0:0:
64,192,249462,1,0,0:0:0:0:
192,192,249569,1,0,0:0:0:0:
320,192,249676,1,0,0:0:0:0:
192,192,249784,1,0,0:0:0:0:
64,192,249891,1,0,0:0:0:0:
320,192,249891,1,8,0:0:0:0:
192,192,250105,1,0,0:0:0:0:
64,192,250212,1,0,0:0:0:0:
320,192,250319,1,4,0:0:0:0:
192,192,250319,128,0,253748:0:0:0:0:
64,192,250426,1,0,0:0:0:0:
448,192,250534,1,0,0:0:0:0:
320,192,250641,1,0,0:0:0:0:
64,192,250748,1,8,0:0:0:0:
448,192,250748,1,0,0:0:0:0:
320,192,250962,1,0,0:0:0:0:
448,192,251069,1,0,0:0:0:0:
64,192,251176,1,0,0:0:0:0:
448,192,251284,1,0,0:0:0:0:
320,192,251391,1,0,0:0:0:0:
64,192,251498,1,0,0:0:0:0:
448,192,251605,1,8,0:0:0:0:
320,192,251605,1,0,0:0:0:0:
320,192,251819,1,0,0:0:0:0:
448,192,251926,1,0,0:0:0:0:
64,192,252034,1,0,0:0:0:0:
448,192,252141,1,0,0:0:0:0:
320,192,252248,1,0,0:0:0:0:
448,192,252355,1,0,0:0:0:0:
64,192,252462,1,0,0:0:0:0:
320,192,252462,1,8,0:0:0:0:
448,192,252676,1,0,0:0:0:0:
320,192,252784,1,0,0:0:0:0:
64,192,252891,1,0,0:0:0:0:
448,192,252998,1,0,0:0:0:0:
320,192,253105,1,0,0:0:0:0:
64,192,253212,1,0,0:0:0:0:
448,192,253319,1,8,0:0:0:0:
320,192,253319,1,0,0:0:0:0:
320,192,253534,1,0,0:0:0:0:
64,192,253641,1,0,0:0:0:0:
320,192,253748,1,4,0:0:0:0:
448,192,253748,128,0,255462:0:0:0:0:
64,192,253855,1,0,0:0:0:0:
192,192,253962,1,0,0:0:0:0:
64,192,254069,1,0,0:0:0:0:
320,192,254176,1,0,0:0:0:0:
192,192,254176,1,8,0:0:0:0:
192,192,254391,1,0,0:0:0:0:
320,192,254498,1,0,0:0:0:0:
64,192,254605,1,0,0:0:0:0:
320,192,254712,1,0,0:0:0:0:
192,192,254819,1,0,0:0:0:0:
320,192,254926,1,0,0:0:0:0:
64,192,255034,1,8,0:0:0:0:
192,192,255034,1,0,0:0:0:0:
320,192,255248,1,0,0:0:0:0:
64,192,255355,1,0,0:0:0:0:
192,192,255462,128,0,257176:0:0:0:0:
320,192,255462,1,4,0:0:0:0:
64,192,255569,1,0,0:0:0:0:
448,192,255676,1,0,0:0:0:0:
320,192,255784,1,0,0:0:0:0:
64,192,255891,1,0,0:0:0:0:
448,192,255891,1,8,0:0:0:0:
320,192,256105,1,0,0:0:0:0:
64,192,256212,1,0,0:0:0:0:
448,192,256319,1,0,0:0:0:0:
320,192,256426,1,0,0:0:0:0:
64,192,256534,1,0,0:0:0:0:
448,192,256641,1,0,0:0:0:0:
320,192,256748,1,0,0:0:0:0:
64,192,256748,1,8,0:0:0:0:
448,192,256962,1,0,0:0:0:0:
320,192,257069,1,0,0:0:0:0:
64,192,257176,128,0,260605:0:0:0:0:
448,192,257176,1,4,0:0:0:0:
320,192,257284,1,0,0:0:0:0:
192,192,257391,1,0,0:0:0:0:
320,192,257498,1,0,0:0:0:0:
192,192,257605,1,0,0:0:0:0:
448,192,257605,1,8,0:0:0:0:
320,192,257819,1,0,0:0:0:0:
448,192,257926,1,0,0:0:0:0:
192,192,258034,1,0,0:0:0:0:
448,192,258141,1,0,0:0:0:0:
320,192,258248,1,0,0:0:0:0:
448,192,258355,1,0,0:0:0:0:
192,192,258462,1,8,0:0:0:0:
320,192,258462,1,0,0:0:0:0:
320,192,258676,1,0,0:0:0:0:
192,192,258784,1,0,0:0:0:0:
448,192,258891,1,0,0:0:0:0:
192,192,258998,1,0,0:0:0:0:
320,192,259105,1,0,0:0:0:0:
192,192,259212,1,0,0:0:0:0:
448,192,259319,1,0,0:0:0:0:
320,192,259319,1,8,0:0:0:0:
320,192,259534,1,0,0:0:0:0:
192,192,259641,1,0,0:0:0:0:
448,192,259748,1,0,0:0:0:0:
320,192,259855,1,0,0:0:0:0:
192,192,259962,1,0,0:0:0:0:
448,192,260069,1,0,0:0:0:0:
192,192,260176,1,0,0:0:0:0:
320,192,260176,1,8,0:0:0:0:
320,192,260391,1,0,0:0:0:0:
192,192,260498,1,0,0:0:0:0:
448,192,260605,128,0,262319:0:0:0:0:
320,192,260605,1,4,0:0:0:0:
192,192,260712,1,0,0:0:0:0:
64,192,260819,1,0,0:0:0:0:
320,192,260926,1,0,0:0:0:0:
64,192,261034,1,8,0:0:0:0:
192,192,261034,1,0,0:0:0:0:
320,192,261248,1,0,0:0:0:0:
64,192,261355,1,0,0:0:0:0:
192,192,261462,1,0,0:0:0:0:
64,192,261569,1,0,0:0:0:0:
320,192,261676,1,0,0:0:0:0:
192,192,261784,1,0,0:0:0:0:
64,192,261891,1,0,0:0:0:0:
320,192,261891,1,8,0:0:0:0:
192,192,262105,1,0,0:0:0:0:
64,192,262212,1,0,0:0:0:0:
320,192,262319,128,0,264034:0:0:0:0:
192,192,262319,1,4,0:0:0:0:
64,192,262426,1,0,0:0:0:0:
448,192,262534,1,0,0:0:0:0:
192,192,262641,1,0,0:0:0:0:
448,192,262748,1,0,0:0:0:0:
64,192,262748,1,8,0:0:0:0:
64,192,262962,1,0,0:0:0:0:
192,192,263069,1,0,0:0:0:0:
448,192,263176,1,0,0:0:0:0:
192,192,263284,1,0,0:0:0:0:
448,192,263391,1,0,0:0:0:0:
64,192,263498,1,0,0:0:0:0:
448,192,263605,1,8,0:0:0:0:
192,192,263605,1,0,0:0:0:0:
64,192,263712,1,0,0:0:0:0:
448,192,263819,1,0,0:0:0:0:
192,192,263926,1,0,0:0:0:0:
448,192,264034,1,8,0:0:0:0:
64,192,264034,1,4,0:0:0:0:
320,192,264248,1,0,0:0:0:0:
64,192,264248,1,0,0:0:0:0:
448,192,264462,1,8,0:0:0:0:
192,192,264462,1,8,0:0:0:0:
320,192,264462,1,0,0:0:0:0:
192,192,264676,1,0,0:0:0:0:
64,192,264676,1,0,0:0:0:0:
320,192,264891,1,0,0:0:0:0:
192,192,264891,1,0,0:0:0:0:
320,192,265105,1,0,0:0:0:0:
448,192,265105,1,0,0:0:0:0:
64,192,265319,1,8,0:0:0:0:
448,192,265319,1,8,0:0:0:0:
192,192,265319,1,0,0:0:0:0:
320,192,265534,1,0,0:0:0:0:
64,192,265534,1,0,0:0:0:0:
64,192,265748,1,0,0:0:0:0:
448,192,265748,1,0,0:0:0:0:
64,192,265962,1,0,0:0:0:0:
192,192,265962,1,0,0:0:0:0:
192,192,266176,1,8,0:0:0:0:
448,192,266176,1,8,0:0:0:0:
320,192,266176,1,0,0:0:0:0:
64,192,266391,1,0,0:0:0:0:
320,192,266391,1,0,0:0:0:0:
192,192,266605,1,0,0:0:0:0:
448,192,266605,1,0,0:0:0:0:
320,192,266819,1,0,0:0:0:0:
192,192,266819,1,0,0:0:0:0:
64,192,267034,1,8,0:0:0:0:
448,192,267034,1,8,0:0:0:0:
192,192,267034,1,0,0:0:0:0:
320,192,267248,1,0,0:0:0:0:
448,192,267248,1,0,0:0:0:0:
320,192,267462,1,4,0:0:0:0:
64,192,267462,1,0,0:0:0:0:
448,192,267676,1,0,0:0:0:0:
192,192,267676,1,0,0:0:0:0:
192,192,267891,1,0,0:0:0:0:
64,192,267891,1,8,0:0:0:0:
448,192,267891,1,8,0:0:0:0:
320,192,268105,1,0,0:0:0:0:
64,192,268105,1,0,0:0:0:0:
192,192,268319,1,0,0:0:0:0:
320,192,268319,1,0,0:0:0:0:
448,192,268534,1,0,0:0:0:0:
320,192,268534,1,0,0:0:0:0:
64,192,268748,1,8,0:0:0:0:
320,192,268748,1,8,0:0:0:0:
192,192,268748,1,0,0:0:0:0:
192,192,268962,1,0,0:0:0:0:
448,192,268962,1,0,0:0:0:0:
192,192,269176,1,0,0:0:0:0:
320,192,269176,1,4,0:0:0:0:
448,192,269391,1,0,0:0:0:0:
64,192,269391,1,0,0:0:0:0:
448,192,269605,1,8,0:0:0:0:
320,192,269605,1,0,0:0:0:0:
192,192,269605,1,8,0:0:0:0:
320,192,269819,1,0,0:0:0:0:
64,192,269819,1,0,0:0:0:0:
192,192,270034,1,0,0:0:0:0:
448,192,270034,1,0,0:0:0:0:
64,192,270248,1,0,0:0:0:0:
320,192,270248,1,0,0:0:0:0:
192,192,270462,1,0,0:0:0:0:
64,192,270462,1,8,0:0:0:0:
448,192,270462,1,8,0:0:0:0:
448,192,270676,1,0,0:0:0:0:
320,192,270676,1,0,0:0:0:0:
64,192,270891,128,0,274319:0:0:0:0:
192,192,270891,1,4,0:0:0:0:
320,192,270998,1,0,0:0:0:0:
192,192,271105,1,0,0:0:0:0:
320,192,271212,1,0,0:0:0:0:
448,192,271212,1,0,0:0:0:0:
192,192,271319,1,8,0:0:0:0:
320,192,271426,1,0,0:0:0:0:
192,192,271534,1,0,0:0:0:0:
320,192,271641,1,0,0:0:0:0:
448,192,271748,1,0,0:0:0:0:
192,192,271855,1,0,0:0:0:0:
448,192,271962,1,0,0:0:0:0:
192,192,272069,1,0,0:0:0:0:
320,192,272069,1,0,0:0:0:0:
448,192,272176,1,8,0:0:0:0:
192,192,272284,1,0,0:0:0:0:
320,192,272391,1,0,0:0:0:0:
448,192,272498,1,0,0:0:0:0:
192,192,272605,1,0,0:0:0:0:
320,192,272819,1,0,0:0:0:0:
448,192,273034,1,0,0:0:0:0:
320,192,273034,1,0,0:0:0:0:
320,192,273248,1,0,0:0:0:0:
192,192,273462,1,0,0:0:0:0:
320,192,273676,1,0,0:0:0:0:
448,192,273891,1,0,0:0:0:0:
192,192,273891,1,0,0:0:0:0:
448,192,274319,1,4,0:0:0:0:
320,192,274319,128,0,276034:0:0:0:0:
192,192,274319,1,4,0:0:0:0:
448,192,274534,1,0,0:0:0:0:
192,192,274641,1,0,0:0:0:0:
448,192,274748,1,0,0:0:0:0:
64,192,274748,1,8,0:0:0:0:
448,192,274962,1,0,0:0:0:0:
192,192,274962,1,0,0:0:0:0:
192,192,275176,1,0,0:0:0:0:
64,192,275176,1,0,0:0:0:0:
64,192,275391,1,0,0:0:0:0:
192,192,275498,1,0,0:0:0:0:
448,192,275605,1,8,0:0:0:0:
64,192,275605,1,0,0:0:0:0:
192,192,275819,1,0,0:0:0:0:
64,192,275819,1,0,0:0:0:0:
64,192,276034,1,0,0:0:0:0:
448,192,276034,1,4,0:0:0:0:
192,192,276034,128,0,277748:0:0:0:0:
448,192,276248,1,0,0:0:0:0:
320,192,276355,1,0,0:0:0:0:
64,192,276462,1,0,0:0:0:0:
448,192,276462,1,8,0:0:0:0:
320,192,276676,1,0,0:0:0:0:
448,192,276676,1,0,0:0:0:0:
64,192,276891,1,0,0:0:0:0:
320,192,276891,1,0,0:0:0:0:
64,192,277105,1,0,0:0:0:0:
320,192,277212,1,0,0:0:0:0:
64,192,277319,1,8,0:0:0:0:
448,192,277319,1,0,0:0:0:0:
320,192,277534,1,0,0:0:0:0:
448,192,277534,1,0,0:0:0:0:
320,192,277748,1,0,0:0:0:0:
64,192,277748,1,0,0:0:0:0:
448,192,277962,1,0,0:0:0:0:
320,192,277962,1,0,0:0:0:0:
64,192,278176,1,8,0:0:0:0:
192,192,278176,1,0,0:0:0:0:
448,192,278176,1,0,0:0:0:0:
192,192,278391,1,0,0:0:0:0:
448,192,278391,1,0,0:0:0:0:
64,192,278605,1,0,0:0:0:0:
320,192,278605,1,0,0:0:0:0:
320,192,278819,1,0,0:0:0:0:
192,192,278819,1,0,0:0:0:0:
448,192,279034,1,8,0:0:0:0:
64,192,279034,1,0,0:0:0:0:
320,192,279034,1,0,0:0:0:0:
64,192,279248,1,0,0:0:0:0:
192,192,279248,1,0,0:0:0:0:
64,192,279462,1,0,0:0:0:0:
448,192,279462,1,0,0:0:0:0:
64,192,279676,1,0,0:0:0:0:
320,192,279676,1,0,0:0:0:0:
192,192,279891,1,0,0:0:0:0:
448,192,279891,1,0,0:0:0:0:
320,192,279891,1,8,0:0:0:0:
320,192,280105,1,0,0:0:0:0:
64,192,280105,1,0,0:0:0:0:
64,192,280319,1,0,0:0:0:0:
448,192,280319,1,0,0:0:0:0:
320,192,280534,1,0,0:0:0:0:
192,192,280534,1,0,0:0:0:0:
448,192,280748,1,0,0:0:0:0:
320,192,280748,1,0,0:0:0:0:
64,192,280748,1,8,0:0:0:0:
64,192,280962,1,0,0:0:0:0:
192,192,280962,1,0,0:0:0:0:
192,192,281176,128,0,282891:0:0:0:0:
320,192,281176,1,4,0:0:0:0:
64,192,281176,1,0,0:0:0:0:
320,192,281391,1,0,0:0:0:0:
448,192,281498,1,0,0:0:0:0:
320,192,281605,1,8,0:0:0:0:
64,192,281605,1,0,0:0:0:0:
320,192,281819,1,0,0:0:0:0:
448,192,281819,1,0,0:0:0:0:
64,192,282034,1,0,0:0:0:0:
448,192,282034,1,0,0:0:0:0:
448,192,282248,1,0,0:0:0:0:
64,192,282355,1,0,0:0:0:0:
448,192,282462,1,0,0:0:0:0:
320,192,282462,1,8,0:0:0:0:
64,192,282676,1,0,0:0:0:0:
320,192,282676,1,0,0:0:0:0:
448,192,282891,1,4,0:0:0:0:
320,192,282891,1,0,0:0:0:0:
64,192,282891,128,0,284605:0:0:0:0:
192,192,283105,1,0,0:0:0:0:
448,192,283212,1,0,0:0:0:0:
320,192,283319,1,8,0:0:0:0:
192,192,283319,1,0,0:0:0:0:
448,192,283534,1,0,0:0:0:0:
192,192,283534,1,0,0:0:0:0:
448,192,283748,1,0,0:0:0:0:
320,192,283748,1,0,0:0:0:0:
192,192,283962,1,0,0:0:0:0:
320,192,284069,1,0,0:0:0:0:
192,192,284176,1,0,0:0:0:0:
448,192,284176,1,8,0:0:0:0:
448,192,284391,1,0,0:0:0:0:
320,192,284391,1,0,0:0:0:0:
320,192,284605,128,0,288034:0:0:0:0:
448,192,284605,1,4,0:0:0:0:
192,192,284712,1,0,0:0:0:0:
448,192,284819,1,0,0:0:0:0:
64,192,284926,1,0,0:0:0:0:
192,192,285034,1,8,0:0:0:0:
448,192,285034,1,0,0:0:0:0:
64,192,285141,1,0,0:0:0:0:
448,192,285248,1,0,0:0:0:0:
192,192,285355,1,0,0:0:0:0:
448,192,285462,1,0,0:0:0:0:
192,192,285569,1,0,0:0:0:0:
64,192,285676,1,0,0:0:0:0:
192,192,285784,1,0,0:0:0:0:
64,192,285891,1,8,0:0:0:0:
448,192,285891,1,0,0:0:0:0:
192,192,285998,1,0,0:0:0:0:
64,192,286105,1,0,0:0:0:0:
448,192,286212,1,0,0:0:0:0:
64,192,286319,1,0,0:0:0:0:
192,192,286426,1,0,0:0:0:0:
448,192,286534,1,0,0:0:0:0:
64,192,286641,1,0,0:0:0:0:
448,192,286748,1,8,0:0:0:0:
192,192,286748,1,0,0:0:0:0:
64,192,286855,1,0,0:0:0:0:
192,192,286962,1,0,0:0:0:0:
448,192,287069,1,0,0:0:0:0:
64,192,287176,1,0,0:0:0:0:
192,192,287284,1,0,0:0:0:0:
448,192,287391,1,0,0:0:0:0:
64,192,287498,1,0,0:0:0:0:
448,192,287605,1,0,0:0:0:0:
192,192,287605,1,8,0:0:0:0:
64,192,287712,1,0,0:0:0:0:
192,192,287819,1,0,0:0:0:0:
448,192,287926,1,0,0:0:0:0:
192,192,288034,128,0,289748:0:0:0:0:
64,192,288034,1,4,0:0:0:0:
448,192,288462,1,8,0:0:0:0:
320,192,288462,1,0,0:0:0:0:
64,192,288462,1,0,0:0:0:0:
64,192,288676,1,0,0:0:0:0:
320,192,288676,1,0,0:0:0:0:
64,192,288891,1,0,0:0:0:0:
448,192,288891,1,0,0:0:0:0:
64,192,289319,1,8,0:0:0:0:
448,192,289319,1,0,0:0:0:0:
320,192,289319,1,0,0:0:0:0:
448,192,289748,128,0,291462:0:0:0:0:
320,192,289748,1,4,0:0:0:0:
64,192,289748,1,0,0:0:0:0:
64,192,290176,1,0,0:0:0:0:
192,192,290176,1,0,0:0:0:0:
320,192,290176,1,8,0:0:0:0:
192,192,290391,1,0,0:0:0:0:
320,192,290391,1,0,0:0:0:0:
64,192,290605,1,0,0:0:0:0:
192,192,290605,1,0,0:0:0:0:
320,192,291034,1,0,0:0:0:0:
64,192,291034,1,8,0:0:0:0:
192,192,291034,1,0,0:0:0:0:
64,192,291462,128,0,293176:0:0:0:0:
320,192,291462,1,4,0:0:0:0:
192,192,291569,1,0,0:0:0:0:
320,192,291676,1,0,0:0:0:0:
448,192,291784,1,0,0:0:0:0:
320,192,291891,1,0,0:0:0:0:
192,192,291891,1,8,0:0:0:0:
320,192,292105,1,0,0:0:0:0:
192,192,292212,1,0,0:0:0:0:
320,192,292319,1,0,0:0:0:0:
448,192,292426,1,0,0:0:0:0:
192,192,292534,1,0,0:0:0:0:
320,192,292641,1,0,0:0:0:0:
448,192,292748,1,8,0:0:0:0:
192,192,292748,1,0,0:0:0:0:
320,192,292962,1,0,0:0:0:0:
448,192,293069,1,0,0:0:0:0:
320,192,293176,128,0,294891:0:0:0:0:
192,192,293176,1,0,0:0:0:0:
448,192,293284,1,0,0:0:0:0:
192,192,293391,1,0,0:0:0:0:
64,192,293498,1,0,0:0:0:0:
448,192,293605,1,0,0:0:0:0:
192,192,293605,1,8,0:0:0:0:
64,192,293819,1,0,0:0:0:0:
192,192,293926,1,0,0:0:0:0:
64,192,294034,1,0,0:0:0:0:
448,192,294141,1,0,0:0:0:0:
192,192,294248,1,0,0:0:0:0:
448,192,294355,1,0,0:0:0:0:
64,192,294462,1,0,0:0:0:0:
192,192,294462,1,8,0:0:0:0:
448,192,294676,1,0,0:0:0:0:
192,192,294784,1,0,0:0:0:0:
448,192,294891,128,0,296605:0:0:0:0:
64,192,294891,1,4,0:0:0:0:
192,192,294998,1,0,0:0:0:0:
64,192,295105,1,0,0:0:0:0:
192,192,295212,1,0,0:0:0:0:
320,192,295319,1,8,0:0:0:0:
64,192,295319,1,0,0:0:0:0:
192,192,295426,1,0,0:0:0:0:
64,192,295534,1,0,0:0:0:0:
192,192,295641,1,0,0:0:0:0:
320,192,295748,1,8,0:0:0:0:
192,192,295855,1,0,0:0:0:0:
64,192,295962,1,0,0:0:0:0:
192,192,296069,1,0,0:0:0:0:
64,192,296176,1,8,0:0:0:0:
320,192,296176,1,0,0:0:0:0:
192,192,296284,1,0,0:0:0:0:
64,192,296391,1,0,0:0:0:0:
320,192,296498,1,0,0:0:0:0:
192,192,296605,128,0,298319:0:0:0:0:
64,192,296605,1,12,0:0:0:0:
320,192,296712,1,0,0:0:0:0:
64,192,296819,1,0,0:0:0:0:
320,192,296926,1,0,0:0:0:0:
64,192,297034,1,0,0:0:0:0:
448,192,297034,1,8,0:0:0:0:
320,192,297141,1,0,0:0:0:0:
448,192,297248,1,0,0:0:0:0:
320,192,297355,1,0,0:0:0:0:
64,192,297462,1,8,0:0:0:0:
320,192,297569,1,0,0:0:0:0:
448,192,297676,1,0,0:0:0:0:
64,192,297784,1,0,0:0:0:0:
320,192,297891,1,0,0:0:0:0:
448,192,297891,1,8,0:0:0:0:
64,192,297998,1,0,0:0:0:0:
448,192,298105,1,0,0:0:0:0:
64,192,298212,1,0,0:0:0:0:
448,192,298319,1,12,0:0:0:0:
320,192,298319,128,0,301748:0:0:0:0:
64,192,298426,1,0,0:0:0:0:
448,192,298534,1,0,0:0:0:0:
192,192,298641,1,0,0:0:0:0:
64,192,298748,1,8,0:0:0:0:
448,192,298748,1,0,0:0:0:0:
192,192,298855,1,0,0:0:0:0:
64,192,298962,1,0,0:0:0:0:
448,192,299069,1,0,0:0:0:0:
192,192,299176,1,8,0:0:0:0:
64,192,299284,1,0,0:0:0:0:
192,192,299391,1,0,0:0:0:0:
64,192,299498,1,0,0:0:0:0:
448,192,299605,1,8,0:0:0:0:
192,192,299605,1,0,0:0:0:0:
448,192,299819,1,0,0:0:0:0:
64,192,299819,1,0,0:0:0:0:
192,192,300034,1,0,0:0:0:0:
448,192,300034,1,0,0:0:0:0:
64,192,300248,1,0,0:0:0:0:
192,192,300248,1,0,0:0:0:0:
448,192,300676,1,0,0:0:0:0:
64,192,300676,1,0,0:0:0:0:
192,192,301105,1,0,0:0:0:0:
448,192,301105,1,0,0:0:0:0:
448,192,301534,1,0,0:0:0:0:
64,192,301534,1,0,0:0:0:0:
192,192,301748,128,0,303034:0:0:0:0:
64,192,301748,1,4,0:0:0:0:
448,192,301855,1,0,0:0:0:0:
320,192,301962,1,0,0:0:0:0:
64,192,302069,1,0,0:0:0:0:
448,192,302176,1,0,0:0:0:0:
320,192,302176,1,8,0:0:0:0:
64,192,302284,1,0,0:0:0:0:
320,192,302391,1,0,0:0:0:0:
448,192,302498,1,0,0:0:0:0:
64,192,302605,1,0,0:0:0:0:
320,192,302712,1,0,0:0:0:0:
448,192,302819,1,0,0:0:0:0:
64,192,302926,1,0,0:0:0:0:
448,192,303034,128,0,303462:0:0:0:0:
320,192,303034,1,8,0:0:0:0:
64,192,303141,1,0,0:0:0:0:
192,192,303248,1,0,0:0:0:0:
64,192,303355,1,0,0:0:0:0:
320,192,303462,128,0,305176:0:0:0:0:
192,192,303462,1,4,0:0:0:0:
64,192,303569,1,0,0:0:0:0:
192,192,303676,1,0,0:0:0:0:
448,192,303784,1,0,0:0:0:0:
64,192,303891,1,0,0:0:0:0:
192,192,303891,1,8,0:0:0:0:
448,192,303998,1,0,0:0:0:0:
192,192,304105,1,0,0:0:0:0:
64,192,304212,1,0,0:0:0:0:
448,192,304319,1,0,0:0:0:0:
192,192,304426,1,0,0:0:0:0:
64,192,304534,1,0,0:0:0:0:
192,192,304641,1,0,0:0:0:0:
448,192,304748,1,8,0:0:0:0:
64,192,304748,1,0,0:0:0:0:
192,192,304855,1,0,0:0:0:0:
64,192,304962,1,0,0:0:0:0:
192,192,305069,1,0,0:0:0:0:
64,192,305176,128,0,306034:0:0:0:0:
448,192,305176,1,4,0:0:0:0:
192,192,305284,1,0,0:0:0:0:
320,192,305391,1,0,0:0:0:0:
448,192,305498,1,0,0:0:0:0:
320,192,305605,1,0,0:0:0:0:
192,192,305605,1,8,0:0:0:0:
448,192,305712,1,0,0:0:0:0:
192,192,305819,1,0,0:0:0:0:
320,192,305926,1,0,0:0:0:0:
448,192,306034,128,0,306676:0:0:0:0:
192,192,306034,1,0,0:0:0:0:
320,192,306141,1,0,0:0:0:0:
64,192,306248,1,0,0:0:0:0:
320,192,306355,1,0,0:0:0:0:
64,192,306462,1,0,0:0:0:0:
192,192,306462,1,8,0:0:0:0:
320,192,306569,1,0,0:0:0:0:
192,192,306676,1,0,0:0:0:0:
320,192,306730,1,0,0:0:0:0:
192,192,306784,1,0,0:0:0:0:
64,192,306837,1,0,0:0:0:0:
192,192,306891,128,4,308176:0:0:0:0:
320,192,306891,1,0,0:0:0:0:
64,192,306998,1,0,0:0:0:0:
320,192,307105,1,0,0:0:0:0:
64,192,307212,1,0,0:0:0:0:
320,192,307319,1,8,0:0:0:0:
448,192,307319,1,0,0:0:0:0:
64,192,307426,1,0,0:0:0:0:
448,192,307534,1,0,0:0:0:0:
320,192,307641,1,0,0:0:0:0:
64,192,307748,1,0,0:0:0:0:
448,192,307855,1,0,0:0:0:0:
320,192,307962,1,0,0:0:0:0:
64,192,308069,1,0,0:0:0:0:
320,192,308176,128,0,308605:0:0:0:0:
448,192,308176,1,8,0:0:0:0:
64,192,308284,1,0,0:0:0:0:
448,192,308391,1,0,0:0:0:0:
192,192,308498,1,0,0:0:0:0:
448,192,308605,128,0,310319:0:0:0:0:
64,192,308605,1,4,0:0:0:0:
192,192,308712,1,0,0:0:0:0:
64,192,308819,1,0,0:0:0:0:
192,192,308926,1,0,0:0:0:0:
320,192,309034,1,0,0:0:0:0:
64,192,309034,1,8,0:0:0:0:
192,192,309141,1,0,0:0:0:0:
320,192,309248,1,0,0:0:0:0:
64,192,309355,1,0,0:0:0:0:
320,192,309462,1,0,0:0:0:0:
64,192,309569,1,0,0:0:0:0:
192,192,309676,1,0,0:0:0:0:
64,192,309784,1,0,0:0:0:0:
320,192,309891,1,8,0:0:0:0:
192,192,309891,1,0,0:0:0:0:
64,192,309998,1,0,0:0:0:0:
192,192,310105,1,0,0:0:0:0:
320,192,310212,1,0,0:0:0:0:
192,192,310319,128,0,311605:0:0:0:0:
64,192,310319,1,4,0:0:0:0:
320,192,310426,1,0,0:0:0:0:
448,192,310534,1,0,0:0:0:0:
320,192,310641,1,0,0:0:0:0:
448,192,310748,1,8,0:0:0:0:
64,192,310748,1,0,0:0:0:0:
320,192,310855,1,0,0:0:0:0:
64,192,310962,1,0,0:0:0:0:
320,192,311069,1,0,0:0:0:0:
448,192,311176,1,0,0:0:0:0:
64,192,311284,1,0,0:0:0:0:
320,192,311391,1,0,0:0:0:0:
448,192,311498,1,0,0:0:0:0:
320,192,311605,128,0,312034:0:0:0:0:
64,192,311605,1,8,0:0:0:0:
448,192,311712,1,0,0:0:0:0:
192,192,311819,1,0,0:0:0:0:
448,192,311926,1,0,0:0:0:0:
192,192,312034,1,4,0:0:0:0:
64,192,312034,128,0,313748:0:0:0:0:
448,192,312141,1,0,0:0:0:0:
192,192,312248,1,0,0:0:0:0:
320,192,312355,1,0,0:0:0:0:
448,192,312462,1,8,0:0:0:0:
192,192,312462,1,0,0:0:0:0:
320,192,312569,1,0,0:0:0:0:
448,192,312676,1,0,0:0:0:0:
192,192,312784,1,0,0:0:0:0:
448,192,312891,1,0,0:0:0:0:
320,192,312998,1,0,0:0:0:0:
448,192,313105,1,0,0:0:0:0:
192,192,313212,1,0,0:0:0:0:
320,192,313319,1,8,0:0:0:0:
448,192,313319,1,0,0:0:0:0:
192,192,313426,1,0,0:0:0:0:
320,192,313534,1,0,0:0:0:0:
448,192,313641,1,0,0:0:0:0:
320,192,313748,128,0,315462:0:0:0:0:
192,192,313748,1,4,0:0:0:0:
448,192,313855,1,0,0:0:0:0:
192,192,313962,1,0,0:0:0:0:
64,192,314069,1,0,0:0:0:0:
448,192,314176,1,0,0:0:0:0:
192,192,314176,1,8,0:0:0:0:
64,192,314284,1,0,0:0:0:0:
192,192,314391,1,0,0:0:0:0:
64,192,314498,1,0,0:0:0:0:
448,192,314605,1,0,0:0:0:0:
192,192,314712,1,0,0:0:0:0:
64,192,314819,1,0,0:0:0:0:
192,192,314926,1,0,0:0:0:0:
64,192,315034,1,0,0:0:0:0:
448,192,315034,1,8,0:0:0:0:
192,192,315141,1,0,0:0:0:0:
448,192,315248,1,0,0:0:0:0:
64,192,315355,1,0,0:0:0:0:
192,192,315462,128,0,316748:0:0:0:0:
448,192,315462,1,4,0:0:0:0:
64,192,315569,1,0,0:0:0:0:
320,192,315676,1,0,0:0:0:0:
64,192,315784,1,0,0:0:0:0:
448,192,315891,1,0,0:0:0:0:
320,192,315891,1,8,0:0:0:0:
64,192,315998,1,0,0:0:0:0:
448,192,316105,1,0,0:0:0:0:
64,192,316212,1,0,0:0:0:0:
320,192,316319,1,0,0:0:0:0:
448,192,316426,1,0,0:0:0:0:
320,192,316534,1,0,0:0:0:0:
64,192,316641,1,0,0:0:0:0:
448,192,316748,128,0,317176:0:0:0:0:
320,192,316748,1,8,0:0:0:0:
64,192,316855,1,0,0:0:0:0:
192,192,316962,1,0,0:0:0:0:
320,192,317069,1,0,0:0:0:0:
64,192,317176,1,4,0:0:0:0:
192,192,317176,128,0,318891:0:0:0:0:
320,192,317284,1,0,0:0:0:0:
448,192,317391,1,0,0:0:0:0:
320,192,317498,1,0,0:0:0:0:
64,192,317605,1,8,0:0:0:0:
448,192,317605,1,0,0:0:0:0:
320,192,317712,1,0,0:0:0:0:
64,192,317819,1,0,0:0:0:0:
320,192,317926,1,0,0:0:0:0:
448,192,318034,1,0,0:0:0:0:
64,192,318141,1,0,0:0:0:0:
320,192,318248,1,0,0:0:0:0:
448,192,318355,1,0,0:0:0:0:
64,192,318462,1,0,0:0:0:0:
320,192,318462,1,8,0:0:0:0:
448,192,318569,1,0,0:0:0:0:
320,192,318676,1,0,0:0:0:0:
64,192,318784,1,0,0:0:0:0:
320,192,318891,128,0,319748:0:0:0:0:
448,192,318891,1,4,0:0:0:0:
64,192,318998,1,0,0:0:0:0:
448,192,319105,1,0,0:0:0:0:
192,192,319212,1,0,0:0:0:0:
64,192,319319,1,8,0:0:0:0:
448,192,319319,1,0,0:0:0:0:
192,192,319426,1,0,0:0:0:0:
64,192,319534,1,0,0:0:0:0:
448,192,319641,1,0,0:0:0:0:
64,192,319748,1,0,0:0:0:0:
192,192,319748,128,0,320605:0:0:0:0:
448,192,319855,1,0,0:0:0:0:
320,192,319962,1,0,0:0:0:0:
448,192,320069,1,0,0:0:0:0:
64,192,320176,1,0,0:0:0:0:
320,192,320176,1,8,0:0:0:0:
448,192,320284,1,0,0:0:0:0:
64,192,320391,1,0,0:0:0:0:
320,192,320498,1,0,0:0:0:0:
448,192,320605,128,0,321891:0:0:0:0:
64,192,320605,1,4,0:0:0:0:
320,192,320712,1,0,0:0:0:0:
64,192,320819,1,0,0:0:0:0:
192,192,320926,1,0,0:0:0:0:
64,192,321034,1,0,0:0:0:0:
320,192,321034,1,8,0:0:0:0:
192,192,321141,1,0,0:0:0:0:
64,192,321248,1,0,0:0:0:0:
320,192,321355,1,0,0:0:0:0:
192,192,321462,1,0,0:0:0:0:
320,192,321569,1,0,0:0:0:0:
64,192,321676,1,0,0:0:0:0:
192,192,321784,1,0,0:0:0:0:
320,192,321891,128,0,322319:0:0:0:0:
64,192,321891,1,8,0:0:0:0:
192,192,321998,1,0,0:0:0:0:
448,192,322105,1,0,0:0:0:0:
64,192,322212,1,0,0:0:0:0:
192,192,322319,128,0,324034:0:0:0:0:
448,192,322319,1,4,0:0:0:0:
64,192,322426,1,0,0:0:0:0:
320,192,322534,1,0,0:0:0:0:
64,192,322641,1,0,0:0:0:0:
320,192,322748,1,8,0:0:0:0:
448,192,322748,1,0,0:0:0:0:
64,192,322855,1,0,0:0:0:0:
320,192,322962,1,0,0:0:0:0:
64,192,323069,1,0,0:0:0:0:
320,192,323176,1,0,0:0:0:0:
448,192,323284,1,0,0:0:0:0:
320,192,323391,1,0,0:0:0:0:
448,192,323498,1,0,0:0:0:0:
320,192,323605,1,8,0:0:0:0:
64,192,323605,1,0,0:0:0:0:
448,192,323712,1,0,0:0:0:0:
320,192,323819,1,0,0:0:0:0:
64,192,323926,1,0,0:0:0:0:
448,192,324034,128,0,325319:0:0:0:0:
320,192,324034,1,4,0:0:0:0:
64,192,324141,1,0,0:0:0:0:
192,192,324248,1,0,0:0:0:0:
64,192,324355,1,0,0:0:0:0:
192,192,324462,1,8,0:0:0:0:
320,192,324462,1,0,0:0:0:0:
64,192,324569,1,0,0:0:0:0:
192,192,324676,1,0,0:0:0:0:
64,192,324784,1,0,0:0:0:0:
192,192,324891,1,0,0:0:0:0:
320,192,324998,1,0,0:0:0:0:
192,192,325105,1,0,0:0:0:0:
64,192,325212,1,0,0:0:0:0:
192,192,325319,128,0,325748:0:0:0:0:
320,192,325319,1,8,0:0:0:0:
64,192,325426,1,0,0:0:0:0:
320,192,325534,1,0,0:0:0:0:
448,192,325641,1,0,0:0:0:0:
320,192,325748,128,0,327462:0:0:0:0:
64,192,325748,1,4,0:0:0:0:
448,192,325855,1,0,0:0:0:0:
192,192,325962,1,0,0:0:0:0:
448,192,326069,1,0,0:0:0:0:
192,192,326176,1,0,0:0:0:0:
64,192,326176,1,8,0:0:0:0:
448,192,326284,1,0,0:0:0:0:
192,192,326391,1,0,0:0:0:0:
64,192,326498,1,0,0:0:0:0:
192,192,326605,1,0,0:0:0:0:
448,192,326712,1,0,0:0:0:0:
192,192,326819,1,0,0:0:0:0:
448,192,326926,1,0,0:0:0:0:
192,192,327034,1,8,0:0:0:0:
64,192,327034,1,0,0:0:0:0:
448,192,327141,1,0,0:0:0:0:
192,192,327248,1,0,0:0:0:0:
64,192,327355,1,0,0:0:0:0:
192,192,327462,128,0,329176:0:0:0:0:
448,192,327462,1,4,0:0:0:0:
64,192,327569,1,0,0:0:0:0:
320,192,327676,1,0,0:0:0:0:
64,192,327784,1,0,0:0:0:0:
448,192,327891,1,0,0:0:0:0:
320,192,327891,1,8,0:0:0:0:
64,192,327998,1,0,0:0:0:0:
320,192,328105,1,0,0:0:0:0:
64,192,328212,1,0,0:0:0:0:
448,192,328319,1,0,0:0:0:0:
64,192,328426,1,0,0:0:0:0:
320,192,328534,1,0,0:0:0:0:
64,192,328641,1,0,0:0:0:0:
448,192,328748,1,8,0:0:0:0:
320,192,328748,1,0,0:0:0:0:
64,192,328855,1,0,0:0:0:0:
320,192,328962,1,0,0:0:0:0:
64,192,329069,1,0,0:0:0:0:
448,192,329176,128,0,330462:0:0:0:0:
320,192,329176,1,0,0:0:0:0:
64,192,329391,1,0,0:0:0:0:
192,192,329605,1,0,0:0:0:0:
320,192,329605,1,0,0:0:0:0:
320,192,329819,1,0,0:0:0:0:
64,192,330034,1,0,0:0:0:0:
192,192,330034,1,0,0:0:0:0:
320,192,330248,1,0,0:0:0:0:
192,192,330462,128,0,330891:0:0:0:0:
64,192,330462,1,0,0:0:0:0:
320,192,330676,1,0,0:0:0:0:
320,192,330891,128,0,332605:0:0:0:0:
64,192,330891,1,0,0:0:0:0:
448,192,331105,1,0,0:0:0:0:
448,192,331319,1,0,0:0:0:0:
64,192,331319,1,0,0:0:0:0:
192,192,331534,1,0,0:0:0:0:
64,192,331748,1,0,0:0:0:0:
192,192,331748,1,0,0:0:0:0:
448,192,331962,1,0,0:0:0:0:
64,192,332176,1,0,0:0:0:0:
448,192,332176,1,0,0:0:0:0:
192,192,332391,1,0,0:0:0:0:
64,192,332605,128,0,333462:0:0:0:0:
192,192,332605,1,0,0:0:0:0:
448,192,332819,1,0,0:0:0:0:
192,192,333034,1,0,0:0:0:0:
448,192,333034,1,0,0:0:0:0:
320,192,333248,1,0,0:0:0:0:
320,192,333462,128,0,334105:0:0:0:0:
448,192,333462,1,0,0:0:0:0:
192,192,333676,1,0,0:0:0:0:
448,192,333891,1,0,0:0:0:0:
192,192,333891,1,0,0:0:0:0:
192,192,334105,1,0,0:0:0:0:
64,192,334159,1,0,0:0:0:0:
448,192,334212,1,0,0:0:0:0:
64,192,334266,1,0,0:0:0:0:
192,192,334319,128,0,335605:0:0:0:0:
320,192,334319,1,0,0:0:0:0:
320,192,334534,1,0,0:0:0:0:
448,192,334748,1,0,0:0:0:0:
64,192,334748,1,0,0:0:0:0:
320,192,334962,1,0,0:0:0:0:
448,192,335176,1,0,0:0:0:0:
64,192,335391,1,0,0:0:0:0:
448,192,335605,128,0,336034:0:0:0:0:
320,192,335605,1,0,0:0:0:0:
64,192,335819,1,0,0:0:0:0:
64,192,336034,128,0,337748:0:0:0:0:
192,192,336034,1,0,0:0:0:0:
448,192,336248,1,0,0:0:0:0:
320,192,336462,1,0,0:0:0:0:
192,192,336676,1,0,0:0:0:0:
448,192,336891,1,0,0:0:0:0:
320,192,337105,1,0,0:0:0:0:
192,192,337319,1,0,0:0:0:0:
448,192,337534,1,0,0:0:0:0:
320,192,337748,128,0,339034:0:0:0:0:
192,192,337748,1,0,0:0:0:0:
64,192,337962,1,0,0:0:0:0:
192,192,338176,1,0,0:0:0:0:
448,192,338391,1,0,0:0:0:0:
64,192,338605,1,0,0:0:0:0:
192,192,338819,1,0,0:0:0:0:
192,192,339034,128,0,339462:0:0:0:0:
448,192,339034,1,0,0:0:0:0:
320,192,339248,1,0,0:0:0:0:
448,192,339462,128,0,341176:0:0:0:0:
64,192,339462,1,0,0:0:0:0:
320,192,339676,1,0,0:0:0:0:
64,192,339891,1,0,0:0:0:0:
320,192,340105,1,0,0:0:0:0:
64,192,340319,1,0,0:0:0:0:
320,192,340534,1,0,0:0:0:0:
64,192,340748,1,0,0:0:0:0:
320,192,340962,1,0,0:0:0:0:
64,192,341176,128,0,342891:0:0:0:0:
192,192,341176,1,0,0:0:0:0:
448,192,341391,1,0,0:0:0:0:
192,192,341605,1,0,0:0:0:0:
448,192,341819,1,0,0:0:0:0:
192,192,342034,1,0,0:0:0:0:
448,192,342248,1,0,0:0:0:0:
192,192,342462,1,0,0:0:0:0:
448,192,342676,1,0,0:0:0:0:
320,192,342891,128,4,344176:0:0:0:0:
192,192,342891,1,4,0:0:0:0:
448,192,343105,1,0,0:0:0:0:
192,192,343534,1,0,0:0:0:0:
64,192,343962,1,0,0:0:0:0:
448,192,344176,128,0,344605:0:0:0:0:
192,192,344176,1,0,0:0:0:0:
64,192,344391,1,0,0:0:0:0:
192,192,344605,128,0,346319:0:0:0:0:
320,192,344605,1,0,0:0:0:0:
64,192,344819,1,0,0:0:0:0:
448,192,345248,1,0,0:0:0:0:
64,192,345676,1,0,0:0:0:0:
320,192,346105,1,0,0:0:0:0:
448,192,346319,128,0,347176:0:0:0:0:
64,192,346319,1,0,0:0:0:0:
320,192,346534,1,0,0:0:0:0:
192,192,346962,1,0,0:0:0:0:
64,192,347176,128,0,348034:0:0:0:0:
320,192,347176,1,0,0:0:0:0:
192,192,347391,1,0,0:0:0:0:
448,192,347819,1,0,0:0:0:0:
320,192,348034,128,0,349319:0:0:0:0:
192,192,348034,1,0,0:0:0:0:
448,192,348248,1,0,0:0:0:0:
192,192,348676,1,0,0:0:0:0:
448,192,349105,1,0,0:0:0:0:
192,192,349319,128,0,349748:0:0:0:0:
64,192,349319,1,0,0:0:0:0:
448,192,349534,1,0,0:0:0:0:
448,192,349748,128,0,351462:0:0:0:0:
320,192,349748,1,0,0:0:0:0:
64,192,349962,1,0,0:0:0:0:
320,192,350391,1,0,0:0:0:0:
64,192,350819,1,0,0:0:0:0:
320,192,351248,1,0,0:0:0:0:
192,192,351462,128,0,352748:0:0:0:0:
64,192,351462,1,0,0:0:0:0:
320,192,351676,1,0,0:0:0:0:
448,192,352105,1,0,0:0:0:0:
64,192,352534,1,0,0:0:0:0:
448,192,352748,128,0,353176:0:0:0:0:
320,192,352748,1,0,0:0:0:0:
192,192,352962,1,0,0:0:0:0:
64,192,353176,128,4,356605:0:0:0:0:
320,192,353176,128,0,354891:0:0:0:0:
192,192,353176,1,4,0:0:0:0:
448,192,353391,1,0,0:0:0:0:
192,192,353819,1,0,0:0:0:0:
448,192,354248,1,0,0:0:0:0:
192,192,354676,1,0,0:0:0:0:
448,192,354891,128,4,356605:0:0:0:0:
192,192,354891,1,4,0:0:0:0:
320,192,355105,1,0,0:0:0:0:
192,192,355534,1,0,0:0:0:0:
320,192,355962,1,0,0:0:0:0:
192,192,356391,1,0,0:0:0:0:
320,192,356605,1,4,0:0:0:0:
192,192,356712,1,0,0:0:0:0:
64,192,356819,1,0,0:0:0:0:
320,192,356926,1,0,0:0:0:0:
192,192,357034,1,0,0:0:0:0:
448,192,357034,1,8,0:0:0:0:
320,192,357248,1,0,0:0:0:0:
64,192,357248,1,0,0:0:0:0:
192,192,357355,1,0,0:0:0:0:
64,192,357462,1,0,0:0:0:0:
448,192,357462,1,0,0:0:0:0:
192,192,357676,1,0,0:0:0:0:
320,192,357676,1,0,0:0:0:0:
448,192,357784,1,0,0:0:0:0:
320,192,357891,1,0,0:0:0:0:
64,192,357891,1,8,0:0:0:0:
192,192,358105,1,0,0:0:0:0:
64,192,358105,1,0,0:0:0:0:
448,192,358212,1,0,0:0:0:0:
320,192,358319,1,0,0:0:0:0:
192,192,358319,1,0,0:0:0:0:
64,192,358426,1,0,0:0:0:0:
320,192,358534,1,0,0:0:0:0:
448,192,358641,1,0,0:0:0:0:
192,192,358748,1,8,0:0:0:0:
64,192,358748,1,0,0:0:0:0:
320,192,358962,1,0,0:0:0:0:
448,192,358962,1,0,0:0:0:0:
64,192,359069,1,0,0:0:0:0:
192,192,359176,1,0,0:0:0:0:
320,192,359176,1,0,0:0:0:0:
64,192,359391,1,0,0:0:0:0:
448,192,359391,1,0,0:0:0:0:
192,192,359498,1,0,0:0:0:0:
320,192,359605,1,0,0:0:0:0:
448,192,359605,1,8,0:0:0:0:
192,192,359819,1,0,0:0:0:0:
320,192,359819,1,0,0:0:0:0:
448,192,359926,1,0,0:0:0:0:
320,192,360034,1,0,0:0:0:0:
64,192,360034,1,0,0:0:0:0:
192,192,360141,1,0,0:0:0:0:
64,192,360248,1,0,0:0:0:0:
320,192,360355,1,0,0:0:0:0:
192,192,360462,1,8,0:0:0:0:
448,192,360462,1,0,0:0:0:0:
64,192,360676,1,0,0:0:0:0:
192,192,360676,1,0,0:0:0:0:
448,192,360784,1,0,0:0:0:0:
320,192,360891,1,0,0:0:0:0:
192,192,360891,1,0,0:0:0:0:
64,192,361105,1,0,0:0:0:0:
320,192,361105,1,0,0:0:0:0:
192,192,361212,1,0,0:0:0:0:
320,192,361319,1,8,0:0:0:0:
448,192,361319,1,0,0:0:0:0:
64,192,361534,1,0,0:0:0:0:
192,192,361534,1,0,0:0:0:0:
320,192,361748,1,0,0:0:0:0:
192,192,361748,1,0,0:0:0:0:
448,192,361855,1,0,0:0:0:0:
64,192,361962,1,0,0:0:0:0:
192,192,362069,1,0,0:0:0:0:
320,192,362176,1,8,0:0:0:0:
64,192,362176,1,0,0:0:0:0:
64,192,362391,1,0,0:0:0:0:
192,192,362391,1,0,0:0:0:0:
320,192,362498,1,0,0:0:0:0:
192,192,362605,1,0,0:0:0:0:
448,192,362605,1,0,0:0:0:0:
64,192,362819,1,0,0:0:0:0:
320,192,362819,1,0,0:0:0:0:
192,192,362926,1,0,0:0:0:0:
448,192,363034,1,0,0:0:0:0:
320,192,363034,1,8,0:0:0:0:
192,192,363248,1,0,0:0:0:0:
448,192,363248,1,0,0:0:0:0:
320,192,363462,1,0,0:0:0:0:
64,192,363462,1,0,0:0:0:0:
448,192,363569,1,0,0:0:0:0:
192,192,363676,1,0,0:0:0:0:
320,192,363784,1,0,0:0:0:0:
192,192,363891,1,8,0:0:0:0:
448,192,363891,1,0,0:0:0:0:
64,192,364105,1,0,0:0:0:0:
192,192,364105,1,0,0:0:0:0:
320,192,364212,1,0,0:0:0:0:
448,192,364319,1,0,0:0:0:0:
192,192,364319,1,0,0:0:0:0:
64,192,364534,1,0,0:0:0:0:
448,192,364534,1,0,0:0:0:0:
192,192,364641,1,0,0:0:0:0:
64,192,364748,1,0,0:0:0:0:
320,192,364748,1,8,0:0:0:0:
320,192,364962,1,0,0:0:0:0:
192,192,364962,1,0,0:0:0:0:
64,192,365069,1,0,0:0:0:0:
192,192,365176,1,0,0:0:0:0:
448,192,365176,1,0,0:0:0:0:
64,192,365284,1,0,0:0:0:0:
320,192,365391,1,0,0:0:0:0:
192,192,365498,1,0,0:0:0:0:
64,192,365605,1,8,0:0:0:0:
448,192,365605,1,0,0:0:0:0:
320,192,365819,1,0,0:0:0:0:
64,192,365819,1,0,0:0:0:0:
448,192,365926,1,0,0:0:0:0:
192,192,366034,1,0,0:0:0:0:
320,192,366034,1,0,0:0:0:0:
64,192,366248,1,0,0:0:0:0:
448,192,366248,1,0,0:0:0:0:
320,192,366355,1,0,0:0:0:0:
448,192,366462,1,8,0:0:0:0:
192,192,366462,1,0,0:0:0:0:
320,192,366676,1,0,0:0:0:0:
64,192,366676,1,0,0:0:0:0:
448,192,366784,1,0,0:0:0:0:
64,192,366891,1,0,0:0:0:0:
192,192,366891,1,0,0:0:0:0:
320,192,366998,1,0,0:0:0:0:
448,192,367105,1,0,0:0:0:0:
192,192,367212,1,0,0:0:0:0:
64,192,367319,1,0,0:0:0:0:
448,192,367319,1,8,0:0:0:0:
192,192,367534,1,0,0:0:0:0:
320,192,367534,1,0,0:0:0:0:
64,192,367641,1,0,0:0:0:0:
320,192,367748,1,0,0:0:0:0:
448,192,367748,1,0,0:0:0:0:
64,192,367962,1,0,0:0:0:0:
320,192,367962,1,0,0:0:0:0:
192,192,368069,1,0,0:0:0:0:
448,192,368176,1,0,0:0:0:0:
64,192,368176,1,8,0:0:0:0:
320,192,368391,1,0,0:0:0:0:
192,192,368391,1,0,0:0:0:0:
64,192,368498,1,0,0:0:0:0:
448,192,368605,1,0,0:0:0:0:
192,192,368605,1,0,0:0:0:0:
64,192,368712,1,0,0:0:0:0:
448,192,368819,1,0,0:0:0:0:
192,192,368926,1,0,0:0:0:0:
64,192,369034,1,0,0:0:0:0:
320,192,369034,1,8,0:0:0:0:
192,192,369248,1,0,0:0:0:0:
320,192,369248,1,0,0:0:0:0:
448,192,369355,1,0,0:0:0:0:
64,192,369462,1,0,0:0:0:0:
320,192,369462,1,0,0:0:0:0:
320,192,369676,1,0,0:0:0:0:
64,192,369676,1,0,0:0:0:0:
192,192,369784,1,0,0:0:0:0:
320,192,369891,1,8,0:0:0:0:
448,192,369891,1,0,0:0:0:0:
320,192,370105,1,0,0:0:0:0:
192,192,370105,1,0,0:0:0:0:
64,192,370319,1,0,0:0:0:0:
192,192,370319,1,0,0:0:0:0:
448,192,370319,1,0,0:0:0:0:
320,192,370426,1,0,0:0:0:0:
192,192,370534,1,0,0:0:0:0:
448,192,370641,1,0,0:0:0:0:
320,192,370748,1,8,0:0:0:0:
64,192,370748,1,0,0:0:0:0:
448,192,370962,1,0,0:0:0:0:
320,192,370962,1,0,0:0:0:0:
320,192,371176,1,0,0:0:0:0:
192,192,371176,1,0,0:0:0:0:
192,192,371391,1,0,0:0:0:0:
64,192,371391,1,0,0:0:0:0:
320,192,371498,1,0,0:0:0:0:
64,192,371605,1,8,0:0:0:0:
448,192,371605,1,0,0:0:0:0:
192,192,371819,1,0,0:0:0:0:
64,192,372034,1,0,0:0:0:0:
448,192,372034,1,0,0:0:0:0:
192,192,372141,1,0,0:0:0:0:
320,192,372248,1,0,0:0:0:0:
64,192,372355,1,0,0:0:0:0:
192,192,372462,1,8,0:0:0:0:
448,192,372462,1,0,0:0:0:0:
64,192,372676,1,0,0:0:0:0:
192,192,372676,1,0,0:0:0:0:
192,192,372891,1,0,0:0:0:0:
320,192,372891,1,0,0:0:0:0:
320,192,373105,1,0,0:0:0:0:
64,192,373105,1,0,0:0:0:0:
192,192,373212,1,0,0:0:0:0:
448,192,373319,1,8,0:0:0:0:
64,192,373319,1,0,0:0:0:0:
320,192,373534,1,0,0:0:0:0:
192,192,373748,1,0,0:0:0:0:
64,192,373748,1,0,0:0:0:0:
320,192,373855,1,0,0:0:0:0:
448,192,373962,1,0,0:0:0:0:
192,192,374069,1,0,0:0:0:0:
64,192,374176,1,0,0:0:0:0:
320,192,374176,1,8,0:0:0:0:
192,192,374391,1,0,0:0:0:0:
320,192,374391,1,0,0:0:0:0:
320,192,374605,1,0,0:0:0:0:
448,192,374605,1,0,0:0:0:0:
448,192,374819,1,0,0:0:0:0:
192,192,374819,1,0,0:0:0:0:
320,192,374926,1,0,0:0:0:0:
64,192,375034,1,8,0:0:0:0:
192,192,375034,1,0,0:0:0:0:
192,192,375248,1,0,0:0:0:0:
64,192,375462,1,0,0:0:0:0:
448,192,375462,1,0,0:0:0:0:
320,192,375569,1,0,0:0:0:0:
192,192,375676,1,0,0:0:0:0:
64,192,375784,1,0,0:0:0:0:
320,192,375891,1,8,0:0:0:0:
448,192,375891,1,0,0:0:0:0:
192,192,376105,1,0,0:0:0:0:
320,192,376105,1,0,0:0:0:0:
320,192,376319,1,0,0:0:0:0:
64,192,376319,1,0,0:0:0:0:
448,192,376534,1,0,0:0:0:0:
320,192,376534,1,0,0:0:0:0:
192,192,376641,1,0,0:0:0:0:
64,192,376748,1,0,0:0:0:0:
320,192,376748,1,8,0:0:0:0:
320,192,376962,1,0,0:0:0:0:
448,192,377176,1,0,0:0:0:0:
192,192,377176,1,0,0:0:0:0:
320,192,377284,1,0,0:0:0:0:
64,192,377391,1,0,0:0:0:0:
448,192,377498,1,0,0:0:0:0:
192,192,377605,1,0,0:0:0:0:
320,192,377605,1,8,0:0:0:0:
448,192,377819,1,0,0:0:0:0:
64,192,377819,1,0,0:0:0:0:
192,192,378034,1,0,0:0:0:0:
448,192,378034,1,0,0:0:0:0:
320,192,378248,1,0,0:0:0:0:
64,192,378248,1,0,0:0:0:0:
192,192,378355,1,0,0:0:0:0:
64,192,378462,1,8,0:0:0:0:
448,192,378462,1,0,0:0:0:0:
192,192,378676,1,0,0:0:0:0:
320,192,378891,1,0,0:0:0:0:
448,192,378891,1,0,0:0:0:0:
64,192,378998,1,0,0:0:0:0:
192,192,379105,1,0,0:0:0:0:
320,192,379212,1,0,0:0:0:0:
64,192,379319,1,0,0:0:0:0:
192,192,379319,1,8,0:0:0:0:
192,192,379534,1,0,0:0:0:0:
320,192,379534,1,0,0:0:0:0:
320,192,379748,1,0,0:0:0:0:
64,192,379748,1,0,0:0:0:0:
64,192,379962,1,0,0:0:0:0:
448,192,379962,1,0,0:0:0:0:
192,192,380069,1,0,0:0:0:0:
320,192,380176,1,0,0:0:0:0:
448,192,380176,1,8,0:0:0:0:
448,192,380391,1,0,0:0:0:0:
320,192,380605,1,0,0:0:0:0:
192,192,380605,1,0,0:0:0:0:
64,192,380712,1,0,0:0:0:0:
448,192,380819,1,0,0:0:0:0:
192,192,380926,1,0,0:0:0:0:
64,192,381034,1,8,0:0:0:0:
320,192,381034,1,0,0:0:0:0:
192,192,381248,1,0,0:0:0:0:
320,192,381248,1,0,0:0:0:0:
448,192,381462,1,0,0:0:0:0:
320,192,381462,1,0,0:0:0:0:
64,192,381676,1,0,0:0:0:0:
192,192,381676,1,0,0:0:0:0:
320,192,381784,1,0,0:0:0:0:
192,192,381891,1,0,0:0:0:0:
448,192,381891,1,8,0:0:0:0:
320,192,382105,1,0,0:0:0:0:
192,192,382319,1,0,0:0:0:0:
64,192,382319,1,0,0:0:0:0:
448,192,382534,1,0,0:0:0:0:
64,192,382962,1,0,0:0:0:0:
192,192,383391,1,0,0:0:0:0:
448,192,383391,128,0,384034:0:0:0:0:
320,192,383819,1,0,0:0:0:0:
64,192,384034,1,0,0:0:0:0:
192,192,384034,1,0,0:0:0:0:
320,192,384141,1,0,0:0:0:0:
448,192,384248,1,0,0:0:0:0:
192,192,384355,1,0,0:0:0:0:
64,192,384462,1,0,0:0:0:0:
320,192,384462,1,8,0:0:0:0:
192,192,384676,1,0,0:0:0:0:
64,192,384891,1,0,0:0:0:0:
320,192,385105,1,0,0:0:0:0:
448,192,385212,1,0,0:0:0:0:
64,192,385319,1,0,0:0:0:0:
192,192,385319,1,8,0:0:0:0:
192,192,385748,1,0,0:0:0:0:
448,192,385748,1,0,0:0:0:0:
320,192,385855,1,0,0:0:0:0:
64,192,385962,1,0,0:0:0:0:
192,192,386069,1,0,0:0:0:0:
320,192,386176,1,0,0:0:0:0:
448,192,386176,1,8,0:0:0:0:
192,192,386391,1,0,0:0:0:0:
64,192,386605,1,0,0:0:0:0:
320,192,386819,1,0,0:0:0:0:
448,192,386926,1,0,0:0:0:0:
64,192,387034,1,0,0:0:0:0:
192,192,387034,1,8,0:0:0:0:
320,192,387462,1,0,0:0:0:0:
192,192,387462,1,0,0:0:0:0:
64,192,387569,1,0,0:0:0:0:
448,192,387676,1,0,0:0:0:0:
320,192,387784,1,0,0:0:0:0:
64,192,387891,1,0,0:0:0:0:
192,192,387891,1,8,0:0:0:0:
320,192,388105,1,0,0:0:0:0:
448,192,388319,1,0,0:0:0:0:
192,192,388534,1,0,0:0:0:0:
448,192,388641,1,0,0:0:0:0:
64,192,388748,1,0,0:0:0:0:
320,192,388748,1,8,0:0:0:0:
448,192,389176,1,0,0:0:0:0:
320,192,389176,1,0,0:0:0:0:
192,192,389284,1,0,0:0:0:0:
64,192,389391,1,0,0:0:0:0:
320,192,389498,1,0,0:0:0:0:
448,192,389605,1,0,0:0:0:0:
192,192,389605,1,8,0:0:0:0:
64,192,389819,1,0,0:0:0:0:
448,192,390034,1,0,0:0:0:0:
192,192,390248,1,0,0:0:0:0:
448,192,390355,1,0,0:0:0:0:
64,192,390462,1,0,0:0:0:0:
320,192,390462,1,8,0:0:0:0:
192,192,390891,1,0,0:0:0:0:
448,192,390891,1,0,0:0:0:0:
64,192,390998,1,0,0:0:0:0:
320,192,391105,1,0,0:0:0:0:
192,192,391212,1,0,0:0:0:0:
448,192,391319,1,8,0:0:0:0:
64,192,391319,1,0,0:0:0:0:
192,192,391534,1,0,0:0:0:0:
448,192,391748,1,0,0:0:0:0:
192,192,391962,1,0,0:0:0:0:
448,192,392069,1,0,0:0:0:0:
320,192,392176,1,8,0:0:0:0:
64,192,392176,1,0,0:0:0:0:
320,192,392605,1,0,0:0:0:0:
192,192,392605,1,0,0:0:0:0:
448,192,392712,1,0,0:0:0:0:
64,192,392819,1,0,0:0:0:0:
320,192,392926,1,0,0:0:0:0:
192,192,393034,1,0,0:0:0:0:
448,192,393034,1,8,0:0:0:0:
320,192,393248,1,0,0:0:0:0:
64,192,393462,1,0,0:0:0:0:
448,192,393676,1,0,0:0:0:0:
320,192,393784,1,0,0:0:0:0:
192,192,393891,1,8,0:0:0:0:
64,192,393891,1,0,0:0:0:0:
192,192,394319,1,0,0:0:0:0:
448,192,394319,1,0,0:0:0:0:
320,192,394426,1,0,0:0:0:0:
64,192,394534,1,0,0:0:0:0:
448,192,394641,1,0,0:0:0:0:
320,192,394748,1,8,0:0:0:0:
192,192,394748,1,0,0:0:0:0:
448,192,394962,1,0,0:0:0:0:
320,192,395176,1,0,0:0:0:0:
448,192,395391,1,0,0:0:0:0:
320,192,395498,1,0,0:0:0:0:
64,192,395605,1,8,0:0:0:0:
192,192,395605,1,0,0:0:0:0:
320,192,396034,1,0,0:0:0:0:
448,192,396034,1,0,0:0:0:0:
192,192,396141,1,0,0:0:0:0:
64,192,396248,1,0,0:0:0:0:
320,192,396355,1,0,0:0:0:0:
448,192,396462,1,8,0:0:0:0:
192,192,396462,1,0,0:0:0:0:
64,192,396676,1,0,0:0:0:0:
320,192,396891,1,0,0:0:0:0:
192,192,397105,1,0,0:0:0:0:
320,192,397212,1,0,0:0:0:0:
64,192,397319,1,8,0:0:0:0:
448,192,397319,1,0,0:0:0:0:
64,192,397748,1,0,0:0:0:0:
448,192,397748,1,0,0:0:0:0:
192,192,397748,1,0,0:0:0:0:
320,192,397962,1,0,0:0:0:0:
64,192,398176,1,0,0:0:0:0:
192,192,398176,1,8,0:0:0:0:
320,192,398391,1,0,0:0:0:0:
448,192,398498,1,0,0:0:0:0:
320,192,398819,1,0,0:0:0:0:
448,192,398926,1,0,0:0:0:0:
192,192,399034,1,0,0:0:0:0:
64,192,399034,1,8,0:0:0:0:
320,192,399462,1,0,0:0:0:0:
64,192,399462,1,0,0:0:0:0:
192,192,399676,1,0,0:0:0:0:
448,192,399891,1,8,0:0:0:0:
64,192,399891,1,0,0:0:0:0:
192,192,400105,1,0,0:0:0:0:
64,192,400212,1,0,0:0:0:0:
448,192,400534,1,0,0:0:0:0:
64,192,400641,1,0,0:0:0:0:
192,192,400748,1,0,0:0:0:0:
320,192,400748,1,8,0:0:0:0:
64,192,401176,1,0,0:0:0:0:
448,192,401176,1,0,0:0:0:0:
320,192,401391,1,0,0:0:0:0:
64,192,401605,1,0,0:0:0:0:
192,192,401605,1,8,0:0:0:0:
320,192,401819,1,0,0:0:0:0:
448,192,401926,1,0,0:0:0:0:
192,192,402248,1,0,0:0:0:0:
64,192,402355,1,0,0:0:0:0:
448,192,402462,1,0,0:0:0:0:
320,192,402462,1,8,0:0:0:0:
192,192,402891,1,0,0:0:0:0:
320,192,402891,1,0,0:0:0:0:
448,192,403105,1,0,0:0:0:0:
64,192,403319,1,0,0:0:0:0:
320,192,403319,1,8,0:0:0:0:
192,192,403534,1,0,0:0:0:0:
448,192,403641,1,0,0:0:0:0:
64,192,403962,1,0,0:0:0:0:
320,192,404069,1,0,0:0:0:0:
448,192,404176,1,0,0:0:0:0:
192,192,404176,1,8,0:0:0:0:
64,192,404605,1,0,0:0:0:0:
192,192,404605,1,0,0:0:0:0:
448,192,404819,1,0,0:0:0:0:
192,192,405034,1,0,0:0:0:0:
320,192,405034,1,8,0:0:0:0:
64,192,405248,1,0,0:0:0:0:
448,192,405355,1,0,0:0:0:0:
320,192,405676,1,0,0:0:0:0:
192,192,405784,1,0,0:0:0:0:
64,192,405891,1,8,0:0:0:0:
448,192,405891,1,0,0:0:0:0:
320,192,406319,1,0,0:0:0:0:
64,192,406319,1,0,0:0:0:0:
192,192,406534,1,0,0:0:0:0:
448,192,406748,1,8,0:0:0:0:
64,192,406748,1,0,0:0:0:0:
320,192,406962,1,0,0:0:0:0:
192,192,407069,1,0,0:0:0:0:
64,192,407391,1,0,0:0:0:0:
192,192,407498,1,0,0:0:0:0:
448,192,407605,1,0,0:0:0:0:
320,192,407605,1,8,0:0:0:0:
64,192,408034,1,0,0:0:0:0:
192,192,408034,1,0,0:0:0:0:
448,192,408248,1,0,0:0:0:0:
192,192,408462,1,8,0:0:0:0:
320,192,408462,1,0,0:0:0:0:
64,192,408676,1,0,0:0:0:0:
448,192,408784,1,0,0:0:0:0:
64,192,409105,1,0,0:0:0:0:
320,192,409212,1,0,0:0:0:0:
192,192,409319,1,0,0:0:0:0:
448,192,409319,1,8,0:0:0:0:
448,192,409748,1,0,0:0:0:0:
320,192,409748,1,0,0:0:0:0:
192,192,409962,1,0,0:0:0:0:
64,192,410391,1,0,0:0:0:0:
320,192,410819,1,0,0:0:0:0:
448,192,411248,1,0,0:0:0:0:
64,192,411462,1,0,0:0:0:0:
192,192,411462,1,0,0:0:0:0:
320,192,411462,1,0,0:0:0:0:
448,192,411676,1,0,0:0:0:0:
320,192,411891,1,0,0:0:0:0:
64,192,411891,1,0,0:0:0:0:
192,192,412319,1,0,0:0:0:0:
448,192,412319,1,0,0:0:0:0:
320,192,412426,1,0,0:0:0:0:
64,192,412534,1,0,0:0:0:0:
448,192,412748,1,0,0:0:0:0:
320,192,412748,1,0,0:0:0:0:
192,192,413176,1,0,0:0:0:0:
64,192,413176,1,0,0:0:0:0:
320,192,413391,1,0,0:0:0:0:
64,192,413605,1,0,0:0:0:0:
448,192,413605,1,0,0:0:0:0:
320,192,414034,1,0,0:0:0:0:
192,192,414034,1,0,0:0:0:0:
448,192,414141,1,0,0:0:0:0:
64,192,414248,1,0,0:0:0:0:
448,192,414462,1,0,0:0:0:0:
192,192,414462,1,0,0:0:0:0:
192,192,414891,1,0,0:0:0:0:
64,192,414891,1,0,0:0:0:0:
448,192,415105,1,0,0:0:0:0:
320,192,415319,1,0,0:0:0:0:
64,192,415319,1,0,0:0:0:0:
448,192,415748,1,0,0:0:0:0:
64,192,415748,1,0,0:0:0:0:
192,192,415855,1,0,0:0:0:0:
320,192,415962,1,0,0:0:0:0:
192,192,416176,1,0,0:0:0:0:
448,192,416176,1,0,0:0:0:0:
64,192,416605,1,0,0:0:0:0:
192,192,416605,1,0,0:0:0:0:
448,192,416819,1,0,0:0:0:0:
320,192,417034,1,0,0:0:0:0:
192,192,417034,1,0,0:0:0:0:
320,192,417462,1,0,0:0:0:0:
64,192,417462,1,0,0:0:0:0:
448,192,417569,1,0,0:0:0:0:
192,192,417676,1,0,0:0:0:0:
448,192,417891,1,0,0:0:0:0:
64,192,417891,1,0,0:0:0:0:
320,192,418319,1,0,0:0:0:0:
448,192,418319,1,0,0:0:0:0:
64,192,418534,1,0,0:0:0:0:
192,192,418748,1,0,0:0:0:0:
320,192,418748,1,0,0:0:0:0:
448,192,419176,1,0,0:0:0:0:
64,192,419176,1,0,0:0:0:0:
192,192,419284,1,0,0:0:0:0:
320,192,419391,1,0,0:0:0:0:
64,192,419605,1,0,0:0:0:0:
192,192,419605,1,0,0:0:0:0:
192,192,420034,1,0,0:0:0:0:
448,192,420034,1,0,0:0:0:0:
320,192,420248,1,0,0:0:0:0:
64,192,420462,1,0,0:0:0:0:
448,192,420462,1,0,0:0:0:0:
320,192,420891,1,0,0:0:0:0:
192,192,420891,1,0,0:0:0:0:
448,192,420998,1,0,0:0:0:0:
64,192,421105,1,0,0:0:0:0:
448,192,421319,1,0,0:0:0:0:
192,192,421319,1,0,0:0:0:0:
320,192,421748,1,0,0:0:0:0:
64,192,421748,1,0,0:0:0:0:
192,192,421962,1,0,0:0:0:0:
448,192,422176,1,0,0:0:0:0:
320,192,422176,1,0,0:0:0:0:
320,192,422605,1,0,0:0:0:0:
64,192,422605,1,0,0:0:0:0:
448,192,422712,1,0,0:0:0:0:
192,192,422819,1,0,0:0:0:0:
64,192,423034,1,0,0:0:0:0:
448,192,423034,1,0,0:0:0:0:
192,192,423462,1,0,0:0:0:0:
320,192,423462,1,0,0:0:0:0:
64,192,423676,1,0,0:0:0:0:
448,192,423891,1,0,0:0:0:0:
320,192,423891,1,0,0:0:0:0:
192,192,424319,1,0,0:0:0:0:
64,192,424319,1,0,0:0:0:0:
320,192,424426,1,0,0:0:0:0:
448,192,424534,1,0,0:0:0:0:
320,192,424748,1,0,0:0:0:0:
64,192,424748,1,0,0:0:0:0:
192,192,425176,1,0,0:0:0:0:
320,192,425176,1,0,0:0:0:0:
448,192,425176,1,0,0:0:0:0:
64,192,425391,1,0,0:0:0:0:
448,192,425605,1,0,0:0:0:0:
192,192,425605,1,0,0:0:0:0:
320,192,425819,1,0,0:0:0:0:
448,192,426034,1,0,0:0:0:0:
192,192,426248,1,0,0:0:0:0:
320,192,426462,1,0,0:0:0:0:
64,192,426462,1,0,0:0:0:0:
192,192,426676,1,0,0:0:0:0:
448,192,426891,1,0,0:0:0:0:
320,192,426891,1,0,0:0:0:0:
64,192,427105,1,0,0:0:0:0:
192,192,427319,1,0,0:0:0:0:
448,192,427319,1,0,0:0:0:0:
320,192,427534,1,0,0:0:0:0:
448,192,427748,1,0,0:0:0:0:
192,192,427962,1,0,0:0:0:0:
448,192,428176,1,0,0:0:0:0:
320,192,428176,1,0,0:0:0:0:
192,192,428391,1,0,0:0:0:0:
64,192,428605,1,0,0:0:0:0:
448,192,428605,1,0,0:0:0:0:
320,192,428819,1,0,0:0:0:0:
192,192,429034,1,0,0:0:0:0:
448,192,429034,1,0,0:0:0:0:
64,192,429248,1,0,0:0:0:0:
448,192,429462,1,0,0:0:0:0:
192,192,429676,1,0,0:0:0:0:
64,192,429891,1,0,0:0:0:0:
320,192,429891,1,0,0:0:0:0:
192,192,430105,1,0,0:0:0:0:
64,192,430319,1,0,0:0:0:0:
448,192,430319,1,0,0:0:0:0:
320,192,430534,1,0,0:0:0:0:
192,192,430748,1,0,0:0:0:0:
64,192,430748,1,0,0:0:0:0:
320,192,430962,1,0,0:0:0:0:
448,192,431176,1,0,0:0:0:0:
64,192,431391,1,0,0:0:0:0:
192,192,431605,1,0,0:0:0:0:
448,192,431605,1,0,0:0:0:0:
320,192,431819,1,0,0:0:0:0:
64,192,432034,1,0,0:0:0:0:
448,192,432034,1,0,0:0:0:0:
320,192,432462,1,0,0:0:0:0:
64,192,432462,1,0,0:0:0:0:
448,192,432891,1,0,0:0:0:0:
192,192,433319,1,0,0:0:0:0:
320,192,433319,1,0,0:0:0:0:
448,192,433748,1,0,0:0:0:0:
64,192,433748,1,0,0:0:0:0:
192,192,434176,1,0,0:0:0:0:
64,192,434176,1,0,0:0:0:0:
320,192,434605,1,0,0:0:0:0:
448,192,435034,1,0,0:0:0:0:
192,192,435034,1,0,0:0:0:0:
320,192,435462,128,0,438891:0:0:0:0:
192,192,435462,1,0,0:0:0:0:
64,192,435462,1,0,0:0:0:0:
448,192,435676,1,0,0:0:0:0:
64,192,435891,1,0,0:0:0:0:
192,192,435891,1,0,0:0:0:0:
192,192,436319,1,0,0:0:0:0:
64,192,436534,1,0,0:0:0:0:
192,192,436748,1,0,0:0:0:0:
448,192,436748,1,0,0:0:0:0:
64,192,436962,1,0,0:0:0:0:
192,192,437391,1,0,0:0:0:0:
448,192,437819,1,0,0:0:0:0:
192,192,438248,1,0,0:0:0:0:
64,192,438676,1,0,0:0:0:0:
192,192,438891,128,0,445748:0:0:0:0:
448,192,438891,128,0,445748:0:0:0:0:
